#VERSION:0.83;
#TITLE:SODA POP;
#SUBTITLE:;
#ARTIST:SAJA BOYS;
#TITLETRANSLIT:;
#SUBTITLETRANSLIT:;
#ARTISTTRANSLIT:;
#GENRE:K-POP DEMON HUNTERS;
#CREDIT:Sony & Netflix & Republic;
#MUSIC:SODA POP.ogg;
#BANNER:SODA POP.png;
#BACKGROUND:BG.png;
#JACKET:SODA POP-jacket.png;
#DISCIMAGE:;
#CDIMAGE:;
#SELECTABLE:YES;
#LYRICSPATH:SODA POP.lrc;
#CDTITLE:K-POP DEMON HUNTERS.png;
#SAMPLESTART:62.993;
#SAMPLELENGTH:15.000;
#BPMS:0.000000=115.350000,
4.000000=126.000000,
100.000000=63.000000,
108.000000=126.000000
;
#STOPS:;
#WARPS:;
#DELAYS:;
#SPEEDS:;
#SCROLLS:;
#TICKCOUNTS:;
#TIMESIGNATURES:;
#LABELS:;
#COMBOS:;
#FAKES:;
#BGCHANGES:0.000=SODA POP.avi=0.000=0=0=0=StretchNoLoop====,
99999=-nosongbg-=1.000=0=0=0 // don't automatically add -songbackground-
;
#FGCHANGES:;
#ATTACKS:;
#DISPLAYBPM:63.000:126.000;
#TAGS:DMCA;

//---------------dance-single - Wrland---------------
#NOTEDATA:;
#CHARTNAME:;
#CHARTSTYLE:Pad;
#CREDIT:Wrland;
#STEPSTYPE:dance-single;
#DESCRIPTION:Wrland;
#DIFFICULTY:Beginner;
#METER:3;
#METERF:3;
#RADARVALUES:0,0,0,0,0;
#NOTES:
// measure 0
0000
0000
0000
0000
,  // measure 1
0000
0000
0000
0000
,  // measure 2
0000
0000
0000
0000
,  // measure 3
0000
0000
0000
0000
,  // measure 4
0000
0000
0000
0000
,  // measure 5
1000
0000
0001
0000
,  // measure 6
0100
0000
0010
0000
,  // measure 7
0100
0000
0010
0000
,  // measure 8
0020
0000
0000
0130
,  // measure 9
0001
0000
1000
0000
,  // measure 10
0100
0000
0010
0000
,  // measure 11
0010
0000
0100
0000
,  // measure 12
1000
0000
0001
0000
,  // measure 13
0100
0000
0010
0000
,  // measure 14
0100
0000
0001
0000
,  // measure 15
0010
0000
0100
0000
,  // measure 16
0100
0010
0100
0010
,  // measure 17
0001
0000
0000
0000
0001
1000
0001
0000
,  // measure 18
0100
0000
0000
0000
0100
1000
0100
0000
,  // measure 19
0100
0000
0000
0000
0001
0100
0000
0000
,  // measure 20
0001
0000
0000
0000
0010
0100
0000
0000
,  // measure 21
1001
0000
1000
0100
,  // measure 22
1000
0100
1000
0100
0000
0000
0100
0010
,  // measure 23
0000
0000
0001
0100
0010
0000
0100
0000
,  // measure 24
0020
0000
0000
0030
,  // measure 25
2000
3000
0002
0003
,  // measure 26
0200
0300
0020
0030
,  // measure 27
0002
0000
0003
0000
,  // measure 28
2000
0000
3000
0000
,  // measure 29
0200
0000
0300
0020
0000
0030
0000
0200
,  // measure 30
0310
0000
1000
1001
,  // measure 31
0100
0000
0000
0000
0100
1000
0001
0000
,  // measure 32
0001
0000
0000
0000
0010
0001
0100
0000
,  // measure 33
1100
0000
0000
0000
0010
0100
0001
0000
,  // measure 34
0100
0000
0000
0000
0010
0100
0010
0000
,  // measure 35
1000
0000
0000
0000
1000
0010
0100
0000
,  // measure 36
0001
0000
0000
0000
0010
0100
0010
0000
,  // measure 37
0101
0000
0000
0000
1000
0010
0100
0000
,  // measure 38
0010
0000
0001
1001
,  // measure 39
0100
0000
0010
0000
,  // measure 40
0001
0100
0001
0000
0010
0100
0010
0000
,  // measure 41
1000
0000
0100
0000
,  // measure 42
0001
0000
0100
0001
0100
0000
0010
0000
,  // measure 43
0200
0300
0100
0010
,  // measure 44
0002
0003
0001
1000
,  // measure 45
0200
0300
0100
1000
,  // measure 46
0200
0300
0010
0100
,  // measure 47
0100
0000
0010
0000
,  // measure 48
0001
0000
1000
0000
,  // measure 49
0001
1000
0001
0000
0100
0010
0110
0000
,  // measure 50
0001
0000
1000
0000
,  // measure 51
2000
3000
0002
0003
,  // measure 52
0200
0300
0020
0030
,  // measure 53
0200
0300
0020
0030
,  // measure 54
0002
0003
0200
0300
,  // measure 55
0020
0030
0200
0300
,  // measure 56
0020
0030
0002
0003
,  // measure 57
0200
0300
2000
3000
,  // measure 58
0200
0300
0020
0030
,  // measure 59
0002
0003
2000
3000
,  // measure 60
0002
0003
0200
0300
,  // measure 61
0020
0030
0200
0300
,  // measure 62
0020
0000
0000
0000
0000
0000
0000
0030
,  // measure 63
0100
0000
0000
0000
0100
1000
0001
0000
,  // measure 64
0001
0000
0000
0000
0010
0001
0100
0000
,  // measure 65
1100
0000
0000
0000
0010
0100
0001
0000
,  // measure 66
0100
0000
0000
0000
0010
0100
0010
0000
,  // measure 67
1000
0000
0000
0000
1000
0010
0100
0000
,  // measure 68
0001
0000
0000
0000
0010
0100
0010
0000
,  // measure 69
0101
0000
0000
0000
1000
0010
0100
0000
,  // measure 70
0010
0000
0001
1001
,  // measure 71
0100
0000
0010
0000
,  // measure 72
0001
0100
0001
0000
0010
0100
0010
0000
,  // measure 73
1000
0000
0100
0000
,  // measure 74
0001
0000
0100
0001
0100
0000
0000
0000
;

//---------------dance-single - Wrland---------------
#NOTEDATA:;
#CHARTNAME:;
#CHARTSTYLE:Pad;
#CREDIT:Wrland;
#STEPSTYPE:dance-single;
#DESCRIPTION:Wrland;
#DIFFICULTY:Easy;
#METER:5;
#METERF:5;
#RADARVALUES:0,0,0,0,0;
#NOTES:
// measure 0
0000
0000
0000
0000
,  // measure 1
0000
0000
0000
0000
,  // measure 2
0000
0000
0000
0000
,  // measure 3
0000
0000
0000
0000
,  // measure 4
0000
0000
0000
0000
,  // measure 5
1000
1000
0001
0001
,  // measure 6
0100
0100
0010
0001
,  // measure 7
0100
0010
0100
0000
,  // measure 8
0020
0000
0000
0130
,  // measure 9
0001
1000
0001
1000
,  // measure 10
0100
1000
0100
0000
,  // measure 11
0010
0001
0100
0010
,  // measure 12
0100
0010
0001
0000
,  // measure 13
0100
1000
0100
1000
,  // measure 14
0100
0010
0001
0100
,  // measure 15
0010
0100
0010
0001
,  // measure 16
0100
0010
0100
0010
,  // measure 17
0001
0000
1000
0000
0001
1000
0001
0000
,  // measure 18
0100
0000
1000
0000
0100
1000
0100
0000
,  // measure 19
0100
0000
0010
0000
0001
0100
0000
0000
,  // measure 20
0001
0000
0100
0000
0010
0100
0000
0000
,  // measure 21
1001
0100
1000
0100
,  // measure 22
1000
0100
1000
0100
0000
0000
0100
0010
,  // measure 23
0000
0000
0001
0100
0010
0000
0100
0000
,  // measure 24
0020
0000
0000
0130
,  // measure 25
2000
3000
0002
0003
,  // measure 26
0200
0300
0020
0030
,  // measure 27
0002
0000
0003
0000
,  // measure 28
2000
0000
3000
0000
,  // measure 29
0200
0000
0300
0020
0000
0030
0000
0200
,  // measure 30
0310
0000
1000
1001
,  // measure 31
0100
0000
0010
0000
0100
1000
0001
0000
,  // measure 32
0001
0000
0100
0000
0010
0001
0100
0000
,  // measure 33
1100
0000
0100
0000
0010
0100
0001
0000
,  // measure 34
0100
0001
0100
0000
0010
0100
0010
0000
,  // measure 35
1000
0000
0100
0000
1000
0010
0100
0000
,  // measure 36
0001
0000
0100
0000
0010
0100
0010
0000
,  // measure 37
0101
0000
1000
0100
1000
0000
0100
0000
,  // measure 38
0010
0100
0010
0000
0001
0000
1001
0000
,  // measure 39
0100
0100
0010
0010
,  // measure 40
0001
0100
0001
0000
0010
0100
0010
0000
,  // measure 41
1000
0000
0100
1000
0100
0000
0010
0000
,  // measure 42
0001
0000
0100
0001
0100
0000
0010
0000
,  // measure 43
0200
0300
0100
0010
,  // measure 44
0002
0003
0001
1000
,  // measure 45
0200
0300
0100
1000
,  // measure 46
0200
0300
0010
0100
,  // measure 47
0100
0100
0010
0010
,  // measure 48
0001
0001
1000
1000
,  // measure 49
0001
1000
0001
0000
0100
0010
0110
0000
,  // measure 50
0001
0100
1000
0100
,  // measure 51
2000
3000
0002
0003
,  // measure 52
0200
0300
0020
0030
,  // measure 53
0200
0300
0020
0030
,  // measure 54
0002
0003
0200
0300
,  // measure 55
0020
0030
0200
0300
,  // measure 56
0020
0030
0002
0003
,  // measure 57
0200
0300
2000
3000
,  // measure 58
0200
0300
0020
0030
,  // measure 59
0002
0003
2000
3000
,  // measure 60
0002
0003
0200
0300
,  // measure 61
0020
0030
0200
0300
,  // measure 62
0020
0000
0000
0000
0000
0000
0000
0030
,  // measure 63
0100
0000
0010
0000
0100
1000
0001
0000
,  // measure 64
0001
0000
0100
0000
0010
0001
0100
0000
,  // measure 65
1100
0000
0100
0000
0010
0100
0001
0000
,  // measure 66
0100
0001
0100
0000
0010
0100
0010
0000
,  // measure 67
1000
0000
0100
0000
1000
0010
0100
0000
,  // measure 68
0001
0000
0100
0000
0010
0100
0010
0000
,  // measure 69
0101
0000
1000
0100
1000
0000
0100
0000
,  // measure 70
0010
0100
0010
0000
0001
0000
1001
0000
,  // measure 71
0100
0100
0010
0010
,  // measure 72
0001
0100
0001
0000
0010
0100
0010
0000
,  // measure 73
1000
0000
0100
1000
0100
1000
0010
0000
,  // measure 74
0001
0010
0100
0001
0100
0000
0000
0000
;

//---------------dance-single - Wrland---------------
#NOTEDATA:;
#CHARTNAME:;
#CHARTSTYLE:Pad;
#CREDIT:Wrland;
#STEPSTYPE:dance-single;
#DESCRIPTION:Wrland;
#DIFFICULTY:Medium;
#METER:9;
#METERF:9;
#RADARVALUES:0,0,0,0,0;
#NOTES:
// measure 0
0000
0000
0000
0000
,  // measure 1
0000
0000
0000
0000
,  // measure 2
0000
0000
0000
0000
,  // measure 3
0000
0000
0000
0000
,  // measure 4
0000
0000
0000
0000
,  // measure 5
1000
0000
0001
0000
1000
0001
0000
1000
,  // measure 6
0001
0000
0100
0000
0010
0100
0000
0010
,  // measure 7
0100
0000
0010
0000
0001
0100
0000
0000
,  // measure 8
0010
0010
0100
0100
0010
0010
0110
0000
,  // measure 9
0100
0000
0010
0000
0100
0001
0010
0000
,  // measure 10
0001
0000
0100
0001
0100
0010
0010
0002
,  // measure 11
0003
0100
1000
0010
0100
0010
1000
0010
,  // measure 12
0000
0100
0100
0100
0010
0020
0000
0031
,  // measure 13
0001
0000
0010
1000
0100
0000
0010
0001
0010
0000
0020
0000
0130
0000
0100
0000
,  // measure 14
0020
0000
0030
0100
0001
0000
0100
0000
0001
0000
0010
0000
0100
0000
2000
0000
,  // measure 15
3000
0100
0010
0200
0300
0010
0100
0020
,  // measure 16
0030
0001
0100
1000
0020
0030
0002
0003
,  // measure 17
0100
0000
0001
0000
0010
0000
1000
0000
0100
0001
0010
0000
0110
0000
0000
0000
,  // measure 18
1000
0000
0010
0000
0100
0000
0010
0000
1000
0010
0100
0000
1010
0000
0000
0000
,  // measure 19
0100
0000
0001
0000
0010
0000
0100
0000
0001
0010
0001
0010
0001
0020
0000
0030
,  // measure 20
0100
0000
0010
0000
0100
0000
0001
0000
1000
0100
1000
0100
1000
0200
0000
0300
,  // measure 21
0010
0000
0010
0100
0001
0100
0001
0100
,  // measure 22
0010
0001
0100
0020
0030
0000
1000
0200
,  // measure 23
0300
0000
0010
0001
1000
0001
1000
0000
,  // measure 24
0100
0000
0010
0100
0100
0000
0010
0000
0100
0000
0000
0000
0010
0000
0001
0000
,  // measure 25
0020
0030
0200
0300
0010
0100
0010
0000
,  // measure 26
0002
0003
0200
0300
1000
0100
1000
0000
,  // measure 27
0100
0010
0100
0010
,  // measure 28
0001
0000
0100
0000
0010
0000
0001
0100
,  // measure 29
0002
0000
0003
0200
0000
0300
0000
1000
,  // measure 30
0100
0000
0010
0100
0010
0000
0001
0000
0100
0000
0000
0000
0000
0000
0000
0000
,  // measure 31
0100
0001
0010
1000
0200
0300
0001
0000
,  // measure 32
0010
0001
0100
0001
0020
0030
0100
0000
,  // measure 33
1001
0000
0100
0010
0001
0100
0010
0000
,  // measure 34
0100
0000
0001
0100
0010
0000
0001
0000
0100
0000
0000
0000
0000
0000
0000
0000
,  // measure 35
0010
1000
0100
0010
0002
0003
0100
0000
,  // measure 36
0010
0100
0100
0010
0200
0300
0010
0000
,  // measure 37
0110
0000
0100
0010
0100
0010
0001
0000
,  // measure 38
0100
0000
0001
0100
0010
0000
0100
0000
0010
0000
0000
0000
1001
0000
0000
0000
,  // measure 39
0010
0000
1000
0010
0100
0000
0001
0000
,  // measure 40
1000
0000
0100
0001
0010
0000
0010
0000
,  // measure 41
0100
0000
0010
0100
1000
0000
0100
0000
,  // measure 42
0010
0000
0001
0010
0100
0000
0001
0000
0100
0000
0000
0000
0000
0000
0000
0000
,  // measure 43
0100
0000
0000
0000
0010
0000
0001
0000
0100
0000
0001
0100
0000
0000
0010
0000
,  // measure 44
0010
0000
0001
0000
0100
0000
0010
1000
0000
0000
0100
0000
0100
0010
0001
0000
,  // measure 45
0010
0000
1000
0001
0000
0000
0100
0000
0010
0100
0000
0000
0100
0000
0010
0000
,  // measure 46
0010
0000
0100
0000
0001
0000
0100
0001
0000
0000
0010
0000
0001
1000
0010
0000
,  // measure 47
0100
0010
0100
0010
1000
0001
1000
0001
,  // measure 48
0100
0010
0100
0010
0001
0010
0001
0010
,  // measure 49
0200
0000
0300
0000
0010
0000
0100
0000
0010
0000
0001
0000
0110
0000
0001
0100
,  // measure 50
1000
0000
0010
0000
0100
0000
0000
0000
0100
0010
0100
0000
0110
0000
0000
0000
,  // measure 51
0020
0030
0100
0010
0001
0000
0100
0000
,  // measure 52
0020
0000
0030
0200
0000
0300
0010
0000
0002
0000
0003
0200
0000
0300
1000
0000
,  // measure 53
0200
0000
0300
0000
0010
0000
0100
0000
0010
0000
0000
0001
0000
0000
0100
0010
,  // measure 54
0200
0000
0300
0002
0000
0003
0100
0000
2000
0000
3000
0200
0000
0300
1000
0000
,  // measure 55
0200
0000
0300
0010
0000
0000
0010
0000
0001
0000
0000
0100
0000
0000
0010
0000
,  // measure 56
0200
0000
0300
0020
0000
0030
0200
0000
0300
0000
0010
0000
0001
0000
0100
0000
,  // measure 57
0020
0000
0030
0002
0000
0003
0200
0000
0300
0000
0010
0000
0001
0000
1000
0000
,  // measure 58
0200
0000
0300
0020
0000
0030
0200
0000
0300
0000
0010
0000
0001
0000
0100
0000
,  // measure 59
0020
0000
0030
0200
0000
0300
0020
0000
0030
0000
0002
0000
0000
0000
0000
0000
,  // measure 60
0000
0000
0000
0000
0003
0000
1000
0001
1000
0000
0100
0000
1000
0000
0000
0000
,  // measure 61
0200
0000
0300
0020
0000
0030
0002
0000
0000
0003
0100
0000
0020
0000
0000
0000
,  // measure 62
0100
1000
0100
1000
,  // measure 63
0130
0001
0010
1000
0200
0300
0001
0000
,  // measure 64
0010
0001
0100
0001
0020
0030
0100
0000
,  // measure 65
1001
0000
0100
0010
0001
0100
0010
0000
,  // measure 66
0100
0000
0001
0100
0010
0000
0001
0000
0100
0000
0000
0000
0000
0000
0000
0000
,  // measure 67
0100
0010
0100
1000
0200
0300
0010
0000
,  // measure 68
0001
0100
0001
0010
2000
3000
0010
0000
,  // measure 69
0110
0000
0001
0010
0100
0010
0001
0000
,  // measure 70
0100
0000
0001
0100
0010
0000
0100
0000
0010
0000
0000
0000
0110
0000
0000
0000
,  // measure 71
0010
0000
1000
0010
0200
0300
0001
0000
,  // measure 72
1000
0000
0100
0001
0020
0030
0100
0000
,  // measure 73
0100
0000
0010
0100
0001
0010
0100
0000
,  // measure 74
0010
0000
0001
0010
0100
0000
0001
0000
0100
0000
0000
0000
0000
0000
0000
0000
;

//---------------dance-single - Wrland---------------
#NOTEDATA:;
#CHARTNAME:;
#CHARTSTYLE:Pad;
#CREDIT:Wrland;
#STEPSTYPE:dance-single;
#DESCRIPTION:Wrland;
#DIFFICULTY:Hard;
#METER:13;
#METERF:13;
#RADARVALUES:0,0,0,0,0;
#NOTES:
// measure 0
0000
0000
0000
0000
,  // measure 1
0000
0000
0000
0000
,  // measure 2
0000
0000
0000
0000
,  // measure 3
0000
0000
0000
0000
,  // measure 4
0000
0000
0000
0000
0000
0000
0000
0000
0010
0100
0000
0010
0100
0000
0010
0000
,  // measure 5
1000
0000
0100
1000
0100
0011
0001
1100
,  // measure 6
0010
0000
0100
0010
0001
0110
1000
1100
,  // measure 7
0010
0000
1000
0100
1000
0011
0000
0000
,  // measure 8
1000
0110
0001
0110
1000
0110
0002
0000
,  // measure 9
0103
0010
0100
0010
0001
0100
0010
0100
,  // measure 10
2000
3000
0100
1000
0100
0020
0030
0010
,  // measure 11
0000
0100
0010
0001
0100
0010
0100
0020
,  // measure 12
0030
0100
1000
0100
0010
0200
0300
0001
,  // measure 13
0100
0000
0001
1000
0010
0000
0100
0001
0010
0000
0002
0000
0103
0000
0010
0100
,  // measure 14
0010
0000
0100
0010
1000
0000
0200
0000
0300
0000
0001
0000
0100
0000
0020
0000
,  // measure 15
0030
0100
0010
0002
0003
0100
1000
0200
,  // measure 16
0300
0001
0100
0010
0200
0000
1300
0000
,  // measure 17
0100
0010
0100
0010
0200
0300
0010
0001
0010
0001
0200
0300
0010
0000
0000
0000
,  // measure 18
0100
1000
0100
1000
0200
0300
1000
0100
1000
0100
0020
0030
0001
0000
0000
0000
,  // measure 19
0100
0001
0010
0100
0002
0003
0010
0000
0100
1000
0010
0001
1000
0200
0300
0000
,  // measure 20
0100
0020
0030
0001
0200
0300
0010
0000
0010
0100
0001
0010
0100
0020
0030
0000
,  // measure 21
1001
0000
0000
0000
1000
0000
0100
0000
0010
0000
0001
0000
0100
0000
0001
0100
,  // measure 22
0010
0100
1000
0200
0300
0000
0100
0020
,  // measure 23
0030
0000
0100
1000
0200
0000
0310
0000
,  // measure 24
0001
0000
0100
0001
0100
0000
2000
0000
3000
0000
0010
0000
0001
0000
0001
0010
,  // measure 25
0200
0300
0020
0030
0200
0300
0020
0130
0001
0100
0001
0100
0000
0000
0010
0001
,  // measure 26
0200
0300
2000
3000
0200
0300
2000
3001
0100
1000
0100
2000
3000
0100
0010
0200
,  // measure 27
0310
0000
0001
0100
0010
0000
2000
0000
3000
0000
0100
0000
0010
0000
0001
0000
,  // measure 28
0010
0000
0100
0010
0001
0000
0200
0000
0300
0000
0001
0000
0100
0000
0001
0000
,  // measure 29
0200
0000
0000
0000
0300
0000
2000
0000
0000
0000
0000
3000
0000
0000
0200
0000
,  // measure 30
0310
0000
0010
0100
0010
0000
0100
0000
0010
0100
0010
0000
0110
0000
0000
0000
,  // measure 31
0100
0010
0100
0010
0200
0000
0310
0000
,  // measure 32
0010
0001
0010
0001
0020
0000
0031
0100
,  // measure 33
1001
0000
1000
0100
1000
0100
0011
0000
,  // measure 34
0001
0000
0100
0001
0100
0000
0010
0000
1000
0010
0100
0000
0110
0000
0000
0000
,  // measure 35
0010
0001
0100
0010
0200
0000
1300
0000
,  // measure 36
0100
0010
0001
0100
0020
0000
0130
0010
,  // measure 37
1001
0000
0100
1000
0100
0010
0001
0000
,  // measure 38
1000
0000
0001
1000
0001
0000
1000
0000
0100
0010
0100
0000
1001
0000
0000
0000
,  // measure 39
0100
0000
0000
0010
0100
0000
0100
0000
0010
0100
0010
0000
0001
0000
0100
0000
,  // measure 40
0010
0000
0000
0001
0010
0000
0100
0000
1000
0100
1000
0000
0100
0000
0010
0000
,  // measure 41
0001
0000
0000
0100
0001
0000
0100
0000
0010
0100
0010
0000
0100
0000
1000
0000
,  // measure 42
0100
0000
1000
0100
1000
0000
0100
0000
0010
0001
0100
0000
0110
0000
0000
0000
,  // measure 43
1100
0000
0000
0000
0100
0010
0100
0010
0002
0003
1000
0200
0300
0000
0010
0100
,  // measure 44
0002
0003
1000
0010
0200
0300
0010
0002
0003
0000
0100
0000
0010
0100
0010
1000
,  // measure 45
0200
0300
0010
0002
0003
0000
0100
0000
0010
0002
0003
0000
2000
0000
3100
0000
,  // measure 46
0001
0000
1000
0100
0010
0000
1000
0020
0030
0000
0100
0000
0010
0000
0100
0000
,  // measure 47
0010
0000
0100
0000
0010
0000
0100
0010
1000
0000
0100
0000
1000
0000
0100
0010
,  // measure 48
0100
0010
0001
0100
0001
0010
0100
1000
,  // measure 49
0010
0001
0100
0000
1000
0000
0100
0000
0100
1000
0010
0000
0101
0000
0010
0001
,  // measure 50
0100
0000
0001
0000
0100
0000
0000
0000
0001
0010
0100
0000
1000
0000
0000
0000
,  // measure 51
2002
0000
3003
0100
0000
0000
1000
0000
0100
0000
0000
0001
0000
0000
0100
0000
,  // measure 52
0200
0300
0000
0100
0000
0000
0010
0000
0002
0000
0003
0000
0100
0000
0001
0000
,  // measure 53
0020
0030
0000
0010
0000
0000
0001
0000
0010
0000
0000
0100
0000
0000
0010
0000
,  // measure 54
2000
3000
0000
2000
3000
0000
0100
0000
2000
3000
0000
0200
0300
0000
0010
0000
,  // measure 55
0002
0003
0000
0100
0000
0000
0001
0000
0100
0000
0000
0010
0000
0000
0100
0000
,  // measure 56
0020
0030
0000
0200
0300
0000
0010
0000
0001
0000
0010
0000
0100
0000
0010
0000
,  // measure 57
2000
3000
0000
0002
0003
0000
0200
0300
0000
0000
0020
0030
0100
0000
0010
0000
,  // measure 58
0002
0003
0000
2000
3000
0000
0200
0000
0300
0000
0001
0000
0010
0000
0001
0000
,  // measure 59
0200
0300
0000
0020
0030
0000
0200
0000
0300
0000
2000
0000
0000
0000
0000
0000
,  // measure 60
0002
0000
0000
0000
3003
0000
0100
0010
0100
0000
0010
0000
0002
0003
0100
0000
,  // measure 61
0020
0030
0000
0002
0003
0000
0020
0000
0030
0000
1000
0000
0100
0000
0001
0000
,  // measure 62
2000
0100
0010
0001
,  // measure 63
3001
0010
0001
0010
0200
0000
0310
0000
,  // measure 64
0010
0100
0010
0100
0020
0000
0031
0100
,  // measure 65
0110
0000
1000
0100
1000
0100
0110
0000
,  // measure 66
0001
0000
0100
0001
0100
0000
0010
0000
1000
0010
0100
0000
0110
0000
0000
0000
,  // measure 67
0010
0100
0010
0100
0020
0000
0031
0000
,  // measure 68
0100
0010
0001
0100
0020
0000
0130
0010
,  // measure 69
1001
0000
0100
1000
0100
0010
0001
0000
,  // measure 70
1000
0000
0001
1000
0001
0000
1000
0000
0100
0010
0100
0000
0110
0000
0000
0000
,  // measure 71
0100
0000
0000
0010
1000
0000
0100
0000
0020
0000
0030
0000
0001
0000
0100
0000
,  // measure 72
0010
0000
0000
0001
0010
0000
0100
0000
2000
0000
3000
0000
0100
0000
0010
0000
,  // measure 73
1001
0000
0000
0100
0001
0000
0100
0000
0010
0100
0010
0000
0100
0000
0000
0000
,  // measure 74
0100
0000
1000
0100
1000
0000
0100
0000
0010
0001
0100
0000
0110
0000
0000
0000
;

//---------------dance-single - My little SOPA POP!---------------
#NOTEDATA:;
#CHARTNAME:;
#CHARTSTYLE:Pad;
#CREDIT:Wrland;
#STEPSTYPE:dance-single;
#DESCRIPTION:My little SOPA POP!;
#DIFFICULTY:Challenge;
#METER:15;
#METERF:15;
#RADARVALUES:0,0,0,0,0;
#NOTES:
// measure 0
0000
0000
0000
0000
,  // measure 1
0100
0000
0000
0000
0100
0000
0000
0000
0010
0000
0000
0001
0000
0000
0100
0000
,  // measure 2
0010
0001
0000
0100
0000
0001
0010
0000
0100
0010
0000
0001
0000
0100
0001
0000
,  // measure 3
0100
0000
0000
0000
1000
0000
0000
0000
0100
0000
0000
1000
0000
0000
0100
0000
,  // measure 4
1000
0100
0000
0010
0000
0001
0010
0000
1000
0001
0000
1000
0001
1000
0001
0000
,  // measure 5
0100
0000
0010
0000
0100
0000
0001
0100
0001
0000
0100
0010
0100
0000
1000
0000
,  // measure 6
0100
0000
1000
0000
1000
0000
0100
1000
0100
0000
0010
0100
0010
0000
0001
0000
,  // measure 7
0100
0000
0001
0100
0001
0000
0100
0010
0100
0000
1000
0100
0010
0000
0000
0000
,  // measure 8
0100
0110
0010
0110
0100
0110
0200
0000
,  // measure 9
0310
0000
0100
0010
0100
0000
0010
0000
0001
0000
0100
0010
0100
0000
0100
0000
,  // measure 10
0020
0000
0030
0000
0100
0000
1000
0000
0100
0000
1000
0100
0010
0000
0200
0000
,  // measure 11
0310
0000
0100
0010
1000
0000
0100
0010
0100
0000
0010
0000
0001
0000
0100
0000
,  // measure 12
0000
0000
0010
0000
0100
0000
0010
0100
0010
0000
0001
0010
0002
0000
1003
0000
,  // measure 13
0100
0000
0010
0100
0010
1000
0001
0100
0001
0000
1000
0000
0100
0000
1000
0100
,  // measure 14
1000
0000
0100
0010
0100
0000
0020
0000
0030
0000
0001
0100
0010
0000
0200
0000
,  // measure 15
0310
0000
0001
0100
0001
0000
0200
0000
0310
0000
0100
0010
0100
0000
1000
0000
,  // measure 16
0100
0000
0010
0100
0010
0000
0001
0000
0200
0000
0000
0000
0310
0000
0000
0000
,  // measure 17
0010
0001
0010
0001
0010
0000
0100
1000
0100
0000
1000
0000
0110
0000
0000
0000
,  // measure 18
0001
0100
0001
0100
0001
0000
0100
0010
0100
0000
1000
0000
1100
0000
0000
0000
,  // measure 19
0100
0010
0100
0010
0100
0000
0010
0000
0100
0010
0100
0010
0001
0100
0000
0000
,  // measure 20
1000
0100
0000
1000
0100
0000
0010
0000
0100
0010
0100
0010
0001
0100
0000
0000
,  // measure 21
1001
0000
0000
0000
1000
0100
0001
0010
1000
0000
0010
0000
0100
0000
0010
0100
,  // measure 22
0010
0000
0001
0100
0001
0000
0200
0000
0300
0000
0000
0000
0010
0000
0200
0000
,  // measure 23
0300
0000
0000
0000
0100
0010
1000
0010
0100
0000
0010
0100
0010
0000
0001
0000
,  // measure 24
0100
0000
0001
0100
0001
0000
0200
0300
0010
0000
0100
0010
0100
0000
1000
0000
,  // measure 25
0200
0300
0010
0100
0020
0030
0001
0100
0001
0100
0010
0200
0300
0000
1000
0100
,  // measure 26
2000
0000
3000
0000
0100
0000
0010
0000
0001
0000
1000
0100
0001
0000
0100
0000
0010
0000
0001
0010
0100
0000
0001
0000
0020
0000
0130
1000
0100
0000
0010
0000
,  // measure 27
0100
0000
0010
0100
0010
0000
0001
0000
0100
0000
0001
0100
0001
0000
0100
0000
,  // measure 28
0010
0000
1000
0100
1000
0000
0100
0000
0010
0000
0001
0000
0100
0000
0010
0000
,  // measure 29
0020
0000
0100
0100
0100
0000
2030
0000
0001
0000
0001
0001
3001
0000
0100
0000
,  // measure 30
0010
0000
0100
0010
0100
0000
0010
0000
0001
1000
0001
0000
1001
0000
0000
0000
,  // measure 31
0200
0000
0310
0000
0002
0000
0103
0001
1000
0000
0100
0010
0100
0000
0001
0000
,  // measure 32
2000
0000
3100
0000
0020
0000
0130
1000
0100
0000
0010
0001
0100
0000
0010
0100
,  // measure 33
M11M
0000
0000
0000
0100
1000
0010
0000
0001
0010
0100
0000
1001
0000
0000
0000
,  // measure 34
0100
0001
0100
0001
0100
0000
0010
0000
0110
0000
1000
0100
1000
0000
0100
0000
,  // measure 35
0002
0000
1003
0000
0200
0000
1300
0100
1000
0000
0100
0001
0010
0000
0001
0000
,  // measure 36
0200
0000
0301
0000
0002
0000
0103
1000
0010
0000
0100
0010
0100
0000
0010
0000
,  // measure 37
M11M
0000
0000
0000
0100
1000
0010
0000
0001
0010
0100
0000
1001
0000
0000
0000
,  // measure 38
0100
0010
0001
0100
0010
0000
0100
0000
0110
0000
0100
0010
0110
0000
0000
0000
,  // measure 39
0010
0001
1000
0000
0100
0000
0010
0000
0001
0000
0000
0001
0000
0000
0100
0000
,  // measure 40
1000
0010
0000
1000
0001
0000
0100
0000
1000
0000
0100
1000
0200
0000
0310
0000
,  // measure 41
0100
0001
1000
0010
0100
0000
0001
0000
0100
0000
0000
0010
0000
0000
0100
0000
,  // measure 42
0010
0000
0100
0010
0100
0000
0010
0000
1001
0000
0100
0001
0100
0000
0010
0000
,  // measure 43
0200
0000
0300
0000
0010
0100
0010
0100
0010
0000
0100
1000
0000
0000
0001
1000
,  // measure 44
0100
0001
0010
0100
0010
0000
0100
0010
0000
0000
0100
0000
1000
0100
0010
0100
,  // measure 45
0001
0000
0100
0010
0000
0000
0100
0000
0010
0100
0000
0000
0110
0000
0010
0000
,  // measure 46
0100
0010
0100
0000
0001
0000
0100
0001
0000
0000
0100
0000
1000
0100
0010
0000
,  // measure 47
0100
0000
0100
0010
1000
0000
0100
0000
0010
0000
0010
0100
0001
0000
0010
0000
,  // measure 48
0001
0000
0001
0010
1000
0000
0001
0000
1000
0000
1000
0100
0100
0000
1000
0000
,  // measure 49
0100
0000
0010
0100
0010
0000
0001
0000
0100
0000
0001
0100
0001
0000
0100
0001
,  // measure 50
0010
0000
0100
1000
0011
0000
0000
0000
0100
0010
0100
0000
0110
0000
0000
0000
,  // measure 51
0200
0000
0000
0300
1000
0000
0100
0000
1000
0000
0000
0100
0000
0000
0100
1000
,  // measure 52
0100
0000
0000
0010
0000
0000
0100
0000
0001
0000
0000
0100
0000
0000
0010
0000
,  // measure 53
0200
0000
0300
0010
0000
0000
0001
0000
0100
0000
0001
0010
0001
0000
0100
0000
,  // measure 54
1000
0000
0000
0001
0000
0000
0100
0000
1000
0000
0000
0100
0000
0000
0010
0000
,  // measure 55
0002
0000
0003
0100
0000
0000
0010
0000
0100
0000
1000
0001
0100
0000
0100
0000
,  // measure 56
0010
0000
0000
0100
0000
0000
1000
0000
0100
0000
0010
1000
0001
0000
0100
0000
,  // measure 57
1000
0000
0010
0100
0000
0000
0020
0000
0030
0000
0001
0000
0010
0000
0001
0000
,  // measure 58
0100
0000
0001
0010
0000
0000
0200
0000
0300
0000
0010
0000
0001
0000
0100
0000
,  // measure 59
0010
0000
0001
0100
0000
0000
2000
0000
3000
0000
0200
0000
0000
0000
0300
0000
,  // measure 60
0010
0000
0000
0001
0000
0000
0100
0001
0010
0000
0001
0010
0100
0000
0010
0000
,  // measure 61
0100
0000
0000
1000
0000
0000
0100
0001
0010
0000
1000
0010
0100
0000
2000
0000
,  // measure 62
3100
0002
0013
2000
3001
0200
0301
0020
,  // measure 63
0130
1000
0010
0000
0001
0010
0100
0000
1000
0000
0100
0010
0100
0000
0001
0000
,  // measure 64
1000
0010
0100
0000
0010
0001
0100
0000
0100
0000
0010
0001
0100
0000
0010
0100
,  // measure 65
0020
0000
0030
0000
0100
1000
0010
0000
0001
0010
0100
0000
1001
0000
0000
0000
,  // measure 66
0100
0001
0100
0001
0100
0000
0010
0000
0110
0000
1000
0100
1000
0000
0100
0000
,  // measure 67
0001
0010
1000
0000
0100
0010
1000
0000
1000
0000
0100
0001
0010
0000
0001
0000
,  // measure 68
0100
0010
0001
0000
0001
0010
0100
0000
0010
0000
0100
0010
0100
0000
0010
0000
,  // measure 69
0200
0000
0300
0000
0100
1000
0010
0000
0001
0010
0100
0000
1001
0000
0000
0000
,  // measure 70
0100
0010
0001
0100
0010
0000
0100
0000
0110
0000
0100
0010
1001
0000
0000
0000
,  // measure 71
0010
0001
1000
0000
0100
0000
0010
0000
0001
0000
0000
0001
0000
0000
0100
0000
,  // measure 72
1000
0010
0000
1000
0001
0000
0100
0000
1000
0000
0100
1000
0001
0000
0010
0000
,  // measure 73
0100
0001
1000
0010
0100
0000
0001
0000
0100
0000
0010
0100
0011
0000
0000
0000
,  // measure 74
0010
1000
0100
0010
0100
0000
0010
0000
1001
0000
0100
0001
0110
0000
0000
0000
;

//---------------dance-double - Wrland---------------
#NOTEDATA:;
#CHARTNAME:;
#CHARTSTYLE:Pad;
#CREDIT:Wrland;
#STEPSTYPE:dance-double;
#DESCRIPTION:Wrland;
#DIFFICULTY:Easy;
#METER:5;
#METERF:5;
#RADARVALUES:0,0,0,0,0;
#NOTES:
// measure 0
00000000
00000000
00000000
00000000
,  // measure 1
00000000
00000000
00000000
00000000
,  // measure 2
00000000
00000000
00000000
00000000
,  // measure 3
00000000
00000000
00000000
00000000
,  // measure 4
00000000
00000000
00000000
00000000
,  // measure 5
01000000
01000000
00100000
00010000
,  // measure 6
00001000
00000100
00000010
00000001
,  // measure 7
00000010
00000000
00000100
00001000
00000000
00010000
00100000
00000000
,  // measure 8
02000000
00000000
00000000
03100000
,  // measure 9
00100000
00000000
00010000
00000000
00001000
00000010
00001000
00000000
,  // measure 10
00000100
00000000
00000010
00000000
00000001
00000200
00000300
00000010
,  // measure 11
00000100
00000000
00000010
00000000
00000001
00000000
00000100
00001000
,  // measure 12
00000000
00010000
00100000
00000000
10000000
02000000
03000000
00100000
,  // measure 13
00010000
00001000
00000100
00000010
,  // measure 14
00000001
00000010
00000100
00001000
00000000
00001000
00010000
00100000
,  // measure 15
00000000
01000000
00100000
01000000
00000000
10000000
01000000
00200000
,  // measure 16
00300000
00010000
00001000
00000100
00000002
00000003
00000200
00000300
,  // measure 17
00000010
00000000
00000100
00000000
00001000
00010000
00100000
00000000
,  // measure 18
10000000
00000000
01000000
00000000
10000000
01000000
00100000
00000000
,  // measure 19
01000000
00000000
00100000
00000000
00010000
00001000
00000100
00000000
,  // measure 20
00000010
00000000
00000001
00000000
00000100
00001000
00010000
00000000
,  // measure 21
01000000
00000000
00100000
00000000
01000000
00100000
01000000
00000000
,  // measure 22
00100000
00000000
00010000
00002000
00003000
00000000
00000100
00000020
,  // measure 23
00000030
00000000
00000001
00000010
00000100
00000000
00001000
00000000
,  // measure 24
00010000
00000000
00000000
00100000
00000000
00000000
01000000
00000000
00000000
00000000
00000000
00000000
00100000
00000000
01000000
00000000
,  // measure 25
00200000
00000000
00000000
00300000
00020000
00000000
00000000
00030000
00002000
00000000
00000000
00003000
00000200
00000000
00000000
00000300
,  // measure 26
00000020
00000000
00000000
00000030
00000002
00000000
00000000
00000003
00000200
00000000
00000000
00000300
00002000
00000000
00000000
00003000
,  // measure 27
00020000
00000000
00000000
00030000
02000000
00000000
00000000
03000000
,  // measure 28
20000000
00000000
00000000
30000000
02000000
00000000
00000000
03000000
,  // measure 29
00200000
00000000
00000000
00320000
00000000
00000000
00000000
00130000
,  // measure 30
02000000
00000000
00000000
03100000
00100000
00000000
01100000
00000000
,  // measure 31
00100000
00000000
00010000
00000000
00001000
00000100
00000010
00000000
,  // measure 32
00000001
00000000
00000010
00000000
00000100
00001000
00010000
00000000
,  // measure 33
01100000
00000000
10000000
00000000
01000000
10000000
01000000
00000000
,  // measure 34
01000000
00000000
00100000
00010000
00001000
00000000
00000100
00000000
,  // measure 35
00000010
00000000
00000100
00000010
00000100
00000000
00000001
00000000
,  // measure 36
00000010
00000000
00000100
00001000
00010000
00000000
00100000
00000000
,  // measure 37
01100000
00000000
10000000
01000000
10000000
00000000
00100000
00000000
,  // measure 38
00010000
00000000
00001000
00000100
00000010
00000000
00000110
00000000
,  // measure 39
00000001
00000000
00000010
00000100
00001000
00000000
00010000
00000000
,  // measure 40
00100000
00000000
01000000
10000000
01000000
00000000
10000000
00000000
,  // measure 41
01000000
00000000
00100000
00000000
00010000
00001000
00000100
00000000
,  // measure 42
00000001
00000000
00000100
00000010
00000100
00000000
00001000
00000000
,  // measure 43
00020000
00000000
00030000
00000000
00100000
01000000
00100000
00000000
,  // measure 44
20000000
00000000
30000000
00000000
01000000
10000000
01000000
00000000
,  // measure 45
00200000
00000000
00300000
00000000
00010000
00001000
00000100
00000000
,  // measure 46
00000020
00000000
00000030
00000000
00000001
00000100
00000001
00000000
,  // measure 47
00000100
00001000
00010000
00100000
,  // measure 48
01000000
10000000
01000000
00100000
,  // measure 49
00020000
00000000
00031000
00000000
00000100
00000010
00001001
00000000
,  // measure 50
00000010
00000100
00001000
00010000
,  // measure 51
00200000
00000000
00000000
00300000
02000000
00000000
00000000
03000000
,  // measure 52
00200000
00000000
00000000
00300000
00020000
00000000
00000000
00030000
,  // measure 53
00002000
00000000
00000000
00003000
00000200
00000000
00000000
00000300
,  // measure 54
00000020
00000000
00000000
00000030
00000002
00000000
00000000
00000003
,  // measure 55
00000020
00000000
00000000
00000030
00000200
00000000
00000000
00000300
,  // measure 56
00002000
00000000
00000000
00003000
00020000
00000000
00000000
00030000
,  // measure 57
00200000
00000000
00000000
00300000
02000000
00000000
00000000
03000000
,  // measure 58
20000000
00000000
00000000
30000000
02000000
00000000
00000000
03000000
,  // measure 59
00200000
00000000
00000000
00300000
00020000
00000000
00000000
00030000
,  // measure 60
00002000
00000000
00000000
00003000
00000200
00000000
00000000
00000300
,  // measure 61
00000020
00000000
00000000
00000030
00000002
00000000
00000000
00000003
,  // measure 62
00000200
00000000
00000000
00000300
00001000
00000000
00010000
00000000
,  // measure 63
00100000
00000000
00010000
00000000
00001000
00000100
00000010
00000000
,  // measure 64
00000001
00000000
00000010
00000000
00000100
00001000
00010000
00000000
,  // measure 65
01100000
00000000
10000000
00000000
01000000
10000000
01000000
00000000
,  // measure 66
01000000
00000000
00100000
00010000
00001000
00000000
00000100
00000000
,  // measure 67
00000010
00000000
00000100
00000010
00000100
00000000
00000001
00000000
,  // measure 68
00000010
00000000
00000100
00001000
00010000
00000000
00100000
00000000
,  // measure 69
01100000
00000000
10000000
01000000
10000000
00000000
00100000
00000000
,  // measure 70
00010000
00000000
00001000
00000100
00000010
00000000
00000110
00000000
,  // measure 71
00000001
00000000
00000010
00000100
00001000
00000000
00010000
00000000
,  // measure 72
00100000
00000000
01000000
10000000
01000000
00000000
10000000
00000000
,  // measure 73
01000000
00000000
00100000
01000000
00010000
00001000
00000100
00000000
,  // measure 74
00000001
00000000
00000100
00000010
00000100
00000000
00000000
00000000
;

//---------------dance-double - Wrland---------------
#NOTEDATA:;
#CHARTNAME:;
#CHARTSTYLE:Pad;
#CREDIT:Wrland;
#STEPSTYPE:dance-double;
#DESCRIPTION:Wrland;
#DIFFICULTY:Medium;
#METER:10;
#METERF:10;
#RADARVALUES:0,0,0,0,0;
#NOTES:
// measure 0
00000000
00000000
00000000
00000000
,  // measure 1
00000000
00000000
00000000
00000000
,  // measure 2
00000000
00000000
00000000
00000000
,  // measure 3
00000000
00000000
00000000
00000000
,  // measure 4
00000000
00000000
00000000
00000000
,  // measure 5
10000000
00000000
00010000
00000000
10000000
01000000
00100000
10000000
,  // measure 6
01000000
00000000
01000000
00100000
00010000
00001000
00000100
00000010
,  // measure 7
00000001
00000000
00000100
00000010
00000100
00000010
00000000
00000000
,  // measure 8
00000200
00000010
00000010
00000010
00000010
00000010
00000310
00000000
,  // measure 9
00000100
00000000
00001000
00000000
00000100
00000000
00001000
00000000
00010000
00000000
00100000
01000000
10000000
00000000
01000000
00000000
,  // measure 10
00200000
00300000
01000000
00100000
01000000
00200000
00300000
01000000
,  // measure 11
00100000
01000000
00100000
00010000
00001000
00000100
00000001
00000100
,  // measure 12
00000000
00000000
00000010
00000000
00000100
00000000
00000010
00000100
00000010
00000000
00000002
00000000
00000003
00000000
00001000
00000000
,  // measure 13
00010000
00000000
00100000
01000000
00100000
00000000
01000000
00100000
10000000
00000000
01000000
00000000
00100000
00000000
00010000
00001000
,  // measure 14
00000200
00000000
00000300
00000010
00000100
00000000
00000010
00000000
00000000
00000000
00000100
00000000
00000010
00000000
00000002
00000000
,  // measure 15
00000003
00000100
00000010
00000200
00000300
00001000
00010000
00200000
,  // measure 16
00300000
01000000
10000000
01000000
20000000
00000000
31000000
00000000
,  // measure 17
00100000
01000000
00100000
01000000
00100000
00000000
00010000
00000000
00001000
00000100
00001000
00000000
00000200
00000000
00000300
00000000
,  // measure 18
00000100
00000001
00000010
00000100
00000010
00000000
00000001
00000000
00000100
00000001
00000100
00000000
00000002
00000000
00000003
00000000
,  // measure 19
00000100
00001000
00010000
00100000
01000000
00000000
10000000
00000000
01000000
10000000
01000000
10000000
01000000
00200000
00000000
00300000
,  // measure 20
01000000
00000000
00100000
01000000
00100000
00000000
00010000
00000000
01000000
00010000
01000000
00010000
01000000
00020000
00000000
00030000
,  // measure 21
00011000
00000000
00000000
00000000
00001000
00000000
00000100
00000000
00000010
00000000
00000001
00000100
00000001
00000000
00000100
00000000
,  // measure 22
00000010
00000000
00000100
00000010
00000100
00000000
00000200
00000000
00000300
00000000
00000000
00000000
00000100
00000000
00002000
00000000
,  // measure 23
00003000
00000000
00001000
00010000
00200000
00300000
02000000
03000000
,  // measure 24
00100000
00000000
01000000
00100000
01000000
00000000
00200000
00000000
00300000
00000000
00000000
00000000
01000000
00000000
00100000
00000000
,  // measure 25
02000000
03000000
00200000
00300000
00020000
00030000
00002000
00003000
00000100
00001000
00000100
00002000
00003000
00000000
00000200
00000300
,  // measure 26
00000020
00000030
00000002
00000003
00000020
00000030
00000200
00000300
00000100
00001000
00000100
00002000
00003000
00010000
01000000
20000000
,  // measure 27
30000000
00010000
10000000
02000000
03000000
10000000
01000000
00200000
,  // measure 28
00300000
01000000
00100000
00020000
00030000
00001000
00000010
00000100
,  // measure 29
00000020
00000000
00000030
00000002
00000000
00000003
00000000
00000010
,  // measure 30
00000100
00000000
00001000
00010000
00100000
00000000
01000000
00000000
00100000
01000000
00100000
00000000
01100000
00000000
00000000
00000000
,  // measure 31
00100000
00010000
00100000
00010000
00200000
00000000
01300000
00000000
,  // measure 32
10000000
01000000
00100000
00010000
00002000
00000000
00003100
00000000
,  // measure 33
00000110
00000000
00000001
00000010
00000100
00001000
00010000
00000000
,  // measure 34
00010000
00000000
00100000
00010000
00100000
00000000
01000000
00000000
10000000
01000000
10000000
00000000
01000000
00000000
00000000
00000000
,  // measure 35
01000000
00100000
00010000
10000000
02000000
00000000
03100000
00000000
,  // measure 36
00010000
00001000
00000100
00000010
00000002
00000000
00000103
00000000
,  // measure 37
00000110
00000000
00000100
00001000
00010000
00100000
01000000
00000000
,  // measure 38
10000000
00000000
01000000
10000000
01000000
00000000
00100000
00000000
01000000
00100000
01000000
00000000
01100000
00000000
00000000
00000000
,  // measure 39
00100000
00000000
00000000
01000000
00000000
00000000
00100000
00000000
01000000
00000000
00000000
00100000
00000000
00000000
00010000
00000000
,  // measure 40
00001000
00000000
00000000
00000100
00000000
00000000
00000010
00000000
00000001
00000000
00000000
00000100
00000000
00000000
00000010
00000000
,  // measure 41
00000100
00000000
00000000
00000010
00000000
00000000
00000010
00000000
00000100
00000000
00000000
00001000
00000000
00000000
00010000
00000000
,  // measure 42
00010000
00000000
00100000
01000000
00100000
00000000
01000000
00000000
10000000
00000000
00000000
01000000
00100000
00000000
00010000
00000000
,  // measure 43
00001000
00000000
00000000
00000000
00001000
00000100
00001000
00000100
00000010
00000000
00000100
00000010
00000000
00000000
00000001
00000000
,  // measure 44
00000100
00000010
00000100
00000000
00001000
00000000
00010000
00100000
00000000
00000000
00100000
00000000
01000000
10000000
01000000
00100000
,  // measure 45
01000000
00000000
00100000
01000000
00000000
00000000
00100000
00000000
01000000
00100000
00000000
00000000
00010000
00000000
00001000
00000000
,  // measure 46
00000100
00000010
00000001
00000000
00000001
00000000
00000010
00000100
00000000
00000000
00001000
00000000
00010000
00100000
00010000
00000000
,  // measure 47
00100000
01000000
10000000
01000000
10000000
01000000
00100000
00010000
,  // measure 48
01000000
00100000
10000000
01000000
00100000
00010000
00001000
00000100
,  // measure 49
00000020
00000000
00000000
00000000
00000130
00000000
00000010
00000000
00000001
00000000
00000100
00000000
00000110
00000000
00000100
00000010
,  // measure 50
00001000
00000000
00001000
00000000
00010000
00000000
00000000
00000000
00010000
00100000
00010000
00000000
01000000
00000000
00000000
00000000
,  // measure 51
00200000
00000000
00000000
00300000
,  // measure 52
00020000
00000000
00030000
00002000
00000000
00003000
00000100
00000000
00000020
00000000
00000030
00000002
00000000
00000003
00000100
00000000
,  // measure 53
00000020
00000000
00000000
00000030
,  // measure 54
00000020
00000000
00000030
00000200
00000000
00000300
00001000
00000000
00020000
00000000
00030000
00200000
00000000
00300000
01000000
00000000
,  // measure 55
20000000
00000000
00000000
00000000
00000000
00000000
30000000
00100000
,  // measure 56
02000000
00000000
03000000
00200000
00000000
00300000
00020000
00000000
00000000
00030000
00000100
00000000
00000010
00000000
00000001
00000000
,  // measure 57
00000200
00000000
00000300
00000020
00000000
00000030
00000200
00000000
00000300
00000000
00001000
00000000
00010000
00000000
00100000
00000000
,  // measure 58
02000000
00000000
03000000
20000000
00000000
30000000
02000000
00000000
00000000
03000000
10000000
00000000
01000000
00000000
00100000
00000000
,  // measure 59
00020000
00000000
00030000
00002000
00000000
00003000
00000200
00000000
00000000
00000300
00000020
00000000
00000000
00000000
00000000
00000000
,  // measure 60
00000000
00000000
00000000
00000000
00000030
00000000
00000001
00000010
00000001
00000000
00000010
00000000
00000100
00000000
00000000
00000000
,  // measure 61
00002000
00000000
00003000
00020000
00000000
00030000
00200000
00000000
00000000
00300000
10000000
00000000
00200000
00000000
00000000
00300000
,  // measure 62
20000000
00000000
00000000
30000000
02000000
00000000
00000000
03000000
00100000
00000000
01000000
00100000
01000000
00000000
00100000
00000000
,  // measure 63
00100000
00010000
00100000
00010000
00200000
00000000
01300000
00000000
,  // measure 64
10000000
01000000
00100000
00010000
00002000
00000000
00003100
00000000
,  // measure 65
00000110
00000000
00000001
00000010
00000100
00001000
00010000
00000000
,  // measure 66
00010000
00000000
00100000
00010000
00100000
00000000
01000000
00000000
10000000
01000000
10000000
00000000
01000000
00000000
00000000
00000000
,  // measure 67
01000000
00100000
00010000
10000000
02000000
00000000
03100000
00000000
,  // measure 68
00010000
00001000
00000100
00000010
00000002
00000000
00000103
00000000
,  // measure 69
00000110
00000000
00000100
00001000
00010000
00100000
01000000
00000000
,  // measure 70
10000000
00000000
01000000
10000000
01000000
00000000
00100000
00000000
01000000
00100000
01000000
00000000
01100000
00000000
00000000
00000000
,  // measure 71
00100000
00000000
00000000
00000000
01000000
00000000
00100000
00000000
02000000
00000000
00000000
03000000
00010000
00000000
00010000
00000000
,  // measure 72
00001000
00000000
00000000
00000000
00000100
00000000
00000010
00000000
00000002
00000000
00000000
00000003
00000100
00000000
00000010
00000000
,  // measure 73
00000100
00000000
00000001
00000010
00000100
00000010
00001000
00000000
,  // measure 74
00010000
00000000
00100000
01000000
00100000
00000000
01000000
00000000
10000000
00000000
00000000
00000000
00000000
00000000
00000000
00000000
;

//---------------dance-double - Wrland---------------
#NOTEDATA:;
#CHARTNAME:;
#CHARTSTYLE:Pad;
#CREDIT:Wrland;
#STEPSTYPE:dance-double;
#DESCRIPTION:Wrland;
#DIFFICULTY:Hard;
#METER:12;
#METERF:12;
#RADARVALUES:0,0,0,0,0;
#NOTES:
// measure 0
00000000
00000000
00000000
00000000
,  // measure 1
00000000
00000000
00000000
00000000
,  // measure 2
00000000
00000000
00000000
00000000
,  // measure 3
00000000
00000000
00000000
00000000
,  // measure 4
00000000
00000000
00000000
00000000
00000000
00000000
00000000
00000000
01000000
00100000
00000000
01000000
00100000
01000000
00100000
00000000
,  // measure 5
00020000
00000000
00000000
00030000
00001000
00000000
00000100
00000000
00000010
00000000
00000011
00000000
00000100
00000000
00001100
00000000
,  // measure 6
00002000
00000000
00000000
00003000
00010000
00000000
00100000
00000000
01000000
00000000
11000000
00000000
01000000
00000000
01100000
00000000
,  // measure 7
00200000
00000000
00000000
00300000
00010000
00000000
00001000
00000000
00000100
00000000
00000011
00000000
00000000
00000000
00000000
00000000
,  // measure 8
00000010
00000110
00001000
00011000
00010000
00110000
02000000
00000000
,  // measure 9
03100000
01000000
00100000
01000000
00100000
00010000
01000000
00100000
,  // measure 10
00020000
00030000
00001000
00000100
00000010
00000002
00000003
00000010
,  // measure 11
00000000
00000010
00000001
00000010
00000100
00001000
00000100
00001000
,  // measure 12
00000000
00000000
00001000
00000000
00010000
00000000
00100000
00000000
01000000
00000000
00100000
01000000
00100000
00000000
01000000
00000000
,  // measure 13
00100000
00000000
00010000
00001000
00000100
00000000
00000010
00000100
00000010
00000000
00000001
00000000
00000100
00000000
00000010
00000100
,  // measure 14
00000010
00000000
00000100
00001000
00010000
00000000
20000000
00000000
30000000
00000000
01000000
00000000
10000000
00000000
02000000
00000000
,  // measure 15
03000000
01000000
00100000
00020000
00030000
01000000
00100000
00020000
,  // measure 16
00030000
00001000
00000100
00000010
00000002
00000000
00000103
00000000
,  // measure 17
00000100
00001000
00000100
00001000
00000100
00000000
00001000
00010000
00100000
10000000
01000000
00000000
10100000
00000000
00000000
00000000
,  // measure 18
10000000
01000000
00100000
01000000
00100000
00000000
00010000
00001000
00000100
00000010
00000001
00000000
00001100
00000000
00000000
00000000
,  // measure 19
00000100
00001000
00000100
00001000
00000100
00000000
00001000
00000000
00010000
00001000
00010000
00001000
00010000
00002000
00000000
00003000
,  // measure 20
00010000
00100000
00000000
01000000
10000000
00000000
01000000
00000000
10000000
01000000
00100000
00010000
01000000
00200000
00000000
00300000
,  // measure 21
00011000
00000000
00000000
00000000
00001000
00000000
00000100
00000000
00000010
00000000
00000001
00000100
00000001
00000000
00000100
00000000
,  // measure 22
00000010
00000000
00000100
00000010
00000100
00000000
00002000
00000000
00003000
00000000
00000000
00000000
00010000
00000000
00200000
00000000
,  // measure 23
00300000
00000000
00000000
00000000
01000000
00000000
10000000
00000000
01000000
00000000
10000000
01000000
00100000
00000000
00010000
00000000
,  // measure 24
00001000
00000000
00000100
00000010
00000100
00000000
00000010
00000000
00000001
00000000
00000100
00000001
00000100
00000000
00000010
00000000
,  // measure 25
00000200
00000300
00002000
00003000
00020000
00030000
00100000
01000000
10000000
01000000
10000000
01000000
00000000
00000000
01000000
00100000
,  // measure 26
00020000
00000000
00030000
00000000
00002000
00000000
00003000
00000000
00000200
00000000
00000300
00000000
00000010
00000000
00000001
00000000
00000100
00000000
00000010
00000001
00000100
00000000
00001000
00000000
00000010
00000000
00000100
00000000
00001000
00000000
00010000
00000000
,  // measure 27
00001000
00000000
00010000
00100000
01000000
00000000
00100000
00000000
01000000
00000000
00100000
00000000
01000000
00000000
10000000
00000000
,  // measure 28
01000000
00000000
10000000
01000000
00100000
00000000
01000000
00000000
00100000
00000000
00010000
00000000
00001000
00000000
00000100
00000000
,  // measure 29
00000020
00000000
00000000
00000230
00000000
00000000
00000000
00000310
,  // measure 30
00000100
00000000
00000010
00000100
00000010
00000000
00000001
00000000
00000100
00001000
00010000
00000000
01100000
00000000
00000000
00000000
,  // measure 31
00010000
00000000
00100000
00000000
00010000
00000000
00100000
00010000
00200000
00000000
00000000
00000000
01300000
00000000
00000000
00000000
,  // measure 32
01000000
00000000
00100000
00000000
01000000
00000000
10000000
01000000
00200000
00000000
00000000
00000000
00310000
00000000
00001000
00010000
,  // measure 33
00001100
00000000
00000100
00000010
00000001
00000100
00000001
00000000
,  // measure 34
00000100
00000000
00000001
00000100
00000001
00000000
00000100
00000000
00000010
00000100
00000010
00000000
00001100
00000000
00000000
00000000
,  // measure 35
00000100
00001000
00010000
00100000
02000000
00000000
13000000
00000000
,  // measure 36
01000000
00000000
10000000
00000000
01000000
00000000
00100000
01000000
00200000
00000000
00000000
00000000
01300000
00000000
00100000
00000000
,  // measure 37
00011000
00000000
00001000
00000100
00000010
00000001
00000100
00000000
,  // measure 38
00000001
00000000
00000100
00000001
00000100
00000000
00000010
00000000
00000100
00000010
00000100
00000000
00000110
00000000
00000000
00000000
,  // measure 39
00001000
00000000
00000000
00010000
00000000
00000000
00100000
00000000
01000000
00000000
10000000
01000000
00100000
00000000
01000000
00000000
,  // measure 40
00100000
00000000
00000000
01000000
00000000
00000000
00100000
00000000
10000000
00000000
01000000
00100000
01000000
00000000
00100000
00000000
,  // measure 41
00010000
00000000
00000000
00001000
00000000
00000000
00000100
00000000
00000010
00000000
00000001
00001000
00000100
00000000
00000100
00000000
,  // measure 42
00000010
00000000
00000100
00000010
00000100
00000000
00000010
00000000
00000001
00001000
00000100
00000000
00001000
00000000
00010000
00000000
,  // measure 43
00100000
00000000
00000000
00000000
01000000
00100000
01000000
00100000
01000000
00000000
10000000
01000000
00000000
00000000
10000000
00100000
,  // measure 44
01000000
10000000
01000000
00100000
00010000
00000000
01000000
00100000
00000000
00000000
01000000
00000000
00100000
00010000
00001000
00000100
,  // measure 45
00000010
00000000
00000001
00000100
00000000
00000000
00000010
00000000
00000100
00000010
00000000
00000000
00000100
00000000
00001000
00000000
,  // measure 46
00010000
00000000
00100000
00000000
01000000
00000000
00100000
01000000
00000000
00000000
10000000
00000000
01000000
10000000
01000000
00000000
,  // measure 47
00100000
00000000
00010000
00000000
00001000
00000000
00000100
00000000
00000010
00000000
00000001
00000000
00000100
00000000
00000001
00000100
,  // measure 48
00000001
00000010
00000100
00001000
00010000
00100000
01000000
10000000
,  // measure 49
02000000
00000000
03100000
00000000
00020000
00000000
00031000
00000000
00000200
00000000
00000310
00000000
00001001
00000000
00000010
00000100
,  // measure 50
00000010
00000100
00001000
00000000
00001000
00010000
00100000
00000000
,  // measure 51
02000000
00000000
00000000
00000000
00000000
00000000
03000000
00000000
00100000
00000000
00000000
01000000
00000000
00000000
00100000
00000000
,  // measure 52
00020000
00000000
00030000
00002000
00000000
00003000
00000100
00000000
00000020
00000000
00000030
00000002
00000000
00000003
00000100
00000000
,  // measure 53
00000020
00000000
00000000
00000000
00000000
00000000
00000030
00000000
00000100
00000000
00000000
00000010
00000000
00000000
00000100
00000000
,  // measure 54
00000020
00000000
00000030
00000200
00000000
00000300
00001000
00000000
00020000
00000000
00030000
00200000
00000000
00300000
10000000
00000000
,  // measure 55
02000000
00000000
03000000
20000000
00000000
30000000
01000000
00000000
10000000
00000000
00000000
01000000
00000000
00000000
00100000
00000000
,  // measure 56
00020000
00000000
00030000
00002000
00000000
00003000
00000200
00000000
00000300
00000000
00000010
00000000
00000001
00000000
00000001
00000000
,  // measure 57
00000200
00000000
00000300
00000010
00000000
00000000
00002000
00000000
00003000
00000000
00001000
00000000
00010000
00000000
00100000
00000000
,  // measure 58
02000000
00000000
03000000
10000000
00000000
00000000
02000000
00000000
03000000
00000000
10000000
00000000
01000000
00000000
10000000
00000000
,  // measure 59
02000000
00000000
03000000
00100000
00000000
00000000
00020000
00000000
00030000
00000000
00002000
00000000
00000000
00000000
00000000
00000000
,  // measure 60
00000000
00000000
00000000
00000000
00003000
00000000
00000001
00000100
00000001
00000000
00000100
00000000
00000020
00000000
00000030
00000000
,  // measure 61
00000200
00000000
00000300
00002000
00000000
00003000
00020000
00000000
00030000
00000000
00100000
00000000
01000000
00000000
10000000
00000000
,  // measure 62
02000000
00000000
00000000
03000000
20000000
00000000
00000000
30000000
01000000
00000000
10000000
00100000
01000000
00000000
01000000
00000000
,  // measure 63
00010000
00000000
00100000
00000000
00010000
00000000
00100000
00010000
00200000
00000000
00000000
00000000
01300000
00000000
00000000
00000000
,  // measure 64
01000000
00000000
00100000
00000000
01000000
00000000
10000000
01000000
00200000
00000000
00000000
00000000
00310000
00000000
00001000
00010000
,  // measure 65
00011000
00000000
00000100
00000010
00000001
00000100
00000001
00000000
,  // measure 66
00000100
00000000
00000001
00000100
00000001
00000000
00000100
00000000
00000010
00000100
00000010
00000000
00000010
00000000
00000000
00000000
,  // measure 67
00000100
00001000
00010000
00100000
00200000
00000000
00310000
00000000
,  // measure 68
01000000
00000000
00100000
00000000
01000000
00000000
00100000
01000000
20000000
00000000
00000000
00000000
31000000
00000000
00100000
00000000
,  // measure 69
00011000
00000000
00001000
00000100
00000010
00000001
00000100
00000000
,  // measure 70
00000001
00000000
00000100
00000001
00000100
00000000
00000010
00000000
00000100
00000010
00000100
00000000
00001001
00000000
00000000
00000000
,  // measure 71
00001000
00000000
00010000
00100000
02000000
00000000
03100000
01000000
,  // measure 72
00100000
00000000
01000000
00100000
20000000
00000000
31000000
00100000
,  // measure 73
00010000
00000000
00000000
00000000
00001000
00000000
00000100
00000000
00000010
00000000
00000001
00001000
00000100
00000000
00000000
00000000
,  // measure 74
00000010
00000000
00000100
00000010
00000100
00000000
00000010
00000000
00000001
00001000
00000100
00000000
00001000
00000000
00000000
00000000
;
