#TITLE:PROLOGUE (HUNTER'S MANTRA);
#SUBTITLE:;
#ARTIST:EJAE as RUMI from HUNTR/X;
#MUSIC:PROLOGUE (HUNTER'S MANTRA).ogg;
#BANNER:PROLOGUE (HUNTER'S MANTRA).png;
#BACKGROUND:BG.png;
#LYRICSPATH:PROLOGUE (HUNTER'S MANTRA).lrc;
#CDTITLE:K-POP DEMON HUNTERS.png;
#SAMPLESTART:50.552;
#SAMPLELENGTH:15.000;
#BPMS:0.000000=193.027000,
1.000000=160.027000
;
#STOPS:;
#TIMESIGNATURES:;
#BGCHANGES:0.000=PROLOGUE (HUNTER'S MANTRA).avi=0.000=0=0=0=StretchNoLoop====,
99999=-nosongbg-=1.000=0=0=0 // don't automatically add -songbackground-
;
#FGCHANGES:;
#ATTACKS:;
#SPEEDS:;
#SCROLLS:;
#DISPLAYBPM:160.000;

//---------------dance-single - Wrland---------------
#NOTES:
     dance-single:
     Wrland:
     Beginner:
     4:
     0,0,0,0,0:
// measure 0
0000
0000
0000
0000
,  // measure 1
0000
0000
0000
0000
,  // measure 2
0000
0000
0000
0000
,  // measure 3
0000
0000
0000
0000
,  // measure 4
0000
0000
0000
0000
,  // measure 5
0000
0000
0000
0000
,  // measure 6
0000
0000
0000
0000
,  // measure 7
0000
1000
0000
0000
,  // measure 8
0000
0000
0000
0001
,  // measure 9
0000
0000
0000
0000
,  // measure 10
0000
0100
0000
0000
,  // measure 11
0000
0100
0010
0100
,  // measure 12
0000
0001
0000
0000
,  // measure 13
0000
0010
0100
1000
,  // measure 14
0000
0010
0000
0000
,  // measure 15
0000
0100
0000
0010
,  // measure 16
0000
0000
0002
0000
0000
0003
2000
0000
,  // measure 17
0000
3000
0002
0000
0000
0000
0000
0000
,  // measure 18
0000
0000
0000
1003
,  // measure 19
0000
0000
0000
1000
,  // measure 20
0100
1000
0000
0100
,  // measure 21
0000
0000
0000
0001
,  // measure 22
0100
0001
0000
0100
,  // measure 23
0000
0000
0000
0100
,  // measure 24
0010
0100
0000
1000
,  // measure 25
0000
0000
0000
0010
,  // measure 26
0001
0100
0000
0010
,  // measure 27
0000
0000
0000
0010
,  // measure 28
0001
0100
0000
0100
,  // measure 29
0000
0000
0000
0001
,  // measure 30
0100
0010
0000
0100
,  // measure 31
0000
0000
0000
0010
,  // measure 32
0100
0010
0000
0002
,  // measure 33
0000
0003
0000
2000
,  // measure 34
0000
0000
0000
3000
,  // measure 35
0100
0010
0000
0002
,  // measure 36
0000
0000
0000
0000
,  // measure 37
0003
0000
0000
0200
,  // measure 38
0000
0300
0020
0000
0000
0000
0000
0030
,  // measure 39
0100
0000
0020
0000
0000
0030
0002
0000
,  // measure 40
0000
0000
0000
0000
,  // measure 41
0003
0000
0000
2000
,  // measure 42
0000
3000
0200
0000
0000
0300
2000
0000
,  // measure 43
0000
0000
0000
0000
0000
3000
0200
0000
,  // measure 44
0000
0300
0010
0000
0001
0000
0200
0000
,  // measure 45
0000
0000
0300
0020
,  // measure 46
0030
0000
0100
0000
0020
0000
0000
0030
,  // measure 47
0001
0000
0200
0000
0000
0300
0020
0000
,  // measure 48
0000
0000
0000
0000
,  // measure 49
0000
0000
0000
0000
0000
0030
0100
0000
,  // measure 50
0000
0000
0000
0100
,  // measure 51
1000
0100
0000
0010
,  // measure 52
0000
0000
0000
0100
,  // measure 53
0001
0100
0000
0010
,  // measure 54
0000
0000
0000
1000
,  // measure 55
0100
1000
0000
0100
,  // measure 56
0000
0000
0000
0001
,  // measure 57
0100
0001
0000
0200
,  // measure 58
0000
0000
0000
0000
,  // measure 59
0000
0000
0000
0310
;

//---------------dance-single - Wrland---------------
#NOTES:
     dance-single:
     Wrland:
     Easy:
     6:
     0,0,0,0,0:
// measure 0
0000
0000
0000
0000
,  // measure 1
0000
0000
0000
0000
,  // measure 2
0000
0000
0000
0000
,  // measure 3
0000
0000
0000
0000
,  // measure 4
0000
0000
0000
0000
,  // measure 5
0000
0000
0000
0000
,  // measure 6
0000
0000
0000
0000
,  // measure 7
0000
1000
0000
0000
,  // measure 8
0000
0000
0000
0001
,  // measure 9
0000
0000
0000
0000
,  // measure 10
0000
0100
0000
0010
,  // measure 11
0000
0100
0010
0100
,  // measure 12
0000
0001
0000
0100
,  // measure 13
0000
0010
0100
1000
,  // measure 14
0000
0100
0000
1000
,  // measure 15
0000
0100
0000
0010
,  // measure 16
0000
0000
0002
0000
0000
0003
2000
0000
,  // measure 17
0000
3000
0002
0000
0000
0000
0000
0000
,  // measure 18
0000
0000
0000
1003
,  // measure 19
0000
0100
0000
1000
,  // measure 20
0100
1000
0000
0100
,  // measure 21
0000
0010
0000
0001
,  // measure 22
0100
0001
0000
0100
,  // measure 23
0000
0010
0000
0100
,  // measure 24
0010
0100
0000
1000
,  // measure 25
0000
0100
0000
0010
,  // measure 26
0001
0100
0000
0010
,  // measure 27
0000
0100
0000
0010
,  // measure 28
0001
0100
0000
0100
,  // measure 29
0000
0010
0000
0001
,  // measure 30
0100
0010
0000
0100
,  // measure 31
0000
1000
0000
0010
,  // measure 32
0100
0010
0000
0002
,  // measure 33
0000
0003
0020
0000
0000
0000
2030
0000
,  // measure 34
0000
0000
0000
3000
,  // measure 35
0100
0010
0000
0002
,  // measure 36
0000
0000
0000
0000
,  // measure 37
0003
0000
0000
0200
,  // measure 38
0000
0300
0020
0000
0000
0000
0000
0030
,  // measure 39
0100
0000
0020
0000
0000
0030
0002
0000
,  // measure 40
0000
0000
0000
0000
,  // measure 41
0003
0000
0000
2000
,  // measure 42
0000
3000
0200
0000
0000
0300
2000
0000
,  // measure 43
0000
0000
0000
0000
0000
3000
0200
0000
,  // measure 44
0000
0300
0010
0000
0001
0000
0200
0000
,  // measure 45
0000
0000
0300
0020
,  // measure 46
0030
0000
0100
0000
0020
0000
0000
0030
,  // measure 47
0001
0000
0200
0000
0000
0300
0020
0000
,  // measure 48
0000
0000
0000
0000
,  // measure 49
0000
0000
0000
0000
0000
0030
0100
0000
,  // measure 50
0000
1000
0000
0100
,  // measure 51
1000
0100
0000
0010
,  // measure 52
0000
0001
0000
0100
,  // measure 53
0001
0100
0000
0010
,  // measure 54
0000
0100
0000
1000
,  // measure 55
0100
1000
0000
0100
,  // measure 56
0000
0010
0000
0001
,  // measure 57
0100
0001
0000
0200
,  // measure 58
0000
0000
0000
0000
,  // measure 59
0000
0000
0000
0310
;

//---------------dance-single - Wrland---------------
#NOTES:
     dance-single:
     Wrland:
     Medium:
     8:
     0,0,0,0,0:
// measure 0
0000
0000
0000
0000
,  // measure 1
0000
0000
0000
0000
,  // measure 2
0000
0000
0000
0000
,  // measure 3
0000
0000
0000
0000
,  // measure 4
0000
0000
0000
0000
,  // measure 5
0000
0000
0000
0000
,  // measure 6
0000
0000
0000
0000
0000
0000
1000
0001
,  // measure 7
1000
0001
1001
0000
0000
0000
0000
0000
,  // measure 8
0000
0000
0000
0000
0000
0000
0100
0010
0100
0011
0000
0000
,  // measure 9
0000
0000
0000
0000
,  // measure 10
0000
1001
1000
0001
,  // measure 11
0100
0010
0100
0010
,  // measure 12
0000
0001
0100
0010
,  // measure 13
0100
1000
0100
1000
,  // measure 14
0000
0100
1000
0100
,  // measure 15
0010
0001
0100
0010
,  // measure 16
0000
0002
0003
2000
,  // measure 17
3000
0002
0003
2000
,  // measure 18
0000
0000
0000
3001
,  // measure 19
0100
0010
0000
0001
,  // measure 20
0100
0010
0000
0100
,  // measure 21
1000
0100
0000
1000
,  // measure 22
0100
0010
0000
0001
,  // measure 23
0100
0001
0000
0100
,  // measure 24
0010
0100
0000
1000
,  // measure 25
0100
1000
0000
0100
,  // measure 26
0010
0001
0000
0100
,  // measure 27
0010
0001
0000
0100
,  // measure 28
0010
0100
0000
0010
,  // measure 29
0001
0100
0000
0010
,  // measure 30
0100
1000
0000
0100
,  // measure 31
1000
0100
0000
0100
,  // measure 32
0010
0000
0001
0000
0000
0000
0100
0010
,  // measure 33
0001
0000
0100
1000
0010
0000
0200
0000
,  // measure 34
0000
0300
0020
0000
0030
0000
0001
0000
,  // measure 35
0100
0000
0002
0000
0000
0003
0200
0000
,  // measure 36
0300
0010
0100
2000
,  // measure 37
0000
3000
0100
0000
0000
0000
2000
0000
,  // measure 38
3000
0100
0010
0001
,  // measure 39
0100
0000
0020
0000
0000
0030
0200
0000
,  // measure 40
0000
0300
0010
0000
0001
0000
0200
0000
,  // measure 41
0000
0300
0010
0000
0000
0000
0200
0000
,  // measure 42
0300
1000
0200
0300
,  // measure 43
1000
0200
0300
0020
,  // measure 44
0030
0010
0001
0020
,  // measure 45
0030
0100
0010
0002
,  // measure 46
0000
0003
0100
0000
0020
0000
0000
0030
,  // measure 47
0100
0000
0020
0000
0000
0030
0200
0000
,  // measure 48
0300
0010
0001
0200
,  // measure 49
0300
0010
0100
1000
,  // measure 50
0000
0100
0000
1000
,  // measure 51
0100
1000
0000
0100
,  // measure 52
0000
0010
0000
0001
,  // measure 53
0100
0010
0000
0100
,  // measure 54
0000
0010
0000
0001
,  // measure 55
0100
0010
0000
0100
,  // measure 56
0000
0010
0000
0001
,  // measure 57
0100
0010
0000
0200
,  // measure 58
0000
0000
0000
0000
,  // measure 59
0000
0000
0000
0310
;

//---------------dance-single - Wrland---------------
#NOTES:
     dance-single:
     Wrland:
     Hard:
     13:
     0,0,0,0,0:
// measure 0
0000
0000
0000
0000
,  // measure 1
0000
0000
0000
0000
,  // measure 2
0000
0000
0000
0000
,  // measure 3
0000
0000
0000
0000
,  // measure 4
0000
0000
0000
0000
,  // measure 5
0000
0000
0000
0000
,  // measure 6
0000
0000
0000
0000
0000
0000
1000
0001
,  // measure 7
1000
0001
2002
0000
0000
0000
0000
0000
,  // measure 8
3003
0000
0000
0000
0000
0000
0100
0010
0100
0022
0000
0000
,  // measure 9
0000
0000
0000
0033
,  // measure 10
1000
1001
0100
0010
,  // measure 11
0001
0100
0001
0000
0100
0010
0100
0000
,  // measure 12
1000
0000
0100
0000
1000
0100
1000
0000
,  // measure 13
0100
0010
0100
0000
0010
0001
0100
0000
,  // measure 14
0010
0000
0100
0000
0010
0100
0010
0000
,  // measure 15
0001
0100
0001
0000
0100
0010
0100
0000
,  // measure 16
1000
0000
0100
0000
1000
0100
1000
0000
,  // measure 17
0100
0010
0002
0000
0203
0000
0320
0000
,  // measure 18
0230
0320
0032
0103
,  // measure 19
0010
0100
0010
0000
0001
0100
0010
0000
,  // measure 20
0100
0000
0010
0000
0100
0010
0001
0000
1000
0000
0000
0000
0100
0000
0000
0000
,  // measure 21
1000
0100
1000
0000
0100
0010
0001
0000
,  // measure 22
0100
0000
0010
0000
0100
0010
0100
0000
1000
0000
0000
0000
0100
0000
0000
0000
,  // measure 23
1000
0100
1000
0000
0100
0010
0001
0000
,  // measure 24
0100
0000
0010
0000
0100
0001
0100
0000
0010
0000
0000
0000
0001
0000
0000
0000
,  // measure 25
0100
0001
0100
0000
0010
0100
0010
0000
,  // measure 26
0100
0000
1000
0000
0100
0010
0100
0000
1000
0000
0000
0000
0100
0000
0000
0000
,  // measure 27
0010
0001
0100
0000
0010
0100
1000
0000
,  // measure 28
0100
0000
0010
0000
0100
0010
0001
0000
1000
0000
0000
0000
0100
0000
0000
0000
,  // measure 29
0010
0001
0100
0000
0010
0001
0100
0000
,  // measure 30
0001
0010
0200
0000
0000
0300
0010
0100
,  // measure 31
0000
0010
0001
0000
0100
0010
0000
0100
,  // measure 32
1000
0000
0100
0001
0010
1000
0001
0100
,  // measure 33
0001
0100
0010
0001
0100
0000
0010
0000
1000
0010
0100
0010
0002
0000
0000
0000
,  // measure 34
0013
1000
0200
0000
0310
0000
0010
0001
,  // measure 35
0100
0100
0020
0030
0001
0010
0002
0003
,  // measure 36
0010
0100
0020
0000
0130
0000
1000
0010
,  // measure 37
0100
0000
1000
0000
0100
0001
0100
0000
0010
0000
0100
0000
0020
0000
0000
0000
,  // measure 38
0031
0010
0200
0000
1300
0001
0200
0000
,  // measure 39
0310
0001
0010
0100
0001
0100
0002
0000
,  // measure 40
0103
0010
0200
0000
1300
0000
0100
0010
,  // measure 41
1000
0000
0100
0000
1000
0010
0100
0000
0100
0000
0001
0000
0020
0000
0000
0000
,  // measure 42
0130
0010
0002
0000
0103
0010
0200
0000
,  // measure 43
0310
0001
0200
0000
0301
0010
0100
1000
,  // measure 44
0010
0000
0001
0000
0100
0001
0100
0000
0010
0000
0001
0000
0200
0000
0000
0000
,  // measure 45
1300
0100
2000
0000
3100
0010
2000
0000
,  // measure 46
3001
0010
0200
0000
1300
0010
0200
0300
,  // measure 47
0020
0030
0200
0000
0010
0001
0310
0001
,  // measure 48
0100
0000
0001
0000
0100
0010
0001
0000
0010
0000
0010
0000
0100
0000
0001
0000
,  // measure 49
0010
0000
0100
0000
1000
0010
0100
0000
0010
0000
0001
0000
0100
0000
0000
0000
,  // measure 50
0010
0100
0010
0000
0001
0000
0100
0000
,  // measure 51
1000
0100
1000
0000
0100
0000
0010
0000
,  // measure 52
0001
0100
0001
0000
0100
0000
0010
0000
,  // measure 53
0100
1000
0100
0000
1000
0000
0100
0000
,  // measure 54
0010
0100
0010
0000
0001
0000
0100
0000
,  // measure 55
0001
0100
0010
0000
0100
0000
1000
0000
,  // measure 56
0100
1000
0100
0000
1000
0000
0100
0000
,  // measure 57
0010
0001
0100
0000
0010
0000
0200
0000
,  // measure 58
0000
0000
0000
0000
,  // measure 59
0000
0000
0000
0310
;

//---------------dance-single - The Generation of the HUNTERS---------------
#NOTES:
     dance-single:
     The Generation of the HUNTERS:
     Challenge:
     15:
     0,0,0,0,0:
// measure 0
0000
0000
0000
0000
,  // measure 1
0000
0000
0000
0000
,  // measure 2
0000
0000
0000
0000
,  // measure 3
0000
0000
0000
0000
,  // measure 4
0000
0000
0000
0000
,  // measure 5
0000
0000
0000
0000
,  // measure 6
0000
0000
0000
0000
0000
0000
1000
0001
,  // measure 7
1000
0001
2002
0000
0000
0000
0000
0000
,  // measure 8
3003
0000
0000
0000
0000
0000
0100
0010
0100
0022
0000
0000
,  // measure 9
0000
0000
0000
0033
,  // measure 10
1000
0000
0000
0000
1001
0000
0000
0000
0100
0000
0010
0000
0010
0001
0100
0000
,  // measure 11
0010
0000
0000
0000
1001
0000
0000
0000
0100
0000
0001
0000
0010
0100
0010
0000
,  // measure 12
0001
0000
0100
0000
0011
0000
0000
0000
0100
0000
0010
0000
0001
0010
0100
0000
,  // measure 13
0100
0000
0010
0000
1100
0000
0000
0000
0100
0000
1000
0000
0100
0010
0001
0000
,  // measure 14
0100
0000
0001
0000
0011
0000
0000
0000
0100
0000
0010
0000
0100
0010
0100
0000
,  // measure 15
1000
0000
0100
0000
0011
0000
0100
0000
0010
0000
0100
0000
0010
0001
0010
0000
,  // measure 16
0100
0100
0010
0002
0003
0010
0200
0300
,  // measure 17
0010
0200
0300
0001
0200
0300
0010
0200
,  // measure 18
0300
1000
0200
0000
0010
0000
0310
0000
,  // measure 19
0001
0100
0001
0000
0100
0010
0100
0000
,  // measure 20
1000
0100
1000
0000
0100
0000
1001
0000
,  // measure 21
0100
0010
0001
0000
0100
0010
0100
0000
,  // measure 22
1000
0100
0010
0000
0001
0000
1100
0000
,  // measure 23
0100
0010
0001
0000
0100
0010
0100
0000
,  // measure 24
1000
0100
1000
0000
0100
0000
0110
0000
,  // measure 25
0100
0010
0001
0000
0100
0010
0100
0000
,  // measure 26
1000
0100
1000
0000
0100
0000
0011
0000
,  // measure 27
0100
0010
0001
0000
0100
0010
0100
0000
,  // measure 28
1000
0100
0010
0000
0001
0000
1100
0000
,  // measure 29
0100
0000
0010
0000
0001
0000
0000
0000
0100
0000
0010
0000
0010
0001
0100
0000
,  // measure 30
0100
0000
0010
0000
0010
0001
0010
0000
0100
0000
0010
0000
0001
0000
0100
0000
,  // measure 31
0010
0000
0001
0000
0100
1000
0100
0000
0010
0000
0100
0000
0010
0100
1000
0000
,  // measure 32
0100
0000
0001
0000
0010
0100
0001
0000
0100
0000
0010
0000
1000
0001
0100
1000
,  // measure 33
0010
0100
0001
0010
0100
0001
0010
0001
0100
0010
1000
0001
0200
0000
0000
0000
,  // measure 34
0010
0001
0320
0000
0100
1000
0100
0030
,  // measure 35
0010
0000
0100
0000
0010
0001
0100
0000
0010
0000
1000
0000
0100
0000
0010
0000
,  // measure 36
0100
0000
0010
0000
0001
0010
0100
0000
0100
0000
0010
0000
0010
0100
0010
0000
,  // measure 37
0100
0000
0010
0000
0001
0010
0100
0000
1000
0000
0100
0000
0002
0000
0010
0000
,  // measure 38
0100
0010
2003
0100
3001
0010
0100
1000
,  // measure 39
0010
0000
0100
0000
0001
0010
0100
0000
0010
0000
0100
0000
0010
0000
0001
0000
,  // measure 40
0100
0000
0001
0000
0010
1000
0100
0000
0100
0000
0010
0000
0001
0010
0100
0000
,  // measure 41
0100
0000
0001
0000
0100
0001
1000
0000
0010
0000
0001
0000
0200
0000
0010
0000
,  // measure 42
0001
1000
0320
0100
0031
0010
0100
0001
,  // measure 43
0100
0000
0010
0000
0010
0001
0100
0000
0010
0000
0100
0000
1000
0000
0100
0000
,  // measure 44
0010
0000
0100
0000
1000
0010
0001
0000
0100
0000
0001
0000
0010
0001
0100
0000
,  // measure 45
0010
0000
0001
0000
0100
1000
0100
0000
0020
0000
0001
0000
0230
0000
0010
0000
,  // measure 46
0001
0000
0010
0000
1300
0001
0100
0000
0010
0000
0010
0000
0001
0100
0010
0000
,  // measure 47
0100
0000
1000
0000
0010
0001
0100
0000
0010
0000
0100
0000
1000
0000
0100
0000
,  // measure 48
0001
0000
0010
0000
0100
0001
0010
0000
0100
0000
0010
0000
1000
0001
0100
0000
,  // measure 49
1000
0000
0100
0000
0010
0100
0010
0000
0001
0000
0010
0000
0200
0000
0300
0000
,  // measure 50
0010
0100
0020
0130
0001
0000
0200
0300
,  // measure 51
0010
0100
2000
3010
0100
0000
2000
3000
,  // measure 52
0100
0010
0002
0013
0100
0000
0020
0030
,  // measure 53
0100
1000
0200
0301
0010
0000
0002
0003
,  // measure 54
0100
0000
0010
0000
0100
0010
0001
0000
1000
0000
0010
0000
0200
0000
0300
0000
,  // measure 55
0010
0000
0001
0000
0100
0010
0100
0000
0010
0000
0001
0000
2000
0000
3000
0000
,  // measure 56
0100
0000
1000
0000
0100
0001
0100
0000
0010
0000
0100
0000
0002
0000
0003
0000
,  // measure 57
0100
0010
0200
0000
0000
0000
0320
0000
,  // measure 58
0000
0000
0000
0000
,  // measure 59
0000
0000
0000
M13M
;

//---------------dance-double - Wrland---------------
#NOTES:
     dance-double:
     Wrland:
     Easy:
     6:
     0,0,0,0,0:
// measure 0
00000000
00000000
00000000
00000000
,  // measure 1
00000000
00000000
00000000
00000000
,  // measure 2
00000000
00000000
00000000
00000000
,  // measure 3
00000000
00000000
00000000
00000000
,  // measure 4
00000000
00000000
00000000
00000000
,  // measure 5
00000000
00000000
00000000
00000000
,  // measure 6
00000000
00000000
00000000
00000000
,  // measure 7
00000000
10000000
00000000
00000000
,  // measure 8
00000000
00000000
00000000
00010000
,  // measure 9
00000000
00000000
00000000
00000000
,  // measure 10
00000000
00001000
00000000
00000100
,  // measure 11
00000000
00000010
00000001
00000100
,  // measure 12
00000000
00010000
00000000
01000000
,  // measure 13
00000000
00100000
01000000
10000000
,  // measure 14
00000000
00000100
00000000
00000010
,  // measure 15
00000000
00000001
00000100
00000010
,  // measure 16
00000000
00000200
00000300
00000020
,  // measure 17
00000030
00000002
00000000
00000000
,  // measure 18
00000000
00000000
00000000
00001003
,  // measure 19
00000000
00010000
00000000
10000000
,  // measure 20
01000000
10000000
00000000
00010000
,  // measure 21
00000000
00000100
00000000
00000001
,  // measure 22
00000010
00000100
00000000
00010000
,  // measure 23
00000000
00100000
00000000
01000000
,  // measure 24
00100000
01000000
00000000
00000100
,  // measure 25
00000000
00000010
00000000
00000001
,  // measure 26
00000010
00000001
00000000
00001000
,  // measure 27
00000000
00100000
00000000
00100000
,  // measure 28
00010000
01000000
00000000
00100000
,  // measure 29
00000000
00001000
00000000
00000001
,  // measure 30
00000010
00000001
00000000
00001000
,  // measure 31
00000000
00010000
00000000
00100000
,  // measure 32
01000000
00100000
00000000
00002000
,  // measure 33
00003000
00000020
00000000
00000230
,  // measure 34
00000000
00000000
00000000
00000300
,  // measure 35
00000010
00000100
00000000
00000020
,  // measure 36
00000000
00000000
00000000
00000000
,  // measure 37
00000030
00000000
00000000
00002000
,  // measure 38
00000000
00000000
00203000
00000000
00000000
00000000
00000000
00300000
,  // measure 39
01000000
00000000
00200000
00000000
00000000
00300000
00020000
00000000
,  // measure 40
00000000
00000000
00000000
00000000
,  // measure 41
00030000
00000000
00000000
00002000
,  // measure 42
00003000
00000000
00000200
00000000
00000000
00000300
00000020
00000000
,  // measure 43
00000000
00000000
00000000
00000000
00000000
00000030
00000002
00000000
,  // measure 44
00000000
00000003
00000010
00000000
00000100
00000000
00000020
00000000
,  // measure 45
00000000
00000000
00000030
00002000
,  // measure 46
00003000
00000000
00010000
00000000
00200000
00000000
00000000
00300000
,  // measure 47
00010000
00000000
02000000
00000000
00000000
03000000
00200000
00000000
,  // measure 48
00000000
00000000
00000000
00000000
,  // measure 49
00000000
00000000
00000000
00000000
00000000
00300000
00010000
00000000
,  // measure 50
00000000
00000100
00000000
00000001
,  // measure 51
00000100
00000010
00000000
00010000
,  // measure 52
00000000
00010000
00000000
01000000
,  // measure 53
00010000
01000000
00000000
00001000
,  // measure 54
00000000
00000010
00000000
00000001
,  // measure 55
00000100
00000001
00000000
00010000
,  // measure 56
00000000
00100000
00000000
00010000
,  // measure 57
01000000
00010000
00000000
02000000
,  // measure 58
00000000
00000000
00000000
00000000
,  // measure 59
00000000
00000000
00000000
03100000
;

//---------------dance-double - Wrland---------------
#NOTES:
     dance-double:
     Wrland:
     Medium:
     8:
     0,0,0,0,0:
// measure 0
00000000
00000000
00000000
00000000
,  // measure 1
00000000
00000000
00000000
00000000
,  // measure 2
00000000
00000000
00000000
00000000
,  // measure 3
00000000
00000000
00000000
00000000
,  // measure 4
00000000
00000000
00000000
00000000
,  // measure 5
00000000
00000000
00000000
00000000
,  // measure 6
00000000
00000000
00000000
00000000
00000000
00000000
10000000
00010000
,  // measure 7
10000000
00010000
10010000
00000000
00000000
00000000
00000000
00000000
,  // measure 8
00000000
00000000
00000000
00000000
00000000
00000000
00010000
00001000
00000100
00000011
00000000
00000000
,  // measure 9
00000000
00000000
00000000
00000000
,  // measure 10
00000000
00001100
00010000
00100000
,  // measure 11
01000000
00100000
01000000
00100000
,  // measure 12
00000000
00010000
00001000
00000010
,  // measure 13
00000001
00000100
00001000
00010000
,  // measure 14
00000000
00100000
00010000
01000000
,  // measure 15
00100000
00010000
01000000
00100000
,  // measure 16
00000000
00020000
00030000
00002000
,  // measure 17
00003000
00000200
00000300
00000020
,  // measure 18
00000000
00000000
00000000
00000130
,  // measure 19
00001000
00100000
00000000
00010000
,  // measure 20
01000000
00100000
00000000
00000000
,  // measure 21
00001000
00000100
00000000
00000010
,  // measure 22
00000001
00000100
00000000
00001000
,  // measure 23
00010000
00100000
00000000
01000000
,  // measure 24
00100000
01000000
00000000
00100000
,  // measure 25
00010000
00000100
00000000
00000010
,  // measure 26
00000010
00000100
00000000
00001000
,  // measure 27
00010000
00100000
00000000
01000000
,  // measure 28
00100000
01000000
00000000
00010000
,  // measure 29
00001000
00000010
00000000
00000001
,  // measure 30
00000010
00000100
00000000
00000010
,  // measure 31
00000100
00001000
00000000
00010000
,  // measure 32
00100000
00000000
00010000
00000000
00000000
00000000
00001000
00000100
,  // measure 33
00000010
00000000
00000010
00000001
00000100
00000000
00002000
00000000
,  // measure 34
00000000
00003000
00020000
00000000
00030000
00000000
00010000
00000000
,  // measure 35
01000000
00000000
00020000
00000000
00000000
00030000
02000000
00000000
,  // measure 36
03000000
00100000
01000000
20000000
,  // measure 37
00000000
30000000
01000000
00000000
00000000
00000000
00020000
00000000
,  // measure 38
00030000
00001000
00000100
00000010
,  // measure 39
00000001
00000010
00000000
00000100
,  // measure 40
00000000
00000010
00000001
00000100
,  // measure 41
00000000
00000010
00000000
00000100
,  // measure 42
00000000
00001000
00020000
00030000
,  // measure 43
10000000
02000000
03000000
00200000
,  // measure 44
00300000
00100000
00010000
00200000
,  // measure 45
00300000
01000000
00100000
00020000
,  // measure 46
00000000
00030000
00001000
00000000
00000200
00000000
00000300
00000000
,  // measure 47
00000001
00000020
00000030
00000100
,  // measure 48
00000000
00000010
00000100
00000010
,  // measure 49
00000000
00000100
00001000
00010000
,  // measure 50
00000000
01000000
00000000
10000000
,  // measure 51
01000000
10000000
00000000
01000000
,  // measure 52
00000000
00010000
00000000
00001000
,  // measure 53
00000100
00000010
00000000
00001000
,  // measure 54
00000000
00100000
00000000
00010000
,  // measure 55
01000000
00100000
00000000
00010000
,  // measure 56
00000000
00000100
00000000
00000010
,  // measure 57
00000001
00000010
00000000
00002000
,  // measure 58
00000000
00000000
00000000
00000000
,  // measure 59
00000000
00000000
00000000
00013000
;

//---------------dance-double - Wrland---------------
#NOTES:
     dance-double:
     Wrland:
     Hard:
     13:
     0,0,0,0,0:
// measure 0
00000000
00000000
00000000
00000000
,  // measure 1
00000000
00000000
00000000
00000000
,  // measure 2
00000000
00000000
00000000
00000000
,  // measure 3
00000000
00000000
00000000
00000000
,  // measure 4
00000000
00000000
00000000
00000000
,  // measure 5
00000000
00000000
00000000
00000000
,  // measure 6
00000000
00000000
00000000
00000000
00000000
00000000
10000000
00010000
,  // measure 7
10000000
00010000
20020000
00000000
00000000
00000000
00000000
00000000
,  // measure 8
30030000
00000000
00000000
00000000
00000000
00000000
00000000
00001000
00000100
00000220
00000000
00000000
,  // measure 9
00000000
00000000
00000000
00000330
,  // measure 10
00001000
00011000
01000000
00100000
,  // measure 11
00010000
01000000
00010000
00000000
01000000
00100000
01000000
00000000
,  // measure 12
10000000
00000000
01000000
00000000
00100000
00010000
00001000
00000000
,  // measure 13
00000100
00000010
00000100
00000000
00000010
00000000
00000100
00000000
,  // measure 14
00000010
00000000
00000100
00000000
00001000
00010000
00100000
00000000
,  // measure 15
00010000
01000000
00010000
00000000
01000000
00100000
01000000
00000000
,  // measure 16
10000000
00000000
01000000
00000000
10000000
01000000
10000000
00000000
,  // measure 17
01000000
00100000
00020000
00000000
00032000
00000000
00003200
00000000
,  // measure 18
00000320
00000032
00000023
00000031
,  // measure 19
00000010
00000100
00000010
00000000
00000100
00000010
00000100
00000000
,  // measure 20
00000010
00000000
00000100
00000000
00000010
00000100
00000010
00000000
00000100
00000000
00000000
00000000
00001000
00000000
00000000
00000000
,  // measure 21
00010000
00100000
00010000
00000000
01000000
00100000
00010000
00000000
,  // measure 22
01000000
00000000
00100000
00000000
01000000
00100000
01000000
00000000
10000000
00000000
00000000
00000000
01000000
00000000
00000000
00000000
,  // measure 23
00100000
00010000
00001000
00000000
00000100
00000010
00000001
00000000
,  // measure 24
00000010
00000000
00000100
00000000
00000001
00000010
00000001
00000000
00000010
00000000
00000000
00000000
00000100
00000000
00000000
00000000
,  // measure 25
00001000
00010000
01000000
00000000
00100000
01000000
00100000
00000000
,  // measure 26
01000000
00000000
10000000
00000000
01000000
00100000
01000000
00000000
10000000
00000000
00000000
00000000
01000000
00000000
00000000
00000000
,  // measure 27
00100000
00010000
00001000
00000000
00000100
00000010
00000001
00000000
,  // measure 28
00000010
00000000
00000100
00000000
00000010
00000100
00001000
00000000
00000001
00000000
00000000
00000000
00000010
00000000
00000000
00000000
,  // measure 29
00000100
00001000
00010000
00000000
00100000
00010000
01000000
00000000
,  // measure 30
00010000
00100000
02000000
00000000
00000000
03000000
00100000
01000000
,  // measure 31
00000000
00100000
00010000
00000000
01000000
00100000
00000000
01000000
,  // measure 32
10000000
00000000
01000000
00010000
00100000
10000000
00010000
01000000
,  // measure 33
00010000
01000000
00100000
00010000
01000000
00000000
00100000
00000000
10000000
00100000
01000000
00100000
00020000
00000000
00000000
00000000
,  // measure 34
00031000
00000100
00000020
00000000
00000130
00000000
00000010
00000001
,  // measure 35
00000100
00001000
00000020
00000030
00000001
00000010
00000002
00000003
,  // measure 36
00000010
00000100
00000010
00000000
00000100
00000000
00001000
00000010
,  // measure 37
00000100
00000000
00000001
00000000
00000100
00000010
00000100
00000000
00000010
00000000
00000100
00000000
00000200
00000000
00000000
00000000
,  // measure 38
00001300
00010000
02000000
00000000
13000000
00010000
02000000
00000000
,  // measure 39
03100000
00010000
00100000
01000000
00010000
01000000
00020000
00000000
,  // measure 40
01030000
00100000
02000000
00000000
13000000
00000000
01000000
00100000
,  // measure 41
10000000
00000000
01000000
00000000
10000000
00100000
01000000
00000000
01000000
00000000
00010000
00000000
00002000
00000000
00000000
00000000
,  // measure 42
00003010
00000100
00002000
00000000
00003010
00000100
00000020
00000000
,  // measure 43
00000130
00001000
00000020
00000000
00001030
00000100
00000010
00000001
,  // measure 44
00000100
00000000
00001000
00000000
00000010
00001000
00000010
00000000
00000100
00000000
00001000
00000000
00000200
00000000
00000000
00000000
,  // measure 45
00000301
00000010
00002000
00000000
00013000
00100000
20000000
00000000
,  // measure 46
30010000
00100000
02000000
00000000
13000000
00100000
02000000
03000000
,  // measure 47
00200000
00300000
02000000
00000000
00100000
00010000
03100000
00010000
,  // measure 48
01000000
00000000
00010000
00000000
01000000
00100000
00010000
00000000
00100000
00000000
00100000
00000000
01000000
00000000
00010000
00000000
,  // measure 49
00100000
00000000
01000000
00000000
10000000
00100000
01000000
00000000
00100000
00000000
00010000
00000000
00001000
00000000
00000000
00000000
,  // measure 50
00000100
00000010
00000100
00000000
00001000
00000000
00000010
00000000
,  // measure 51
00000001
00000010
00000001
00000000
00000010
00000000
00000100
00000000
,  // measure 52
00001000
00100000
00010000
00000000
01000000
00000000
00100000
00000000
,  // measure 53
01000000
10000000
01000000
00000000
10000000
00000000
01000000
00000000
,  // measure 54
00100000
00010000
00001000
00000000
00001000
00000000
00000010
00000000
,  // measure 55
00001000
00000010
00000100
00000000
00000010
00000000
00000100
00000000
,  // measure 56
00001000
00010000
00100000
00000000
10000000
00000000
01000000
00000000
,  // measure 57
00100000
00010000
01000000
00000000
00100000
00000000
02000000
00000000
,  // measure 58
00000000
00000000
00000000
00000000
,  // measure 59
00000000
00000000
00000000
M31M0000
;
