#VERSION:0.83;
#TITLE:LOVE ME RIGHT;
#SUBTITLE:;
#ARTIST:엑소;
#TITLETRANSLIT:;
#SUBTITLETRANSLIT:;
#ARTISTTRANSLIT:;
#GENRE:K-Pop;
#CREDIT:SM;
#MUSIC:LOVE ME RIGHT.ogg;
#BANNER:LOVE ME RIGHT.png;
#BACKGROUND:BG.png;
#CDTITLE:Korean.png;
#SAMPLESTART:43.364;
#SAMPLELENGTH:15;
#SELECTABLE:YES;
#OFFSET:0.000;
#BPMS:0.000=220.000
,1.000=110.000
;
#STOPS:;
#DISPLAYBPM:110.000;
#JACKET:LOVE ME RIGHT-jacket.png;
#DISCIMAGE:;
#CDIMAGE:;
#TAGS:DMCA;
#BGCHANGES:0.000=LOVE ME RIGHT.avi=0.000=0=0=0=StretchNoLoop====,
99999=-nosongbg-=1.000=0=0=0 // don't automatically add -songbackground-
;
#FGCHANGES:;

//--------------- dance-single - Wrland ----------------
#NOTEDATA:;
#STEPSTYPE:dance-single;
#DESCRIPTION:Wrland;
#DIFFICULTY:Beginner;
#METER:5;
#RADARVALUES:0,0,0,0,0;
#CHARTNAME:;
#CHARTSTYLE:Pad;
#CREDIT:Wrland;
#METERF:5;
#NOTES:
0000
0000
0000
0000
,
0000
0000
0000
0000
,
0000
0000
0000
0000
,
0000
0000
0000
0000
,
0000
0000
1000
0000
0000
0000
0010
0001
,
0100
1000
0000
1000
,
0100
1000
0001
0000
0000
0000
0001
0000
,
0010
0000
0010
0100
,
0000
0000
1000
0000
0000
0000
1000
0100
,
1000
1000
0000
0001
,
0100
0100
0000
0010
,
0100
0000
0100
0100
,
0000
0010
0010
0001
,
0000
0000
0000
0010
0001
0100
0001
0000
,
0000
0000
0000
0000
0100
0000
1000
0100
,
0010
0000
0000
0000
,
0000
0000
0010
0100
1000
0000
0000
0000
,
0000
0000
0010
0100
0010
0000
0000
0000
,
0000
0000
0001
0100
0010
0000
0000
0000
,
0000
0002
0000
0000
,
0003
0000
1000
0000
0000
0000
1000
0100
,
1000
0000
1000
0000
0000
0000
0001
0100
,
0001
0000
0000
0000
0000
0100
0010
0000
,
0000
0000
0000
0000
0000
0100
1000
0000
,
0000
0000
0010
0000
0000
0000
0001
0100
,
0001
0000
0010
0000
0000
0000
1000
0100
,
1000
0000
0000
0000
0000
0100
0010
0000
,
0001
0100
0000
0000
1000
0000
0100
0000
1000
0000
0000
0000
0100
0000
0020
0000
,
0030
0000
0010
0000
0000
0010
0001
0000
,
0000
0000
0100
0000
0000
0100
1000
0000
,
0000
0000
0001
0000
0000
0010
0001
0000
,
0000
0000
0001
0100
0010
0100
0020
0030
,
0000
0000
1000
0000
0100
1000
0100
0000
,
0000
0000
1000
0000
0100
0010
0001
0000
,
0000
0000
0100
0000
1000
0100
1000
0000
,
0000
0000
0010
0000
0001
0100
0001
0000
,
0000
0000
0010
0000
0000
0000
0000
0010
,
0100
0000
0001
0000
0000
0000
0000
0100
,
1000
0200
0000
0000
,
0300
0100
0010
1001
,
0000
0000
0100
0000
0010
0000
0001
0100
,
0000
0000
0000
0010
0000
0000
0000
0000
0100
0000
0000
0000
0001
0000
0100
0000
,
0000
0000
0000
0010
0000
0000
0000
0000
0000
0000
0100
0000
1000
0000
0000
0000
,
0010
0000
0000
0100
0000
0000
0000
0000
0000
0000
0010
0000
0100
0000
0000
0000
,
0000
0000
0010
0000
1000
0100
1000
0000
,
0000
0000
1000
0000
0000
0000
0100
0010
,
0100
0000
0000
0000
0000
0100
0010
0000
,
0001
0000
1000
0100
1000
0000
0100
0020
,
0030
0000
0100
0000
0000
0000
0100
0001
,
0100
0000
0100
0000
0000
0000
0100
1000
,
0100
0000
0001
0000
0000
0000
0001
0100
,
0010
0000
1000
0000
0100
0000
0002
0003
,
0000
0000
1000
0000
0000
0000
1000
0100
,
1000
0000
0100
0000
0000
0000
0001
0100
,
0001
0000
0100
0000
0000
0000
0100
1000
,
0100
0000
0002
0003
0000
0000
0020
0030
,
0000
0000
0010
0000
0000
0000
0100
0001
,
0000
0000
0000
0000
0100
0000
0010
0100
,
0000
0000
0000
0100
1000
0000
0010
0100
,
0000
0000
0001
0000
0000
0000
0002
0003
,
0000
0000
0000
0100
0010
0000
0000
0000
,
0001
0000
0000
1000
0100
0000
0000
0000
,
0100
0000
0000
0100
0010
0000
0000
0000
,
0100
0000
0010
0100
0010
0000
0002
0003
;

//--------------- dance-single - Wrland ----------------
#NOTEDATA:;
#STEPSTYPE:dance-single;
#DESCRIPTION:Wrland;
#DIFFICULTY:Easy;
#METER:7;
#RADARVALUES:0,0,0,0,0;
#CHARTNAME:;
#CHARTSTYLE:Pad;
#CREDIT:Wrland;
#METERF:7;
#NOTES:
0000
0000
0000
0000
,
0000
0000
0000
0000
,
0000
0000
0000
0000
,
0000
0000
0000
0000
,
0000
0000
1000
0000
0100
0000
0010
0001
,
0100
1000
0100
1000
,
0100
1000
0001
0000
0000
0100
0001
0100
,
0010
0000
0001
0100
0010
0100
0010
0000
,
0000
0000
1000
0000
0100
0000
1000
0100
,
1000
0000
1000
0000
0100
0010
0001
0000
,
0100
1000
0100
0000
0000
0100
0010
0001
,
0100
0000
0100
0001
0100
0001
0100
0000
,
0000
0000
0010
0100
0010
0000
0001
1000
,
0100
0000
0000
0010
0001
0100
0001
0000
,
0100
1000
0000
1000
0100
0000
1000
0100
,
0010
0000
0000
0000
,
0000
0000
0010
0100
1000
0000
1000
1001
,
0000
0000
0010
0100
0010
0000
0001
1001
,
0000
0000
0001
0100
0010
0000
0100
1000
,
0100
0002
0000
0000
,
1003
0000
1000
0000
0100
0000
1000
0100
,
1000
0000
1000
0000
0100
0000
0001
0100
,
0001
0000
0100
0000
0000
0100
0010
0000
,
0001
0000
1000
0000
0000
0100
1000
0000
,
0100
0000
0010
0000
0001
0100
0001
0000
,
0100
0000
0010
0000
1000
0100
1000
0000
,
0100
0000
0100
0000
0000
0100
0010
0000
,
0001
0100
0000
0000
1000
0000
0100
0000
1000
0000
0000
0000
0100
0000
0020
0000
,
0030
0000
0010
0000
0100
0010
0001
0000
,
0000
0000
0100
0000
1000
0100
1000
0000
,
0000
0000
0001
0000
0100
0010
0001
0000
,
0000
0000
0001
0100
0010
0100
0020
0030
,
0000
0000
1000
0000
0100
1000
0100
0000
,
0000
0000
1000
0000
0100
0010
0001
0000
,
0000
0000
0100
0000
1000
0100
1000
0000
,
0000
0000
0010
0000
0001
0100
0001
0000
,
0000
0000
0010
0000
0100
0010
0100
0010
,
0100
0000
0001
0000
1000
0100
1000
0100
,
1000
0200
0000
0000
,
0300
0100
0010
1001
,
0000
0000
0100
0000
0010
0000
0001
0100
,
0000
0000
0000
0010
0000
0000
0000
0000
0100
0000
0000
0000
0001
0000
0100
0000
,
0000
0000
0000
0010
0000
0000
0000
0000
0000
0000
0100
0000
1000
0000
0000
0000
,
0010
0000
0000
0100
0000
0000
0000
0000
0000
0000
0010
0000
0100
0000
0000
0000
,
0000
0000
0010
0000
1000
0100
1000
0000
,
0100
0000
1000
0100
1000
0000
0100
0010
,
0100
0000
0010
0000
0000
0100
0010
0000
,
0001
0000
1000
0100
1000
0000
0100
0020
,
0030
0000
0100
0000
0001
0000
0100
0001
,
0100
0000
0100
0000
1000
0000
0100
1000
,
0100
0000
0001
0000
0100
0000
0001
0100
,
0010
0000
0010
0000
0100
0000
0001
0200
,
0300
0000
1000
0000
0100
0000
1000
0100
,
1000
0000
0100
0000
0010
0000
0001
0100
,
0001
0000
0100
0000
0010
0000
0100
1000
,
0100
0000
0001
0000
0100
0000
0020
0030
,
0000
0000
0010
0000
0001
0000
0100
0001
,
0000
0000
0000
1000
0100
0000
1000
0000
,
0100
0000
0000
0100
1000
0000
0100
0000
,
0010
0000
0001
0000
0100
0010
0002
0003
,
0000
0000
0000
0100
0010
0000
0001
0100
,
0001
0000
0000
1000
0100
0000
1000
0100
,
0000
0000
0000
0100
0010
0000
0001
0100
,
0000
0000
0010
0100
0010
0000
0002
0003
;

//--------------- dance-single - Wrland ----------------
#NOTEDATA:;
#STEPSTYPE:dance-single;
#DESCRIPTION:Wrland;
#DIFFICULTY:Medium;
#METER:10;
#RADARVALUES:0,0,0,0,0;
#CHARTNAME:;
#CHARTSTYLE:Pad;
#CREDIT:Wrland;
#METERF:10;
#NOTES:
0000
0000
0000
0000
,
0000
0000
0000
0000
,
0000
0000
0000
0000
,
0000
0000
0000
0000
0000
0000
0000
0000
0000
0000
0000
0000
0000
0000
0000
0010
,
0000
0100
0000
0020
0000
0000
0000
0000
0000
0000
0000
0030
1000
0000
0100
0010
,
1000
0000
0000
0100
0000
0010
0000
0100
0000
0010
0000
0002
0000
0003
0100
1000
,
0000
0010
0000
0200
0000
0000
0000
0300
0000
0000
0100
0010
0100
0000
0010
0000
,
0100
0000
0000
0000
0000
0000
0010
0000
0001
0000
0100
0000
0001
0000
0000
0100
,
0000
0010
0000
0020
0000
0000
0000
0000
0000
0000
0000
0030
1000
0000
1000
0100
,
1000
0000
0000
0010
0000
0100
0000
0001
0000
0100
0000
0001
0000
0100
0000
0010
,
0000
0100
0000
2000
0000
0000
0000
3000
0000
0000
1000
0001
1000
0000
1000
0000
,
0100
0000
0000
0000
0000
0000
0100
0001
0010
0000
0001
0000
0100
0000
0001
0000
,
0200
0000
0300
0000
0001
0000
0100
0010
0001
0000
0100
0001
0010
0000
1000
0000
,
0100
0000
1000
0100
0000
0000
1000
0000
0100
0000
0010
0000
0001
0000
0100
0001
,
0010
0000
0010
0100
0000
0000
0010
0001
0100
1000
0010
0000
0001
0010
0100
0000
,
0010
0000
0100
0010
0100
0000
1000
0000
0200
0000
0000
0300
0010
0100
0020
0000
,
0000
0000
0030
0000
0010
0100
0010
0100
0010
0100
0010
0100
0010
0000
0110
0000
,
0000
0000
1000
0100
0010
0001
0010
0001
0010
0001
0010
0001
0010
0000
0101
0000
,
0100
0001
0020
0030
0010
0100
0002
0003
1000
0100
2000
3000
0100
0000
1100
0000
,
0000
0000
0010
0100
0010
0000
0100
0010
0200
0000
0000
0300
0010
0100
0010
0000
,
0110
0000
0000
0000
1000
0000
0100
0000
0100
0000
1000
0000
0100
0000
0010
0100
,
0000
0010
0000
0100
0000
0010
0001
0000
0010
0000
0001
0000
0100
0000
0010
0100
,
0000
1000
0000
0100
0000
1000
0100
0000
0000
0000
0100
0000
0110
0000
0000
0000
,
0001
0000
1000
0001
0000
1000
0001
0000
0000
0000
0001
0000
1001
0000
0000
0000
,
0000
0100
0000
0010
0000
0100
0010
0000
0010
0000
0001
0000
1000
0000
0001
1000
,
0000
0100
0000
1000
0000
0001
0100
0000
0010
0001
0100
0000
0010
0000
0100
0010
,
0000
0001
0000
0100
0000
1000
0100
0000
0000
0000
1000
0000
1100
0000
0000
0000
,
0100
0010
0000
0001
0000
0100
0000
0001
0000
0100
0000
0010
0000
0100
0020
0000
,
0000
0030
0000
0100
0000
0010
0100
0000
0220
0000
0000
0000
0330
0000
0000
0000
,
0000
0010
0000
0001
0000
0100
0010
0000
2200
0000
0000
0000
3300
0000
0000
0000
,
0000
0100
0000
0010
0000
0100
0010
0000
0022
0000
0000
0000
0033
0000
0000
0000
,
0001
1000
0000
0001
0000
1000
0000
0100
0000
1000
0000
0100
0000
1000
0200
0000
,
0000
0300
0000
0000
0100
0000
0010
0000
0100
0000
0010
1000
0100
0000
1000
0000
,
1100
0000
0000
0000
0100
0010
0001
0100
0000
0010
0000
0100
0000
0001
0000
0100
,
0000
0001
0000
0200
0000
0000
0000
0000
0000
0000
0000
0000
0000
0000
0000
0000
,
0310
0001
0000
0100
0000
0001
0000
0100
0000
0001
0000
0020
0000
0000
0030
0100
,
0010
0000
0100
0000
0100
0000
0010
0000
0100
0000
0001
0000
0010
0000
0001
1000
,
0100
0000
1000
0000
0010
0000
0001
0000
0100
0000
0010
0000
1000
0000
0100
0010
,
2000
3000
0002
0000
0000
0000
0000
0000
1000
0000
0100
0000
1000
0000
0203
0000
,
2300
3200
0010
0010
0010
0010
0310
0000
,
0000
0000
0000
1000
0000
0100
1000
0000
0001
0000
0000
0000
1000
0000
0001
0010
,
0000
0010
0000
0100
0000
0010
0100
0010
1000
0000
0001
0000
0100
0000
1000
0001
,
0000
0100
0000
0010
0000
0100
0010
0000
0000
0000
0100
0000
0110
0000
0000
0000
,
0001
0000
0000
1000
0000
0001
1000
0000
0000
0000
0100
0000
0011
0000
0000
0000
,
0000
0100
0000
0010
0000
0100
0010
0000
0010
0000
0001
0000
1000
0000
0001
1000
,
0000
0100
0000
1000
0000
0001
0100
0000
0010
0001
0100
0000
0010
0000
0100
0010
,
0000
0001
0000
0100
0000
1000
0100
0000
0000
0000
1000
0000
1100
0000
0000
0000
,
0100
0010
0000
0001
0000
0100
0000
0001
0000
0100
0000
0010
0000
0100
0020
0000
,
0000
0030
0000
0100
0000
0010
0100
0000
0220
0000
0000
0000
0330
0000
0000
0000
,
0000
0010
0000
0001
0000
0100
0010
0000
2200
0000
0000
0000
3300
0000
0000
0000
,
0000
0100
0000
0010
0000
0100
0010
0000
0022
0000
0000
0000
0033
0000
0000
0000
,
0001
1000
0000
0001
0000
1000
0000
0100
0000
1000
0000
0100
0000
1000
0200
0000
,
0000
0300
0000
0100
0000
0010
0100
0000
0220
0000
0000
0000
0330
0000
0000
0000
,
0000
0010
0000
0001
0000
0100
0010
0000
2200
0000
0000
0000
3300
0000
0000
0000
,
0000
0100
0000
0010
0000
0100
0010
0000
0022
0000
0000
0000
0033
0000
0000
0000
,
0001
1000
0000
0001
0000
1000
0000
0100
0000
1000
0000
0100
0000
1000
0200
0000
,
0000
0000
0000
0310
0000
0000
2000
3000
0200
0000
0300
1000
0100
1000
0100
0001
,
0000
1000
0000
0020
0030
0000
0010
0100
0002
0000
0003
0100
0001
0100
0010
0001
,
0000
0100
0000
2000
0000
3000
0100
0010
2000
0000
0000
3000
0010
0100
0020
0030
,
0001
0100
0000
0010
0000
0100
0000
1000
0000
0100
0000
0010
0000
0001
0200
0000
,
0000
0300
0000
0000
0010
0000
0100
0001
0020
0000
0000
0030
0100
1000
0010
0000
,
0000
1000
0000
0001
1000
0100
1000
0010
0200
0000
0000
0300
0001
0010
0100
0000
,
0000
1000
0000
0002
0000
0003
0100
1000
0020
0000
0030
0000
0100
0001
0010
0000
,
0100
0010
0000
0100
0000
1000
0000
0100
0000
0010
0000
0001
0000
1000
0002
0000
,
0003
0000
0000
0000
;

//--------------- dance-single - Wrland ----------------
#NOTEDATA:;
#STEPSTYPE:dance-single;
#DESCRIPTION:Wrland;
#DIFFICULTY:Hard;
#METER:13;
#RADARVALUES:0,0,0,0,0;
#CHARTNAME:;
#CHARTSTYLE:Pad;
#CREDIT:Wrland;
#METERF:13;
#NOTES:
0000
0000
0000
0000
,
0000
0000
0000
0000
0000
0000
0000
0010
,
0100
0000
0010
0000
0002
0000
0003
0100
0001
0000
0100
0000
0000
0000
0010
0000
,
0100
0000
0000
0000
1000
0000
0000
0100
0000
0000
2000
0000
0000
0000
3000
0001
,
0000
0100
0000
0010
2000
0000
0000
0000
0100
0000
0000
0000
0001
0000
0010
0100
,
3010
0000
0000
0010
0000
0001
0000
0100
0000
0001
0000
0200
0300
0000
0001
0100
,
0000
0010
0000
0200
0000
0300
0000
0000
0100
0000
0100
0010
0011
0000
0010
0000
,
1100
0000
0010
0001
0100
0000
1000
0000
0101
0000
1000
0000
0110
0000
0000
0100
,
0000
0010
0000
0100
0020
0000
0000
0000
0100
0000
1000
0000
0100
1000
0100
0000
,
1030
0000
0000
0100
0000
1000
0000
0100
0000
0010
0000
0100
0000
0010
0000
0001
,
0000
0100
0000
0010
0200
0000
0000
0300
0010
0000
0100
0001
1010
0000
0001
0000
,
0101
0000
0010
0100
0010
0000
0100
0000
1001
0000
0100
0000
1100
0000
0020
0000
,
0200
0000
0330
0000
1000
0000
0001
1000
0010
0001
0100
0010
0001
1000
0100
0010
,
0002
0003
0010
0100
0010
0000
0100
0010
1000
0100
1000
0100
1000
0100
0010
0001
,
0200
0300
0100
1000
0000
0000
0200
0300
0010
0001
0200
0300
0010
0100
0010
0100
,
0002
0003
0010
0100
1000
0000
0002
0000
0200
0000
0300
0010
0100
1000
0020
0000
,
0033
0000
0000
0000
0100
1000
0100
1000
0100
0001
0010
0100
2000
0000
3001
0000
,
0000
0000
0100
0001
0010
1000
0100
0001
0010
1000
0001
0010
0200
0000
0301
0000
,
0010
1000
0100
0000
0010
0100
0001
0000
0001
0100
0010
0001
0110
0000
1100
0000
,
0100
0010
1000
0010
0100
0000
0010
0100
0010
0100
0010
1000
0001
0100
0001
0000
,
1001
0000
0000
0100
0000
0010
0100
0001
0100
1000
0010
0100
0002
0003
0100
0002
,
0003
0010
0000
0100
0010
1000
0010
0100
0100
0001
0010
1000
0002
0003
0100
0002
,
0003
0020
0030
0100
0000
0010
0100
0000
0000
0000
0100
0000
0110
0000
0000
0000
,
0001
0000
1000
0002
0003
1000
0001
0000
0000
0000
1000
0000
1100
0000
0010
0001
,
0000
0010
0000
0100
0001
0100
0010
1000
0001
0100
0010
0100
0020
0030
0100
2000
,
3000
0200
0300
0010
0100
1000
0001
0100
0001
0010
0100
1000
0020
0030
0100
2000
,
3000
0200
0300
0010
0000
0001
0100
0000
0000
0000
0010
0000
0110
0000
0000
0000
,
0100
0002
0003
1100
0000
0101
0000
0110
0000
1100
0000
1000
0000
0100
0002
0003
,
0100
0010
0000
0100
0000
0010
0100
0000
0010
0100
1000
0000
0100
0010
0100
0000
,
0000
0100
0000
0010
0000
0001
0010
0000
0100
1000
0100
0000
0010
1000
0100
0000
,
1000
0010
0000
0100
0000
0010
0100
0000
1000
0100
1000
0000
0100
0010
0100
0000
,
0100
0001
0000
0010
0000
0100
0000
0010
0000
0001
0000
0100
1000
0010
0002
0003
,
0010
0100
0100
0000
0010
0000
0100
0020
0030
1000
0100
0010
0100
0000
0100
0000
,
0220
0000
0330
0000
0001
0100
0001
0010
0000
0100
1000
0010
0000
0100
0000
0010
,
0000
0001
0000
0200
0000
0000
0000
0000
0010
0001
0000
0010
0000
0001
0000
0010
,
1000
0301
0000
0100
0000
0010
0000
0001
0000
0010
0000
0100
0010
0100
0010
0000
,
0100
0001
0100
0000
0010
0000
0100
0010
0100
0000
0001
0010
0100
0000
0001
1000
,
0010
0000
0100
0000
0001
0010
0100
0000
1000
0100
0100
0000
0010
1000
0001
0000
,
0100
0000
0010
0000
0200
0000
0000
0000
0010
0001
0000
0010
0000
0001
0000
0010
,
1300
0000
0010
0000
0011
0000
0011
0000
0110
0000
1000
0100
1000
0000
0100
0000
,
0010
0000
0001
0100
0000
0100
0010
0100
0010
0000
0001
0000
0020
0030
0001
0200
,
0300
1000
0000
0100
0010
0100
1000
0100
1000
0000
0100
0000
0020
0030
0001
0200
,
0300
0020
0030
0100
0000
0010
0100
0010
0000
0000
0001
0000
1001
0000
0000
0000
,
2000
3000
0100
1000
0000
0100
0010
0000
0000
0000
0100
0000
0110
0000
0010
0100
,
0010
0001
0100
0001
0000
0100
0010
0001
0100
0010
2000
3000
0200
0300
1000
0200
,
0300
0100
0000
0010
0100
0001
0100
0001
0100
0010
0001
0000
0200
0300
0010
0200
,
0300
0010
0000
0100
0000
1000
0001
0000
0000
0000
0100
0000
0110
0000
0000
0000
,
0100
0020
0030
0100
0000
0010
0000
0001
0000
0100
0000
0010
0000
0100
0020
0030
,
0000
0001
0000
0010
0100
0001
1000
0000
0010
0100
0001
0000
0100
0001
0010
0000
,
0100
1000
0010
0001
0000
1000
0001
0000
0100
0010
1000
0000
0100
0001
0010
0000
,
0001
0010
0100
0001
0000
0100
0001
0000
0010
0001
0100
0000
1000
0010
0100
0000
,
0010
0100
0010
0001
0000
0010
0000
0100
0000
1000
0000
0100
0000
0010
0200
0300
,
0010
0001
1000
0010
0100
0001
0010
0100
0001
0100
0010
0000
1000
0100
0010
0000
,
0100
0010
1000
0100
0000
1000
0100
0000
0010
0100
0001
0000
0001
0100
0010
0000
,
0010
0000
0100
0010
0000
0001
0100
0010
1000
0100
0001
0000
1000
0100
0010
0000
,
0100
2000
3000
0101
0000
1010
0000
0101
0000
0101
0000
0020
0030
0100
0020
0030
,
0100
1000
0100
1000
0010
0000
0001
0010
0200
0000
0300
0000
0100
0010
0001
2000
,
3000
0200
0300
0020
0000
0030
0100
0010
2000
0000
0000
3000
0010
0100
0001
0020
,
0030
0002
0003
0100
0010
0001
0100
0010
2000
0000
0000
3000
0010
0001
0100
0000
,
0100
0020
0030
0100
0000
0010
0000
0001
0000
0100
0000
0010
0000
1000
0200
0300
,
0010
0001
0100
0000
0010
0000
0001
0100
0002
0000
0000
0003
0100
0100
1000
0000
,
0100
0010
1000
0001
0100
0000
0010
0100
0020
0000
0000
0030
0100
0010
0001
0000
,
0100
0010
0010
0001
0100
0000
0010
0100
0002
0000
0000
0003
0100
0010
1000
0000
,
0100
0020
0030
1100
0000
0101
0000
1001
0000
0101
0000
1000
0000
0100
0020
0000
,
0030
0000
0000
0000
;

//--------------- dance-single - Wrland ----------------
#NOTEDATA:;
#STEPSTYPE:dance-single;
#DESCRIPTION:Wrland;
#DIFFICULTY:Challenge;
#METER:16;
#RADARVALUES:0,0,0,0,0;
#CHARTNAME:;
#CHARTSTYLE:Pad;
#CREDIT:Wrland;
#METERF:16;
#NOTES:
0000
0000
0000
0000
,
0000
0000
0000
0000
0000
0000
0000
0010
,
0100
0000
0010
0000
0002
0000
0003
1000
0001
0000
1000
0000
0000
0000
0100
0000
,
0010
0000
0100
0010
0001
0000
0000
0100
0010
0000
0200
0000
0000
0300
0000
0010
,
0000
0100
0000
0010
0200
0000
0300
0001
1000
0000
0001
0000
0010
0000
1000
0000
,
0001
0100
1000
0001
0000
0010
0000
0100
0000
1000
0000
0002
0000
0003
0100
1000
,
0000
0001
0000
0100
0010
0000
0001
0100
0010
0000
0100
0010
1000
0000
0100
0010
,
0001
0000
0101
0000
1001
0000
0010
0100
0001
0000
0100
0001
0010
0000
0000
0001
,
0000
0100
0000
0020
0000
0030
0000
0100
0001
0000
0100
0000
0010
0000
0100
0010
,
0001
0000
0000
0010
0000
0100
0000
0010
0000
0100
0000
0100
0000
0001
0000
0100
,
0000
0010
0000
0001
0100
0010
0001
0000
0010
0000
0100
0010
0100
0000
0100
0010
,
1000
0000
0101
0000
1100
0000
0010
0100
0001
0000
0010
0001
0100
0000
0010
0100
,
0002
0000
0000
0003
1000
0000
0100
0001
0100
0010
0100
0010
0001
1000
0100
0001
,
0200
0300
0010
0001
0000
0000
0010
0100
0010
0100
1000
0100
0010
0001
0100
0001
,
0200
0300
0010
0100
0000
0000
0010
0100
0010
0001
0200
0300
0100
0010
0100
0001
,
0020
0030
0100
1000
0100
0000
0010
0100
0020
0000
0030
0000
0001
0100
0001
0000
,
0001
0100
0010
0000
0010
0100
1000
0100
1000
0100
0001
0010
0011
0000
1100
0000
,
0000
0000
0010
0001
0100
0010
0001
0100
1000
0010
0100
0001
0110
0000
0101
0000
,
0010
0100
0010
0000
0001
0100
0001
0000
0100
1000
0100
0001
0010
0001
0100
1000
,
0010
0000
0001
0100
0001
0000
0100
0010
0200
0010
0001
0010
1300
0100
0020
0000
,
1030
0000
0000
0200
0300
0010
0100
0010
0002
0003
0100
0010
0002
0003
0100
0001
,
0000
0200
0300
0010
0001
0100
1000
0100
0010
0100
0001
0010
0200
0300
0001
0100
,
0000
0020
0030
0100
0010
0001
0100
0000
0000
0000
1100
0000
0110
0000
0000
0000
,
0002
0003
0100
0001
1000
0001
0100
0000
0000
0000
0110
0000
1001
0000
0010
0001
,
0100
0010
0001
0100
1000
0100
0010
0001
0100
0001
0010
0100
0200
0300
0010
0100
,
0000
0002
0003
0100
0010
0001
0100
0001
0100
0001
0010
1000
0200
0300
1000
0100
,
0000
2000
3000
0100
0010
0001
0100
0000
0000
0000
1001
0000
1100
0000
0000
0000
,
0100
0020
0030
0002
0103
2000
3100
0002
0013
2000
3100
0002
0003
0010
0200
0300
,
0100
2000
3000
0100
0001
0010
0100
0001
1000
0100
0010
0001
1000
0100
0001
2000
,
3001
0020
0030
0100
0001
0100
0010
0001
0100
1000
0010
0002
0103
2000
3100
0020
,
0031
0100
0010
0010
1000
0100
0010
0100
0001
0001
0100
0010
0001
0001
0100
0010
,
1000
0001
0100
0020
0031
0200
1300
0020
0130
0002
0013
0200
0300
0010
0200
0000
,
0001
0010
0301
0000
0010
0001
0100
0010
1000
0100
0001
0010
1100
0000
0110
0000
,
0101
0000
0010
0100
1000
0100
1000
0100
0010
0001
0100
0002
0013
2000
3100
0200
,
0310
2000
3100
0100
2000
0000
0000
0000
0100
0010
0000
0001
0000
0100
0001
0100
,
3010
0100
0010
0002
0013
0002
0013
2000
3100
0020
0130
0020
0031
0000
1000
0001
,
0100
1000
0100
0010
0001
0000
0010
0100
0010
0000
0001
0100
0001
0000
0100
0010
,
0100
0000
0001
0000
0100
0000
0001
0100
0001
0000
1000
0100
1000
0000
0100
0010
,
0002
0003
0200
0300
0010
0001
0100
0000
1000
0100
0010
0000
0001
0100
0010
1000
,
0001
0100
1000
0000
0110
0000
1001
0000
1100
0000
0110
0000
1001
0000
0100
0010
,
0002
0000
0000
0103
0000
0010
0100
0010
MMM1
0000
0100
0010
1000
0000
0100
1000
,
MMMM
1000
0000
0100
0000
0001
0100
0001
M1MM
0000
0010
0000
0100
0000
1000
0100
,
MMMM
0100
0000
0010
0100
0001
0100
0000
0000
0000
0110
0000
1001
0000
0000
0000
,
1000
0001
0100
0010
1000
0100
0010
0000
0000
0000
0101
0000
1010
0000
0100
0010
,
0001
0100
0001
0100
1000
0100
0010
0001
0100
0001
0010
0100
0200
0300
0010
0100
,
0000
0002
0003
0100
0010
0001
0100
0001
0100
0001
0010
1000
0200
0300
1000
0100
,
0000
2000
3000
0100
0010
0001
0100
0000
0000
0000
1001
0000
1100
0000
0000
0000
,
0100
0020
0030
0002
0103
2000
3100
0002
0013
2000
3100
0002
0003
0010
0200
0300
,
0100
2000
3000
0100
0001
0010
0100
0001
1000
0100
0010
0001
1000
0100
0001
2000
,
3001
0020
0030
0100
0001
0100
0010
0001
0100
1000
0010
0002
0103
2000
3100
0020
,
0031
0100
0010
0010
1000
0100
0010
0100
0001
0001
0100
0010
0001
0001
0100
0010
,
1000
0001
0100
0020
0031
0200
1300
0020
0130
0002
0013
0200
0300
0010
0200
0000
,
0010
0001
0300
0100
1000
0010
0100
0010
0001
0100
0010
0001
0010
0100
0001
0020
,
0130
2000
3000
0100
0001
0100
0010
0001
0100
1000
0010
0002
0103
2000
3100
0020
,
0031
0100
0010
0010
1000
0100
0010
0100
0001
0001
0100
0010
0001
0001
0100
0010
,
1000
0001
0100
0020
0130
0200
0301
0020
0031
0200
1300
0002
0003
0010
0200
0000
,
0310
0100
0010
0001
0010
0100
1000
0100
2000
0000
3100
0001
0100
1000
0100
0010
,
0001
0100
1000
0010
0001
0100
0010
0100
0020
0000
0031
0100
0100
0001
0100
0010
,
0001
0100
1000
0010
0001
0100
0010
0100
0020
0000
1030
0100
0100
1000
0100
0010
,
0001
0200
0300
0020
0031
0200
1300
0020
0031
0002
0013
0200
0300
0001
0200
0300
,
0010
0100
0010
0001
0010
0001
0100
0010
0200
0000
0310
0001
0100
0001
0200
0300
,
0010
0001
0100
0010
2000
3000
0100
1000
0200
0000
0310
0001
1000
0100
2000
3000
,
0100
0001
0010
0100
0001
0010
0100
0001
0200
0000
0310
0100
0010
0100
0020
0030
,
0001
0200
0300
2000
3100
0020
0031
0200
0310
2000
3100
0020
0030
0100
2000
0000
,
3000
0000
0000
0000
;

//--------------- dance-double - Wrland ----------------
#NOTEDATA:;
#STEPSTYPE:dance-double;
#DESCRIPTION:Wrland;
#DIFFICULTY:Easy;
#METER:7;
#RADARVALUES:0,0,0,0,0;
#CHARTNAME:;
#CHARTSTYLE:Pad;
#CREDIT:Wrland;
#METERF:7;
#NOTES:
00000000
00000000
00000000
00000000
,
00000000
00000000
00000000
00000000
,
00000000
00000000
00000000
00000000
,
00000000
00000000
00000000
00000000
,
00000000
00000000
10000000
00000000
01000000
10000000
01000000
00000000
,
01000000
00000000
00100000
00000000
00010000
01000000
00010000
00000000
,
01000000
00000000
00100000
00000000
00000000
00010000
00001000
00000100
,
00000010
00000000
00000000
00000001
00000100
00000001
00000100
00000000
,
00000000
00000000
00000100
00000000
00000010
00000000
00000001
00000100
,
00000001
00000000
00001000
00000000
00010000
00000000
00100000
01000000
,
10000000
00000000
01000000
00000000
00000000
10000000
01000000
10000000
,
01000000
00000000
00000000
01000000
00100000
00010000
10000000
00000000
,
00000000
00000000
10000000
00010000
10000000
00000000
01000000
00100000
,
00010000
00000000
00000000
00010000
00001000
00000000
00010000
00001000
,
00010000
00000000
00000000
00001000
00000100
00000000
00000010
00000100
,
00000010
00000001
00000000
00000000
,
00000000
00000000
00001000
00010000
00010000
00000000
00100000
01000000
,
00000000
10000000
01000000
00000000
10000000
00000000
01000000
10000000
,
01000000
00100000
00010000
00000000
01000000
00010000
01000000
00100000
,
00000000
01000000
10000000
01000000
00100000
00000000
00010000
00000000
,
00011000
00000000
00010000
00001000
00000100
00000000
00000010
00000001
,
00000010
00000000
00000100
00000010
00000100
00000000
00000010
00000001
,
00000100
00000000
00001000
00000100
00000000
00000100
00001000
00000000
,
00000100
00000010
00000001
00000100
00000000
00000010
00000100
00000000
,
00000100
00000000
00000010
00000001
00000100
00000000
00001000
00010000
,
00100000
00000000
10000000
01000000
10000000
00000000
01000000
10000000
,
01000000
00000000
00100000
00010000
00000000
01000000
00100000
00000000
,
10000000
01000000
00100000
00010000
10000000
00010000
20000000
00000000
,
30000000
00000000
01000000
00000000
00100000
01000000
00100000
00000000
,
01000000
00000000
00100000
00010000
00001000
00000000
00000100
00000010
,
00000001
00000000
00000100
00000001
00000100
00000000
00000010
00000100
,
00001000
00000000
00000100
00001000
00000100
00000010
00000001
00000200
,
00000000
00000300
00001000
00000000
00010000
00100000
01000000
00000000
,
10000000
00000000
10000000
00000000
01000000
10000000
01000000
00100000
,
00010000
00000000
01000000
00000000
00010000
01000000
01000000
00000000
,
00100000
00000000
00100000
00010000
00100000
00000000
00010000
00001000
,
00010000
00000000
00001000
00000100
00000010
00000000
00000001
00001000
,
00000001
00000000
00000100
00001000
00000100
00000000
00000100
00000010
,
00000001
00002000
00000000
00003000
00010000
00000000
00100000
01000000
,
01000000
00000000
10000000
00010000
10000000
00010000
20000000
00000000
,
30000000
00000000
10010000
00000000
,
01100000
00000000
11000000
00000000
,
01100000
00000000
00000000
00000000
00000000
00100000
01000000
00000000
,
00100000
00000000
00000000
00010000
00000000
00000000
00000000
00000000
00000000
00000000
00010000
00000000
00001000
00000000
00000000
00000000
,
00000100
00000000
00000000
00000010
00000000
00000000
00000000
00000000
00000001
00000000
00000100
00000000
00000001
00000000
00000000
00000000
,
00000100
00000000
00001000
00000100
00001000
00000000
00000100
00000010
,
00000001
00000000
00000100
00000010
00000000
00000001
00000100
00000000
,
00000001
00000000
00000100
00001000
00000100
00000010
00000002
00000003
,
00002000
00003000
00000100
00001000
00000000
00010000
00100000
00000000
,
01000000
10000000
01000000
10000000
00000000
01000000
10000000
00000000
,
01000000
00100000
00010000
01000000
00000000
00100000
01000000
00000000
,
00100000
01000000
10000000
01000000
00100000
00010000
01000000
00020000
,
00030000
00000000
01000000
00010000
00000000
01000000
00100000
00000000
,
00010000
00001000
00000100
00000010
00000000
00001000
00000100
00000000
,
00000010
00000001
00000100
00000010
00000000
00001000
00000100
00000000
,
00000100
00000010
00000001
00000100
00001000
00010000
00100000
02000000
,
00000000
03000000
10000000
01000000
10000000
00000000
01000000
00200000
,
00300000
00000000
00000000
00010000
01000000
00000000
01000000
00200000
,
00300000
00000000
00100000
00010000
00100000
00000000
00010000
00002000
,
00003000
00000000
00001000
00000100
00000010
00000001
00001000
00000002
,
00000000
00000003
00000000
00001000
00000100
00000000
00000100
00002000
,
00003000
00000000
00000000
00000100
00000010
00000000
00000001
00000200
,
00000300
00000000
00000000
00000010
00000100
00000000
00000001
00000100
,
00000010
00000100
00001000
00010000
00100000
01000000
10000000
00020000
,
00030000
00000000
00000000
00000000
;

//--------------- dance-double - Wrland ----------------
#NOTEDATA:;
#STEPSTYPE:dance-double;
#DESCRIPTION:Wrland;
#DIFFICULTY:Medium;
#METER:11;
#RADARVALUES:0,0,0,0,0;
#CHARTNAME:;
#CHARTSTYLE:Pad;
#CREDIT:Wrland;
#METERF:11;
#NOTES:
00000000
00000000
00000000
00000000
,
00000000
00000000
00000000
00000000
,
00000000
00000000
00000000
00000000
,
00000000
00000000
00000000
00000000
00000000
00000000
00000000
00000000
00000000
00000000
00000000
00000000
00000000
00000000
00000000
00100000
,
00000000
01000000
00000000
00200000
00000000
00000000
00000000
00000000
00000000
00000000
00000000
00000000
00000000
00000000
00000000
00000000
,
00300000
00000000
00000000
01000000
00000000
00100000
00000000
01000000
00000000
00100000
00000000
00020000
00000000
00030000
00000000
00001000
,
00000000
00000100
00000000
00000020
00000000
00000000
00000000
00000000
00000030
00000000
00001000
00000000
00001000
00000000
00000100
00000000
,
00001000
00000000
00000100
00001000
00000100
00000000
00000010
00000000
00000001
00000000
00001000
00000000
00000100
00000000
00000000
00000100
,
00000000
00000010
00000000
00002000
00000000
00000000
00000000
00000000
00000000
00000000
00000000
00000000
00000000
00000000
00000000
00000000
,
00003000
00000000
00000000
00010000
00000000
00100000
00000000
10000000
00000000
01000000
00000000
10000000
00000000
01000000
00000000
10000000
,
00000000
01000000
00000000
10000000
02000000
00000000
00000000
03000000
00000000
00000000
01000000
10000000
01000000
00000000
00100000
00000000
,
01000000
00000000
00000000
01000000
00100000
00010000
10000000
00010000
,
20000000
00000000
30000000
00000000
01000000
00000000
00100000
01000000
00100000
00000000
00010000
01000000
00010000
00000000
01000000
10000000
,
01000000
00000000
10000000
01000000
00000000
00000000
01000000
00000000
00100000
00000000
00010000
00000000
01000000
00000000
00010000
01000000
,
00010000
00000000
01000000
00010000
00000000
00000000
01000000
00100000
01000000
00100000
10000000
00000000
10000000
01000000
10000000
00000000
,
01000000
00100000
01000000
00000000
00100000
00000000
00010000
00000000
00002000
00000000
00003000
00000000
00000100
00000000
00000020
00000000
,
00000000
00000000
00000030
00000000
00000100
00000000
00000010
00000100
00000010
00000000
00000100
00000010
00000001
00000000
00001001
00000000
,
00000000
00000000
00000100
00000000
00001000
00000000
00000100
00001000
00000100
00000000
00000010
00000100
00000001
00000000
00001100
00000000
,
00001000
00000100
00000010
00000000
00000100
00000010
00000100
00000000
00000001
00000100
00000001
00000000
00000100
00000000
00001100
00000000
,
00000000
00000000
00000100
00001000
00000100
00000000
00000010
00000000
00000200
00000000
00000300
00000000
00000001
00000100
00000001
00000000
,
00000101
00000000
00000000
00001000
00000000
00010000
00100000
00000000
10000000
01000000
10000000
00000000
01000000
00000000
00100000
01000000
,
00000000
00100000
00000000
01000000
00000000
10000000
01000000
00000000
10000000
00000000
01000000
00000000
00100000
00000000
00010000
01000000
,
00000000
00100000
00000000
01000000
00000000
10000000
01000000
00000000
00000000
00000000
01000000
00000000
10000000
00000000
00000000
00000000
,
01000000
00000000
10000000
01000000
00000000
10000000
01000000
00000000
00000000
00000000
01000000
00000000
00100000
00000000
00010000
00000000
,
01000000
00100000
00000000
01000000
00000000
00100000
01000000
00100000
00010000
00000000
00001000
00000000
00000100
00000000
00000010
00000100
,
00000000
00000010
00000000
00000001
00000000
00000100
00000001
00000100
00000000
00000000
00000010
00000000
00000100
00000000
00001000
00000100
,
00000000
00001000
00000000
00000100
00000000
00000010
00000001
00000000
00000000
00000000
00001000
00000000
00000100
00000000
00000000
00000000
,
00000010
00000100
00000000
00000010
00000000
00000001
00000000
00000100
00000000
00001000
00000000
00000100
00000000
00001000
00000200
00000300
,
00000010
00000100
00000000
00000100
00000000
00001000
00000100
00000000
00001000
00000100
00001000
00000000
00010000
00100000
00010000
00000000
,
00000000
00100000
00000000
01000000
00000000
10000000
01000000
00000000
10000000
01000000
00100000
00010000
00000000
00100000
00000000
01000000
,
00000000
10000000
01000000
10000000
00000000
01000000
00100000
00000000
00010000
01000000
00100000
00000000
01000000
10000000
01000000
00000000
,
00100000
01000000
00000000
00100000
00000000
00010000
00000000
01000000
00000000
00010000
00000000
01000000
00000000
00100000
02000000
03000000
,
00100000
00010000
00100000
00000000
01000000
00000000
00100000
00010000
00000000
00001000
00000000
00000100
00000010
00000000
00000100
00000000
,
00000020
00000000
00000030
00000000
00000100
00000000
00000010
00000100
00000000
00000010
00000000
00000001
00000000
00000010
00000000
00000100
,
00000000
00000010
00000000
00000200
00000000
00000000
00000300
00000000
00000010
00000000
00000001
00000000
00000100
00000000
00000010
00000100
,
00000000
00001000
00000000
00000100
00000000
00001000
00000000
00000100
00000000
00000010
00000000
00000200
00000000
00000000
00000300
00000000
,
00000001
00000000
00000100
00000001
00000100
00000000
00001000
00000000
00000100
00000000
00000100
00000000
00000010
00000000
00000100
00000010
,
00000002
00000000
00000003
00000000
00000100
00000000
00000010
00000000
00000100
00000000
00001000
00000000
00000100
00000000
00001000
00000100
,
00000010
00000000
00000001
00000000
00000200
00000000
00000000
00000000
00000000
00000000
00000300
00000000
00000010
00000000
00000001
00000010
,
00000100
00001000
00010000
00001000
00010000
00001000
00011000
00000000
,
00000000
00000000
00010000
10000000
10010000
00000000
01000000
10000000
,
11000000
00000000
01000000
00100000
01100000
00000000
00010000
01000000
,
01010000
00000000
00000000
01000000
00000000
10000000
01000000
00000000
00000000
00000000
01000000
00000000
00100000
00000000
00000000
00000000
,
00010000
00000000
01000000
00010000
00000000
01000000
00010000
00000000
00000000
00000000
01000000
00000000
10000000
00000000
00000000
00000000
,
00000000
00100000
00000000
00010000
00000000
00100000
00010000
00100000
00010000
00000000
00001000
00000000
00000100
00000000
00000010
00000000
,
00000001
00000000
00000010
00000000
00000100
00000000
00000010
00001000
00000100
00000000
00000010
00000000
00000100
00000000
00000001
00000100
,
00000000
00000010
00000000
00000100
00000000
00001000
00000100
00000000
00000000
00000000
00001000
00000000
00000100
00000000
00000000
00000000
,
00000100
00000010
00000000
00000001
00000000
00000100
00000000
00001000
00000000
00000100
00000000
00000010
00000000
00000001
00000200
00000300
,
00000010
00000000
00000100
00000010
00000100
00000010
00000001
00000000
00000100
00001000
00000100
00000000
00001000
00000100
00000010
00000000
,
00000100
00000000
00001000
00000000
00010000
00100000
01000000
00000000
10000000
01000000
10000000
00000000
01000000
00100000
01000000
00000000
,
01000000
00000000
10000000
01000000
00000000
10000000
01000000
00100000
00010000
00100000
01000000
00000000
00010000
01000000
00010000
00000000
,
01000000
00100000
00000000
01000000
00000000
10000000
00000000
01000000
00000000
00100000
00000000
00010000
00000000
01000000
00020000
00030000
,
01000000
00000000
00100000
01000000
00000000
00100000
00010000
00000000
01000000
00010000
00100000
00000000
00100000
01000000
00010000
00000000
,
00100000
00010000
00100000
00010000
00000000
00001000
00000100
00000000
00000010
00000100
00000010
00000000
00000001
00000100
00000001
00000000
,
00001000
00000000
00000100
00001000
00000000
00000100
00001000
00000000
00000100
00000010
00000100
00000000
00000001
00000100
00000001
00000000
,
00000100
00000010
00000000
00000100
00000000
00001000
00000000
00000100
00000000
00000010
00000000
00000100
00000000
00000001
00000200
00000300
,
00000010
00000100
00000010
00000000
00000001
00000000
00000100
00000001
00000200
00000000
00000300
00000000
00000010
00000100
00001000
00000000
,
00000200
00000000
00000000
00000300
00000000
00000000
00000100
00000000
00000020
00000000
00000030
00000000
00000001
00000100
00000001
00000000
,
00000200
00000000
00000000
00000300
00000000
00000000
00001000
00000100
00002000
00000000
00003000
00000000
00000100
00000010
00000100
00000000
,
00001000
00000100
00000000
00001000
00000000
00000100
00000000
00001000
00000000
00000100
00000000
00000010
00000000
00000100
00002000
00003000
,
00010000
00000000
00100000
01000000
00100000
00000000
01000000
10000000
02000000
00000000
03000000
00000000
10000000
01000000
10000000
00000000
,
01000000
00000000
00100000
00000000
00010000
00000000
01000000
00010000
02000000
00000000
03000000
00000000
00100000
01000000
10000000
00000000
,
01000000
00000000
00100000
00000000
00010000
00000000
01000000
00010000
02000000
00000000
03000000
00000000
00100000
10000000
01000000
00000000
,
01000000
00100000
00000000
01000000
00000000
00100000
00000000
01000000
00000000
00100000
00000000
00010000
00000000
01000000
00020000
00000000
,
00030000
00000000
00000000
00000000
;

//--------------- dance-double - Wrland ----------------
#NOTEDATA:;
#STEPSTYPE:dance-double;
#DESCRIPTION:Wrland;
#DIFFICULTY:Hard;
#METER:14;
#RADARVALUES:0,0,0,0,0;
#CHARTNAME:;
#CHARTSTYLE:Pad;
#CREDIT:Wrland;
#METERF:14;
#NOTES:
00000000
00000000
00000000
00000000
,
00000000
00000000
00000000
00000000
00000000
00000000
00000000
00100000
,
01000000
00000000
00100000
00000000
00010000
00000000
00000000
01000000
00010000
00000000
01000000
00000000
00000000
00000000
00100000
00000000
,
01000000
00000000
10000000
00000000
01000000
00000000
00000000
10000000
01000000
00000000
01000000
00000000
00000000
00000000
00000000
01000000
,
00000000
00100000
00000000
00010000
01000000
00000000
00000000
00100000
00010000
00000000
01000000
00000000
10000000
00000000
01000000
10000000
,
01000000
00000000
00000000
10000000
00000000
01000000
00000000
00100000
00000000
00010000
00000000
01000000
00000000
00000000
00100000
00010000
,
00000000
01000000
00000000
00100000
01000000
00100000
00010000
00000000
01000000
00000000
00100000
01000000
00100000
00000000
00100000
00000000
,
01000000
00000000
10000000
01000000
10000000
00000000
01000000
00000000
00100000
00000000
00010000
00000000
00001000
00000000
00000000
00000100
,
00000000
00000010
00000000
00000001
00000100
00000000
00000000
00001000
00000100
00000000
00000010
00000000
00000100
00000000
00000010
00000100
,
00000010
00000000
00000000
00000001
00000000
00000100
00000000
00000010
00000000
00000100
00000000
00001000
00000000
00000100
00000000
00000010
,
00000000
00000100
00000000
00000010
00000001
00000000
00000100
00000000
00000010
00000000
00000100
00000010
00000100
00000000
00001000
00000000
,
00000100
00000000
00001000
00000100
00001000
00000000
00000100
00000000
00000010
00000000
00000001
00000000
00000100
00000000
00002000
00000000
,
00003100
00000000
00000000
00000000
00000100
00000000
00001000
00010000
00100000
01000000
00100000
10000000
01000000
00000000
00100000
01000000
,
00100000
00000000
00010000
01000000
00000000
00000000
10000000
01000000
10000000
01000000
00100000
01000000
00100000
00000000
00010000
01000000
,
00010000
00000000
01000000
00100000
00000000
00000000
01000000
10000000
01000000
10000000
01000000
00000000
00100000
01000000
00100000
00000000
,
00010000
01000000
00010000
01000000
00010000
00000000
01000000
00000000
00200000
00000000
00300000
00000000
01000000
10000000
02000000
00000000
,
00000000
03000000
00000000
00000000
01000000
00100000
00010000
00001000
00000100
00000010
00000001
00000010
00000200
00000000
00000310
00000000
,
00000000
00000000
00000100
00000010
00000100
00000010
00000000
00000001
00000010
00000100
00000010
00000100
00002000
00000000
00003100
00000000
,
00000010
00000100
00000010
00000000
00000001
00000100
00000001
00000000
00000100
00001000
00000100
00000000
00000020
00000000
00000130
00000000
,
00000000
00000000
00000001
00000100
00000001
00000000
00000100
00000010
00000200
00000000
00000300
00000000
00001000
00000100
00001000
00000000
,
00011000
00000000
00000000
00010000
00000000
00100000
00010000
00100000
01000000
00000000
01000000
00000000
00100000
00000000
01000000
00100000
,
00000000
00010000
00000000
01000000
00000000
10000000
01000000
10000000
01000000
10000000
01000000
10000000
01000000
00000000
01000000
00100000
,
00000000
00010000
00000000
01000000
00000000
00010000
01000000
00000000
00000000
00000000
01010000
00000000
11000000
00000000
00000000
00000000
,
01000000
00000000
00100000
01000000
00000000
00100000
01000000
00000000
00000000
00000000
10000000
00000000
01000000
00000000
00100000
00000000
,
01000000
00100000
00000000
00010000
00001000
00000100
00000010
00000100
00000010
00000000
00000010
00000000
00000100
00000000
00000010
00000100
,
00000000
00000001
00000000
00000100
00000001
00000100
00000001
00000100
00000010
00000001
00000100
00000000
00000010
00000000
00000100
00000010
,
00000000
00000001
00000000
00000100
00000000
00000010
00000100
00000000
00000000
00000000
00001010
00000000
00000101
00000000
00000000
00000000
,
00000010
00000100
00000000
00000001
00000000
00000100
00000000
00000001
00000000
00000010
00000000
00000100
00000000
00001000
00000200
00000300
,
00000010
00000100
00000000
00000001
00000000
00000100
00000001
00000010
00000001
00000010
00000100
00000000
00000100
00000001
00000010
00000000
,
00000100
00001000
00010000
00100000
00000000
01000000
10000000
00000000
01000000
10000000
01000000
00000000
00100000
01000000
00100000
00000000
,
00010000
01000000
00000000
00100000
00000000
01000000
00100000
00000000
01000000
10000000
01000000
00000000
00100000
01000000
00100000
00000000
,
00010000
01000000
00000000
00100000
00000000
01000000
00000000
10000000
00000000
01000000
00000000
10000000
00000000
01000000
10000000
01000000
,
00100000
01000000
00100000
00010000
00001000
00000000
00000100
00000010
00000000
00000001
00000000
00000100
00000001
00000000
00000100
00000000
,
00000020
00000030
00000001
00000000
00000100
00000001
00000100
00000001
00000000
00000100
00000010
00001000
00000000
00000010
00000000
00000100
,
00000000
00000010
00000000
00000100
00000020
00000000
00000000
00000100
00001000
00000000
00000000
00000100
00001000
00000000
00000000
00000100
,
00001030
00000100
00000000
00000010
00000000
00000001
00000000
00000100
00000000
00000001
00000000
00000100
00000010
00000000
00000100
00000001
,
00000100
00000000
00000010
00000100
00000010
00000000
00000001
00000100
00000001
00000000
00000100
00001000
00000100
00000000
00001000
00000100
,
00001000
00000000
00010000
01000000
00100000
00000000
01000000
10000000
01000000
00000000
00100000
01000000
00100000
00000000
00010000
01000000
,
00010000
00000000
01000000
10000000
01000000
00000000
10000000
00100000
01000000
00000000
00100000
01000000
00100000
00000000
00010000
01000000
,
00010000
10000000
11000000
01100000
10010000
10100000
22000000
00000000
,
33000000
00200000
01300000
20000000
,
30010000
02000000
03100000
02000000
,
13000000
00100000
00000000
00010000
00000000
00100000
01000000
00000000
00000000
00000000
00110000
00000000
11000000
00000000
00000000
00000000
,
01000000
00000000
00100000
01000000
00000000
00100000
01000000
00000000
00000000
00000000
00100000
00000000
00110000
00000000
00000000
00000000
,
00010000
00001000
00000000
00000010
00000000
00000100
00000010
00000100
00000010
00000000
00000001
00000000
00000100
00000000
00000001
00000100
,
00000000
00001000
00000000
00000100
00000000
00001000
00000100
00001000
00000100
00000000
00000010
00000000
00000001
00000000
00000100
00000001
,
00000000
00000100
00000000
00000010
00000000
00000001
00000100
00000000
00000000
00000000
00001100
00000000
00000110
00000000
00000000
00000000
,
00000010
00000100
00000000
00000010
00000000
00000001
00000000
00000100
00000000
00000010
00000000
00001000
00000000
00000100
00002000
00003000
,
00000100
00000000
00000010
00000001
00000000
00000100
00001000
00000000
00000100
00001000
00000100
00000000
00000010
00000100
00000010
00000000
,
00000001
00000100
00000000
00001000
00000000
00000100
00001000
00000000
00000100
00001000
00000100
00000000
00000010
00000100
00000010
00000000
,
00000001
00000100
00000000
00000001
00000000
00000100
00000001
00000000
00000100
00000010
00000100
00000000
00001000
00000100
00000010
00000000
,
00001000
00000100
00000000
00001000
00000000
00000100
00000000
00000010
00000000
00000001
00000000
00000100
00000000
00000001
00000200
00000300
,
00000010
00000100
00001000
00010000
00000000
00100000
01000000
00000000
10000000
01000000
10000000
00000000
01000000
00100000
01000000
00000000
,
00010000
01000000
00000000
00010000
00000000
01000000
00010000
00000000
00100000
01000000
00100000
00000000
01000000
10000000
01000000
00000000
,
00100000
01000000
00000000
00100000
00000000
00010000
01000000
00000000
01000000
00010000
01000000
00000000
00100000
01000000
00000000
00000000
,
10000000
01000000
00000000
10000000
00000000
01000000
00000000
00100000
00000000
00010000
00000000
01000000
00000000
00010000
02000000
00000000
,
00000000
00000000
03000000
00000000
00100000
00000000
00010000
00100000
00020000
00000000
00030000
00000000
00001000
00010000
00001000
00000100
,
00000000
00000010
00000000
00000001
00000000
00000100
00000001
00000100
00000002
00000000
00000003
00000000
00000100
00000010
00000100
00000010
,
00000000
00000100
00000000
00000010
00000000
00000100
00000010
00000100
00000020
00000000
00000030
00000000
00000001
00001000
00000100
00000000
,
00000010
00000100
00000000
00000010
00000000
00000100
00000000
00001000
00000000
00000100
00000000
00001000
00000000
00000100
00001000
00000000
,
00010000
00100000
00010000
00000000
00100000
00000000
01000000
00100000
02000000
00000000
00000000
03000000
10000000
01000000
10000000
00000000
,
01000000
00000000
00100000
00010000
01000000
00000000
00100000
01000000
00200000
00000000
00300000
01000000
00010000
00100000
01000000
00000000
,
00100000
01000000
00100000
00000000
00010000
00000000
01000000
00010000
02000000
00000000
03000000
00000000
00100000
01000000
10000000
00000000
,
01000000
00100000
00000000
01000000
00000000
00100000
00000000
00010000
00000000
01000000
00000000
00010000
00000000
01000000
00020000
00000000
,
00030000
00000000
00000000
00000000
;
