#VERSION:0.83;
#TITLE:HOW IT'S DONE;
#SUBTITLE:;
#ARTIST:HUNTR/X;
#TITLETRANSLIT:;
#SUBTITLETRANSLIT:;
#ARTISTTRANSLIT:;
#GENRE:K-POP DEMON HUNTERS;
#CREDIT:Sony & Netflix & Republic;
#MUSIC:HOW IT'S DONE.ogg;
#BANNER:HOW IT'S DONE.png;
#BACKGROUND:BG.png;
#JACKET:HOW IT'S DONE-jacket.png;
#DISCIMAGE:;
#CDIMAGE:;
#SELECTABLE:YES;
#LYRICSPATH:;
#CDTITLE:K-POP DEMON HUNTERS.png;
#SAMPLESTART:73.483;
#SAMPLELENGTH:15.000;
#OFFSET:0.017;
#BPMS:0.000000=160.000000,
192.000000=80.000000,
195.000000=160.000000
;
#STOPS:;
#WARPS:;
#DELAYS:;
#SPEEDS:;
#SCROLLS:;
#TICKCOUNTS:;
#TIMESIGNATURES:;
#LABELS:;
#COMBOS:;
#FAKES:;
#BGCHANGES:0.000=HOW IT'S DONE.avi=0.000=0=0=0=StretchNoLoop====,
99999=-nosongbg-=1.000=0=0=0 // don't automatically add -songbackground-
;
#FGCHANGES:;
#ATTACKS:;
#DISPLAYBPM:80.000:160.000;
#TAGS:DMCA;

//---------------dance-single - Wrland---------------
#NOTEDATA:;
#CHARTNAME:;
#CHARTSTYLE:Pad;
#CREDIT:Wrland;
#STEPSTYPE:dance-single;
#DESCRIPTION:Wrland;
#DIFFICULTY:Beginner;
#METER:3;
#METERF:3;
#RADARVALUES:0,0,0,0,0;
#NOTES:
// measure 0
0000
0000
0000
0000
,  // measure 1
0000
0000
0000
0000
,  // measure 2
0000
0000
0000
0000
,  // measure 3
0000
0000
0000
0000
,  // measure 4
0010
0000
0010
0100
,  // measure 5
0010
0000
0100
0000
,  // measure 6
1000
0000
0100
0000
,  // measure 7
1000
1000
0001
0000
,  // measure 8
0100
0010
0100
0000
,  // measure 9
0010
0000
1000
0000
0001
0010
0100
0100
,  // measure 10
0001
0010
0100
1000
,  // measure 11
0010
0000
0100
0000
0001
0100
0001
0100
,  // measure 12
0010
0100
0010
0001
,  // measure 13
0100
0100
0010
0001
,  // measure 14
0100
1000
0100
1000
,  // measure 15
0100
1000
0100
1000
0100
0000
1100
0000
,  // measure 16
0100
0000
0010
0100
0000
0001
0100
0000
,  // measure 17
0010
0000
0100
0010
0000
0001
0100
0000
,  // measure 18
0010
0000
0100
0010
0000
0100
1000
0000
,  // measure 19
0100
0000
0100
0010
0000
0100
0010
0100
,  // measure 20
0110
0000
0000
0001
0000
0000
0100
0000
0000
0001
0000
1000
,  // measure 21
0001
0000
0000
0100
0000
0000
0010
0000
0000
0100
0000
0001
,  // measure 22
0100
0100
0010
0100
,  // measure 23
0010
0000
0100
0000
0010
0100
0010
0100
,  // measure 24
0020
0000
0000
0000
,  // measure 25
0032
0000
0000
0000
,  // measure 26
2003
0000
0000
0000
,  // measure 27
3200
0000
0000
0000
,  // measure 28
0320
0000
0000
0000
,  // measure 29
0032
0000
0000
0000
,  // measure 30
2003
0000
0000
0000
,  // measure 31
3000
0000
1001
1001
,  // measure 32
1001
0000
0000
1000
0000
0100
0001
0000
0000
0001
0000
0000
,  // measure 33
0000
0000
0000
0010
0000
0010
0100
0000
0000
1000
0000
0000
,  // measure 34
0000
0000
0000
0100
0000
0010
0100
0000
0000
0001
0000
0100
,  // measure 35
0001
0100
0110
1100
,  // measure 36
0110
0000
0000
0100
0000
0001
0100
0000
0000
0010
0000
0000
,  // measure 37
0000
0000
0000
0100
0000
0010
0100
0000
0000
1000
0000
0000
,  // measure 38
0000
0000
0000
0100
0000
1000
0100
0000
0000
0100
0000
0010
,  // measure 39
0100
0000
0000
0001
0000
0100
0001
0000
0000
0101
0000
0000
,  // measure 40
1010
0000
0000
0000
,  // measure 41
0000
0000
0000
0000
,  // measure 42
0000
0000
0000
0000
,  // measure 43
0000
0000
0000
0000
,  // measure 44
0001
0000
0000
1000
0000
0000
0001
0000
1000
0001
0000
0000
,  // measure 45
1000
0000
0000
0100
0000
0000
1000
0000
0100
1000
0000
0000
,  // measure 46
0100
0010
0001
0100
,  // measure 47
0010
0000
0100
0010
0100
0010
0001
0100
,  // measure 48
0020
0000
0000
0000
0000
0000
0000
0030
0000
1001
0000
0000
,  // measure 49
1001
1001
0100
0001
,  // measure 50
0100
0000
0000
0010
0000
0000
0100
0000
0010
0100
0000
0000
,  // measure 51
0001
0100
1000
0100
,  // measure 52
1000
0000
0000
0100
0000
0010
0100
0000
0000
0010
0000
0000
,  // measure 53
0001
0100
0010
0100
,  // measure 54
1000
0000
0000
0100
0000
1000
0100
0000
0000
0100
0000
0000
,  // measure 55
0010
0000
0000
0001
0000
0000
0100
0000
0001
0100
0000
0000
,  // measure 56
0010
0000
0100
0010
0000
0000
0010
0000
1000
0101
0000
0000
,  // measure 57
1100
0110
0000
0100
,  // measure 58
0001
0000
0100
0001
0000
0000
0000
0000
0000
0110
0000
0000
,  // measure 59
1100
0000
0000
0110
0000
0000
0000
0000
0001
0100
0000
0000
,  // measure 60
0010
0100
0000
1100
,  // measure 61
0110
0000
0000
0101
0000
0000
0000
0000
0001
0100
0000
0000
,  // measure 62
0010
1000
0000
0110
,  // measure 63
1100
0000
0000
0110
0000
0000
0001
0000
0100
0001
0000
0000
,  // measure 64
0100
0000
0010
0100
0000
0000
1000
0000
0000
1100
0000
0000
,  // measure 65
0110
0101
0000
0000
;

//---------------dance-single - Wrland---------------
#NOTEDATA:;
#CHARTNAME:;
#CHARTSTYLE:Pad;
#CREDIT:Wrland;
#STEPSTYPE:dance-single;
#DESCRIPTION:Wrland;
#DIFFICULTY:Easy;
#METER:6;
#METERF:6;
#RADARVALUES:0,0,0,0,0;
#NOTES:
// measure 0
0000
0000
0000
0000
,  // measure 1
0000
0000
0000
0000
,  // measure 2
0000
0000
0000
0000
,  // measure 3
0000
0000
0000
0000
,  // measure 4
0010
0000
0000
0100
,  // measure 5
0010
0000
0000
0000
,  // measure 6
1000
0000
0100
0000
,  // measure 7
1000
1000
0001
0000
,  // measure 8
0100
0000
0100
0000
,  // measure 9
0010
0000
0000
0000
0001
0010
0100
0100
,  // measure 10
0001
0000
0100
0000
,  // measure 11
0010
0000
0000
0000
0001
0100
0001
0100
,  // measure 12
0010
0000
0010
0000
,  // measure 13
0100
0000
0010
0000
,  // measure 14
0100
0000
0010
0000
,  // measure 15
0100
1000
0100
1000
0100
0000
0000
0000
,  // measure 16
0100
0000
0000
0100
0000
0001
0100
0000
,  // measure 17
0010
0000
0000
0010
0000
0001
0100
0000
,  // measure 18
0010
0000
0000
0010
0000
0100
1000
0000
,  // measure 19
0100
0000
0000
0010
0000
0100
0010
0100
,  // measure 20
0110
0000
0000
0001
0000
0000
0100
0000
0000
0001
0000
1000
,  // measure 21
0001
0000
0000
0100
0000
0000
0010
0000
0000
0100
0000
0001
,  // measure 22
0100
0100
0010
0100
,  // measure 23
0010
0000
0100
0000
0010
0100
0010
0100
,  // measure 24
0020
0000
0000
0000
,  // measure 25
0032
0000
0000
0000
,  // measure 26
2003
0000
0000
0000
,  // measure 27
3200
0000
0000
0000
,  // measure 28
0320
0000
0000
0000
,  // measure 29
0032
0000
0000
0000
,  // measure 30
2003
0000
0000
0000
,  // measure 31
3000
0000
1001
1001
,  // measure 32
1001
0000
0000
1000
0000
0100
0001
0000
0000
0000
0000
0000
,  // measure 33
0000
0000
0000
0010
0000
0010
0100
0000
0000
0000
0000
0000
,  // measure 34
0000
0000
0000
0100
0000
0010
0100
0000
0000
0001
0000
0100
,  // measure 35
0001
0100
0110
1100
,  // measure 36
0110
0000
0000
0100
0000
0001
0100
0000
0000
0000
0000
0000
,  // measure 37
0000
0000
0000
0100
0000
0010
0100
0000
0000
0000
0000
0000
,  // measure 38
0000
0000
0000
0100
0000
1000
0100
0000
0000
0100
0000
0010
,  // measure 39
0100
0000
0000
0001
0000
0100
0001
0000
0000
0101
0000
0000
,  // measure 40
1010
0000
0000
0000
,  // measure 41
0000
0000
0000
0000
,  // measure 42
0000
0000
0000
0000
,  // measure 43
0000
0000
0000
0000
,  // measure 44
0001
1000
0001
0000
,  // measure 45
1000
0100
1000
0000
,  // measure 46
0100
0010
0001
0100
,  // measure 47
0010
0000
0100
0010
0100
0010
0001
0100
,  // measure 48
0020
0000
0000
0000
0000
0000
0000
0030
0000
1001
0000
0000
,  // measure 49
1001
1001
0100
0001
,  // measure 50
0000
0010
0100
0010
,  // measure 51
0000
0100
1000
0100
,  // measure 52
0000
0000
0000
0100
0000
0010
0100
0000
0000
0010
0000
0000
,  // measure 53
0100
0100
0010
0100
,  // measure 54
0000
0000
0000
0100
0000
1000
0100
0000
0000
0100
0000
0000
,  // measure 55
0010
0000
0000
0001
0000
0000
0100
0000
0001
0100
0000
0000
,  // measure 56
0010
0000
0100
0010
0000
0000
0010
0000
1000
0101
0000
0000
,  // measure 57
1100
0110
0000
0100
,  // measure 58
0001
0001
0000
0110
,  // measure 59
1100
0110
0000
0100
,  // measure 60
0010
0100
0000
1100
,  // measure 61
0110
0101
0000
0100
,  // measure 62
0010
1000
0000
0110
,  // measure 63
1100
0110
0001
0001
,  // measure 64
0100
0100
1000
1100
,  // measure 65
0110
0101
0000
0000
;

//---------------dance-single - Wrland---------------
#NOTEDATA:;
#CHARTNAME:;
#CHARTSTYLE:Pad;
#CREDIT:Wrland;
#STEPSTYPE:dance-single;
#DESCRIPTION:Wrland;
#DIFFICULTY:Medium;
#METER:8;
#METERF:8;
#RADARVALUES:0,0,0,0,0;
#NOTES:
// measure 0
0000
0000
0000
0000
,  // measure 1
0000
0000
0000
0000
,  // measure 2
0000
0000
0000
0000
,  // measure 3
0000
0000
0000
0000
,  // measure 4
0000
0000
0000
0000
,  // measure 5
0000
0000
0000
0000
,  // measure 6
0000
0000
0000
0000
,  // measure 7
0000
0000
0000
0000
,  // measure 8
0100
0000
0000
0000
0100
0010
0000
0000
0002
0000
0003
0000
0100
1000
0000
0000
,  // measure 9
2000
3000
0100
0010
0001
0010
0100
1000
,  // measure 10
0010
0000
0000
0000
0100
0010
0000
0000
0200
0000
0300
0000
1000
0100
0000
0000
,  // measure 11
2000
0000
3000
0000
0100
0000
0010
0000
1000
0000
0001
0000
0100
0010
1000
0000
,  // measure 12
0001
0000
0100
0010
0010
0100
0001
0010
,  // measure 13
0200
0300
0001
0010
0100
1000
0001
0100
,  // measure 14
0020
0030
0100
0010
1000
0010
0100
0010
,  // measure 15
1100
0110
0101
1010
,  // measure 16
0100
0010
0010
0001
0100
0100
0010
0001
,  // measure 17
0100
0010
1000
0100
1000
0100
0010
0100
,  // measure 18
0001
0010
0100
0001
1000
0010
0100
0001
,  // measure 19
1000
0010
0100
1000
0200
0010
0010
0010
,  // measure 20
0310
0000
0000
0001
0000
0010
0100
0000
0000
0010
0000
0000
,  // measure 21
0100
0000
0000
1000
0000
0100
1000
0000
0000
0100
0000
0000
,  // measure 22
0010
0000
0000
0001
0000
0100
0001
0000
0000
0100
0000
0000
,  // measure 23
0010
0100
0010
0100
0001
0010
0100
0010
,  // measure 24
0002
0000
1000
0100
,  // measure 25
1000
0000
0100
0010
0100
0000
0100
0000
,  // measure 26
2003
0000
0010
0000
0001
0000
0100
0010
,  // measure 27
0100
0010
0100
0010
,  // measure 28
3020
0000
1000
0000
1000
0100
1000
0000
,  // measure 29
0100
0000
1000
0100
1000
0000
0100
0000
,  // measure 30
2030
0000
0100
0001
0100
0000
0010
0000
,  // measure 31
3100
0000
1001
1001
,  // measure 32
1001
0000
0000
0100
0000
0010
0100
0000
0000
0002
0000
0000
,  // measure 33
0000
0003
0000
0100
0000
0010
0100
0000
0000
2000
0000
0000
,  // measure 34
0000
3000
0000
1000
0000
0100
1000
0000
0000
0100
0000
0001
,  // measure 35
0010
0000
0000
0001
0000
0100
1100
0000
0000
0110
0000
0000
,  // measure 36
1001
0000
0000
1000
0000
0100
1000
0000
0000
0020
0000
0000
,  // measure 37
0000
0030
0000
0100
0000
0010
0100
0000
0000
0200
0000
0000
,  // measure 38
0000
0300
0000
1000
0000
0100
1000
0000
0000
0100
0000
0001
,  // measure 39
0010
0000
0000
0001
0000
0100
1100
0000
0000
0110
0000
0000
,  // measure 40
0011
0000
2000
0000
,  // measure 41
3002
0000
2003
0000
,  // measure 42
3200
0000
2300
0000
,  // measure 43
3200
0000
0320
0000
,  // measure 44
0032
0000
0203
0302
,  // measure 45
0200
0003
0000
0000
0000
0000
0000
0000
0310
0000
0000
0000
0100
0000
0001
0000
,  // measure 46
0000
0000
0000
0000
0100
0000
0000
0000
0010
0000
0200
0000
0000
0300
0000
0000
,  // measure 47
0001
0000
0000
0000
0100
0000
0002
0000
0000
0003
0000
0000
0200
0000
0000
0000
,  // measure 48
0000
0000
0000
0010
,  // measure 49
0001
0000
0000
0310
0000
0000
0100
0000
0010
0100
0000
0000
,  // measure 50
0001
0000
0000
0100
0000
0010
0100
0000
0010
0101
0000
0000
,  // measure 51
1001
0000
0000
0110
0000
0000
0100
0000
0010
0100
0000
0000
,  // measure 52
1000
0000
0000
0100
0000
1000
0100
0000
0010
1100
0000
0000
,  // measure 53
0110
0000
0000
0101
0000
0000
0010
0000
0100
0010
0000
0000
,  // measure 54
0001
0000
0000
0010
0000
0001
0100
0000
0010
0110
0000
0000
,  // measure 55
1100
0000
0000
0110
0000
0000
0001
0000
0100
0001
0000
0000
,  // measure 56
0100
0000
0010
0100
0000
0000
1000
0000
0100
1100
0000
0000
,  // measure 57
0110
0000
0000
0011
0000
0000
0100
0000
0001
0100
0000
0000
,  // measure 58
0010
0000
1000
0220
0000
0000
0330
0000
0000
1100
0000
0000
,  // measure 59
0011
0000
0000
1100
0000
0000
0000
0000
0100
0010
0000
0000
,  // measure 60
0100
0220
0330
0011
,  // measure 61
1100
0000
0000
0011
0000
0000
0000
0000
0001
0100
0000
0000
,  // measure 62
0010
0220
0330
1100
,  // measure 63
0110
0000
0000
1100
0000
0000
0100
0000
0010
0100
0000
0000
,  // measure 64
0001
0000
0100
0001
0000
0000
0100
0000
1000
0110
0000
0000
,  // measure 65
1100
0110
0000
0000
;

//---------------dance-single - Wrland---------------
#NOTEDATA:;
#CHARTNAME:;
#CHARTSTYLE:Pad;
#CREDIT:Wrland;
#STEPSTYPE:dance-single;
#DESCRIPTION:Wrland;
#DIFFICULTY:Hard;
#METER:13;
#METERF:13;
#RADARVALUES:0,0,0,0,0;
#NOTES:
// measure 0
0000
0000
0000
0000
,  // measure 1
0000
0000
0000
0000
,  // measure 2
0000
0000
0000
0000
,  // measure 3
0000
0000
0000
0000
,  // measure 4
2002
0000
3003
0000
0100
0010
0100
0001
,  // measure 5
2000
0000
3002
0000
0103
0010
1000
0010
,  // measure 6
0200
0000
0310
0000
0010
0001
0100
0000
,  // measure 7
1001
0000
0110
0000
0010
0100
0011
0000
,  // measure 8
1001
0000
0000
0000
1000
0100
0010
0000
2000
0000
3000
0000
0100
0001
0010
0000
,  // measure 9
0002
0000
0003
0000
0100
0010
0001
0000
0100
0000
0001
0000
0100
0000
0010
0000
,  // measure 10
0010
0000
0000
0000
0100
0001
1000
0000
0200
0000
0300
0000
0010
1000
0001
0000
,  // measure 11
0200
0300
0010
0100
0010
0001
0100
0001
,  // measure 12
0110
0000
0000
0000
0001
0100
0001
0000
0010
0000
0100
0000
1000
0000
0100
0000
,  // measure 13
2000
0000
3000
0000
1000
0010
0100
0000
0010
0000
0100
0000
0010
0000
0001
0000
,  // measure 14
0200
0000
0300
0000
0001
0100
0001
0000
0010
0000
0100
0000
1000
0000
0100
0000
,  // measure 15
0011
1100
1010
0200
,  // measure 16
0301
0001
0010
0000
1000
0000
0001
0010
0100
0000
0001
0000
0020
0000
0030
0000
,  // measure 17
0010
0100
0001
0000
0010
0000
1000
0010
0100
0000
0100
0000
2000
0000
3000
0000
,  // measure 18
0100
0001
1000
0000
0010
0000
0100
0001
0100
0000
0010
0000
0200
0000
0300
0000
,  // measure 19
0010
0100
0010
0000
0001
0000
0100
0010
0001
0000
0002
0000
0100
0000
1000
0000
,  // measure 20
0103
0000
0000
0100
0010
0100
0020
0030
0001
0200
0300
0010
,  // measure 21
0200
0300
0000
0010
0100
0010
0002
0003
0100
0020
0030
1000
,  // measure 22
0200
0300
0010
0200
0300
0100
1000
0000
0001
0100
0000
0001
,  // measure 23
1000
0001
1000
0001
1000
0001
1000
0001
,  // measure 24
0110
0000
0100
0000
0100
1000
0200
0300
,  // measure 25
0020
0030
0100
1000
0200
0300
0020
0030
,  // measure 26
1001
0000
0100
0000
0002
0003
0020
0030
,  // measure 27
0200
0300
0010
0001
0020
0030
0200
0300
,  // measure 28
0011
0100
0002
0003
0001
0010
0200
0300
,  // measure 29
0002
0003
0010
1000
0200
0300
0020
0030
,  // measure 30
0200
0000
0300
0010
0100
0010
0002
0003
0010
0200
0000
0300
,  // measure 31
0110
0000
0000
0100
0000
0010
0101
0000
0000
1100
0000
0000
,  // measure 32
0110
0000
0000
0100
0010
0100
0010
0000
0000
0001
0100
0001
,  // measure 33
0100
0000
0000
0010
0000
0100
1000
0000
0010
0100
0000
0010
,  // measure 34
0011
0000
0000
0100
0010
0100
1010
0000
0000
0001
0100
0001
,  // measure 35
0101
0000
0000
1000
0000
0100
0011
0000
0000
1100
0000
0000
,  // measure 36
0110
0000
0000
0001
0100
0001
0100
0000
0000
0100
0010
0100
,  // measure 37
0010
0000
0000
1000
0000
0010
0100
0000
0001
0100
0000
0010
,  // measure 38
0011
0000
0000
0100
0010
0100
1010
0000
0000
0001
0100
0001
,  // measure 39
0110
0000
0000
0010
0000
0100
0011
0000
0000
1100
0000
0000
,  // measure 40
2010
0000
0000
0000
0000
0000
3000
0000
0000
0000
0000
0000
0200
0000
0000
0000
0300
0000
0020
0000
0000
0030
0000
0000
,  // measure 41
0002
0003
0010
0001
0020
0030
0001
0010
,  // measure 42
0020
0000
0030
0000
2000
3000
0200
0300
,  // measure 43
0020
0030
0100
0010
0002
0003
0100
1000
,  // measure 44
0200
0000
0000
0300
0010
0000
0100
0000
0000
0000
0000
0000
0002
0000
0000
0003
0100
0000
0001
0000
0000
0000
0000
0000
,  // measure 45
0200
0000
0000
0300
1000
0000
0100
0000
0000
0000
0000
0000
2000
0000
0000
3000
0010
0000
0100
0000
0000
0000
0000
0000
,  // measure 46
0001
0000
1000
0000
0001
0000
0010
0000
0100
0010
1000
0100
2000
0000
0000
0000
,  // measure 47
3001
0000
0100
0000
0010
0100
0010
0001
0100
0000
0010
0000
0200
0000
0000
0000
,  // measure 48
0302
0000
0000
0000
0000
0000
2003
0000
0000
0000
0000
0000
0000
0000
0000
0100
0000
0010
3001
0000
0000
0000
0000
0000
,  // measure 49
1001
0000
0000
1100
0000
0000
0100
0010
0100
0001
0000
0010
,  // measure 50
0100
0000
0100
1000
0000
0010
0100
0000
0001
1000
0000
0010
,  // measure 51
0001
0000
0001
0100
0000
0000
0010
0100
0010
0100
0000
0001
,  // measure 52
1000
0000
0010
0100
0000
0001
1000
0000
0001
0010
0000
0100
,  // measure 53
0010
0000
0010
1000
0000
0000
0100
1000
0100
1000
0000
0010
,  // measure 54
0100
0000
1000
0010
0000
0100
0001
0000
0100
1000
0000
0010
,  // measure 55
0100
0000
0001
0010
0000
0000
1000
0100
0010
0101
0000
0000
,  // measure 56
1000
0100
0010
0101
0000
0000
1000
0100
1000
0110
0000
0010
,  // measure 57
0101
0000
0100
1001
0000
0100
0010
0000
0001
0100
0000
0110
,  // measure 58
0001
0000
0010
0220
0000
0000
0330
0000
0000
1000
0000
0100
,  // measure 59
0001
0000
0100
1001
0000
0000
0100
0010
0001
0100
0000
0010
,  // measure 60
0100
0000
1000
0220
0000
0000
0330
0000
0000
0001
0000
0100
,  // measure 61
0010
0000
0100
0001
0000
0000
0100
0010
0100
1000
0000
0100
,  // measure 62
0010
0000
0100
2020
0000
3030
0000
0000
0000
0100
0000
0010
,  // measure 63
0100
0000
0010
0100
0000
0000
0001
0100
0001
1100
0000
0000
,  // measure 64
0010
0100
1000
0110
0000
0000
0100
0010
0100
0011
0000
0100
,  // measure 65
1010
0000
0100
1001
0000
0000
0000
0000
0000
0000
0000
0000
;

//---------------dance-single - HOW IT'S DONE! DONE! DONE!---------------
#NOTEDATA:;
#CHARTNAME:;
#CHARTSTYLE:Pad;
#CREDIT:Wrland;
#STEPSTYPE:dance-single;
#DESCRIPTION:HOW IT'S DONE! DONE! DONE!;
#DIFFICULTY:Challenge;
#METER:15;
#METERF:15;
#RADARVALUES:0,0,0,0,0;
#NOTES:
// measure 0
0000
0000
0000
0000
,  // measure 1
0000
0000
0000
0000
,  // measure 2
0000
0000
0000
0000
,  // measure 3
0000
0000
0000
0000
,  // measure 4
0002
0000
0000
0000
0000
0000
0003
0000
1000
0000
0100
0000
1000
0000
0100
0010
,  // measure 5
0200
0000
0000
0300
0020
0000
0000
0030
0001
0000
0100
0000
0010
0001
0100
0000
,  // measure 6
2000
0000
3000
0000
0100
0000
1000
0000
0100
0000
1000
0100
0010
0000
0001
0000
,  // measure 7
0002
0103
2000
3001
0002
1003
2000
3010
,  // measure 8
0100
0000
0000
0000
0010
0001
0100
0000
0020
0000
0030
0000
0001
0100
0001
0000
,  // measure 9
0200
0300
0010
0100
1000
0100
1000
0100
,  // measure 10
0001
0000
0000
0000
0010
0100
0010
0000
0020
0000
0030
0000
0001
0100
0001
0000
,  // measure 11
0200
0000
0300
0000
0010
0001
0100
0000
1000
0000
0100
0000
0010
0000
0100
0000
,  // measure 12
0010
0000
0100
0010
0001
0100
0010
0100
,  // measure 13
2000
3000
0100
1000
0100
0010
0001
0100
,  // measure 14
0020
0030
0100
0010
0001
0100
0010
0100
,  // measure 15
1000
0100
0000
0000
0010
0100
0000
0000
0001
0100
0000
0000
0020
0000
0030
0000
,  // measure 16
0010
0001
0100
0000
1000
0000
0100
0010
1000
0000
0100
0000
0010
0000
0001
0000
,  // measure 17
0100
0010
0100
0000
0010
0000
0001
0010
0001
0000
0010
0000
1000
0000
0100
0000
,  // measure 18
1000
0100
1000
0000
0100
0000
0010
0100
0010
0000
0001
0000
0100
0000
0010
0000
,  // measure 19
0100
0010
0100
0000
0001
0000
0100
0001
0100
0000
2000
0000
0001
0000
0001
0000
,  // measure 20
3001
0000
0000
0100
0010
0100
0010
0000
0001
0200
0300
0010
,  // measure 21
0200
0300
0000
1000
0100
1000
0100
0010
1000
0200
0300
0010
,  // measure 22
0002
0003
0100
0010
0100
0001
0100
0000
0010
0100
0001
0010
,  // measure 23
0200
0010
0010
0010
0010
0310
0100
0010
,  // measure 24
1000
0000
0100
0000
1000
0100
2000
3000
,  // measure 25
0100
0000
0010
0010
0002
0003
0200
0300
,  // measure 26
0011
0000
0001
0000
0100
0001
0200
0300
,  // measure 27
0020
0030
0100
1000
0200
0300
2000
3000
,  // measure 28
0110
0000
0000
0000
0010
0000
0100
0000
0001
0010
0100
0000
0001
0000
0010
0000
,  // measure 29
0100
0001
0100
0000
0010
0000
0100
0000
2000
0000
3000
0000
0200
0000
0300
0000
,  // measure 30
0001
0100
0001
0100
0010
0100
2000
0000
3001
0200
0000
0300
,  // measure 31
0110
0000
0000
0010
0000
0100
0011
0000
0000
1100
0000
0000
,  // measure 32
0011
0000
0000
0100
0010
0100
0020
0030
0001
0200
0000
0300
,  // measure 33
0010
0000
0000
0100
1000
0100
2000
3000
0100
2000
0000
3000
,  // measure 34
0100
0000
0000
0100
0001
0100
0011
0000
0000
0100
0010
0100
,  // measure 35
0110
0000
0000
1000
0000
0100
1000
0000
0010
0001
0000
0010
,  // measure 36
0100
0000
0000
0010
0100
0010
0002
0003
0100
0002
0000
0003
,  // measure 37
0100
0000
0000
0010
0100
0010
0200
0300
1000
0200
0000
0300
,  // measure 38
1000
0000
0000
0001
1000
0001
1100
0000
0000
0100
1000
0100
,  // measure 39
1010
0000
0000
0100
0000
0010
0100
0000
0010
0001
0000
0100
,  // measure 40
0020
0000
0130
0000
0002
0000
0103
0001
,  // measure 41
0010
0001
0010
0000
0100
0000
1000
0000
0100
0010
0100
0000
1000
0000
0100
0000
,  // measure 42
0020
0031
0200
0310
,  // measure 43
0100
0001
0100
0000
0010
0000
0100
0000
0010
0100
0010
0000
0001
0000
0100
0000
,  // measure 44
0010
0000
0001
0000
0100
0000
0010
0000
0100
0010
0100
0000
0010
0000
0100
0000
,  // measure 45
1000
0000
0100
0000
1000
0000
0100
0000
1000
0100
1000
0000
0100
0000
0010
0000
,  // measure 46
0001
0100
0010
0001
0100
0020
0000
0030
,  // measure 47
0100
0000
0010
0000
0100
0000
0010
0000
0100
0010
0001
0010
0200
0000
0300
0000
,  // measure 48
0010
0000
0000
0200
0000
0000
0000
0000
0000
0000
0000
0000
0010
0000
0000
0000
0000
0000
0000
0000
0000
0000
0000
0000
0000
0000
0000
0000
0000
0000
0010
0000
0000
0000
0001
0000
0010
0000
0000
0000
0000
0000
0000
0000
0000
0000
0000
0000
,  // measure 49
0001
0000
0000
0310
0000
0001
0100
0000
0010
0100
0000
0010
,  // measure 50
0002
0000
0003
0010
0100
0010
0100
0000
1000
0100
0000
1000
,  // measure 51
0100
0000
0010
0002
0000
0003
0010
0100
0010
0100
0000
1000
,  // measure 52
0100
0000
0010
0100
0000
0010
0001
0000
0010
0100
1000
0001
,  // measure 53
0100
0010
0001
0020
0000
0030
0100
1000
0010
0100
0000
0010
,  // measure 54
1000
0000
0010
0100
1000
0100
0010
0001
0100
0010
0000
0010
,  // measure 55
0100
0000
0001
0100
0000
0010
1000
0010
0001
0110
0000
0010
,  // measure 56
0001
0100
1000
0110
0000
0010
0001
0010
0100
0001
0000
0100
,  // measure 57
0001
0000
0100
0020
0000
0030
0100
0010
0100
0010
0000
0100
,  // measure 58
0001
0000
0001
2000
0000
0000
3001
0000
0000
0100
0010
0100
,  // measure 59
0010
0100
0010
0220
0000
0330
0001
0010
0100
0001
0000
0100
,  // measure 60
0010
0001
0100
0020
0000
0000
0100
0000
0030
0100
0010
0100
,  // measure 61
0001
0010
0100
0011
0000
0000
0100
0000
0001
0100
0001
0010
,  // measure 62
0100
0010
1000
0200
0000
0000
1300
0000
0000
0100
1000
0100
,  // measure 63
1000
0100
0010
0101
0000
0000
0010
0100
0010
0101
0000
0000
,  // measure 64
0100
0010
0100
0011
0000
0000
0100
1000
0100
0010
0000
0001
,  // measure 65
0100
0000
0010
0100
0000
0000
0000
0000
0000
0000
0000
0000
;

//---------------dance-double - Wrland---------------
#NOTEDATA:;
#CHARTNAME:;
#CHARTSTYLE:Pad;
#CREDIT:Wrland;
#STEPSTYPE:dance-double;
#DESCRIPTION:Wrland;
#DIFFICULTY:Easy;
#METER:6;
#METERF:6;
#RADARVALUES:0,0,0,0,0;
#NOTES:
// measure 0
00000000
00000000
00000000
00000000
,  // measure 1
00000000
00000000
00000000
00000000
,  // measure 2
00000000
00000000
00000000
00000000
,  // measure 3
00000000
00000000
00000000
00000000
,  // measure 4
01000000
00000000
00100000
00000000
,  // measure 5
01000000
00000000
00100000
00000000
,  // measure 6
00010000
00000000
00001000
00000000
,  // measure 7
00000100
00000010
00000001
00000000
,  // measure 8
00000001
00001000
00000001
00010000
,  // measure 9
00100000
10000000
00100000
00010000
,  // measure 10
01000000
00010000
00001000
00000100
,  // measure 11
00000010
00000001
00000100
00001000
,  // measure 12
00110000
01000000
00100000
01000000
,  // measure 13
10000000
01000000
00100000
01000000
,  // measure 14
00100000
00010000
01000000
00100000
,  // measure 15
00010000
00000000
00001000
00000100
00000010
00000000
00000001
00000000
,  // measure 16
00000100
00000000
00001000
00000100
00000000
00000000
00000000
00000000
,  // measure 17
00001000
00000000
00010000
00001000
00000000
00000000
00000000
00000000
,  // measure 18
00010000
00000000
00100000
00010000
00000000
00000000
00000000
00000000
,  // measure 19
00100000
00000000
01000000
00100000
00000000
10000000
10000000
10000000
,  // measure 20
10000000
01000000
00100000
00010000
,  // measure 21
00001000
00000100
00000010
00000001
,  // measure 22
00000100
00000010
00000100
00000010
,  // measure 23
00000200
00000000
00000000
00001300
,  // measure 24
00020000
00030000
20000000
30000000
,  // measure 25
00020000
00030000
02000000
03000000
,  // measure 26
00200000
00300000
00020000
00030000
,  // measure 27
00002000
00003000
00000200
00000300
,  // measure 28
00000020
00000030
00000002
00000003
,  // measure 29
00000020
00000030
00000200
00000300
,  // measure 30
00002000
00003000
00020000
00030000
,  // measure 31
00000000
00000000
10010000
10010000
,  // measure 32
10010000
00000000
00000000
00100000
00000000
00010000
00001000
00000000
00000000
00000200
00000000
00000300
,  // measure 33
00000001
00000000
00000000
00000010
00000000
00001000
00010000
00000000
00000000
00200000
00000000
00300000
,  // measure 34
00100000
00000000
00000000
10000000
00000000
00100000
10000000
00000000
00000000
01000000
00000000
00010000
,  // measure 35
00100000
00000000
00000000
00010000
00000000
00001000
00000101
00000000
00000000
00001010
00000000
00000000
,  // measure 36
00000101
00000000
00000000
00000100
00000000
00001000
00010000
00000000
00000000
02000000
00000000
03000000
,  // measure 37
01000000
00000000
00000000
10000000
00000000
01000000
00100000
00000000
00000000
00002000
00000000
00003000
,  // measure 38
00000100
00000000
00000000
00000010
00000000
00000001
00000010
00000000
00000000
00000100
00000000
00001000
,  // measure 39
00010000
00000000
00000000
10000000
00000000
01000000
10010000
00000000
00000000
01100000
00000000
00000000
,  // measure 40
00110000
00000000
00020000
00030000
,  // measure 41
00002000
00003000
00000200
00000300
,  // measure 42
00000020
00000030
00000002
00000003
,  // measure 43
00000020
00000030
00000200
00000300
,  // measure 44
00002000
00003000
00020000
00030000
,  // measure 45
00200000
00300000
02000000
03000000
,  // measure 46
20000000
30000000
02000000
03000000
,  // measure 47
00200000
00300000
00020000
00030000
,  // measure 48
00002000
00000000
00000000
00000000
00000000
00003000
00001001
00000000
,  // measure 49
00001001
00000000
00000000
00001001
00000000
00000000
00000010
00000000
00000100
00001000
00000000
00000000
,  // measure 50
00010000
00000000
00000000
00010000
00000000
00100000
01000000
00000000
00000000
01000000
00000000
00000000
,  // measure 51
00100000
00000000
00000000
01000000
00000000
00000000
00100000
00000000
00010000
00001000
00000000
00000000
,  // measure 52
00000100
00000000
00000000
00000010
00000000
00000001
00000010
00000000
00000000
00000001
00000000
00000000
,  // measure 53
00000010
00000000
00000000
00000100
00000000
00000000
00001000
00000000
00010000
00100000
00000000
00000000
,  // measure 54
01000000
00000000
00000000
10000000
00000000
00100000
01000000
00000000
00100000
01000000
00000000
00000000
,  // measure 55
00100000
00000000
00000000
00010000
00000000
00000000
00001000
00000000
00000100
00000010
00000000
00000000
,  // measure 56
00000001
00000000
00000010
00000100
00000000
00000000
00001000
00000000
00010000
10100000
00000000
00000000
,  // measure 57
01100000
00000000
00000000
00110000
00000000
00000000
00010000
00000000
00001000
00000100
00000000
00000000
,  // measure 58
00000010
00000000
00000000
00000001
00000000
00000100
00000010
00000000
00000000
00000011
00000000
00000000
,  // measure 59
00001100
00000000
00000000
00110000
00000000
00000000
01000000
00000000
00100000
01000000
00000000
00000000
,  // measure 60
10000000
02000000
03000000
01100000
,  // measure 61
00110000
00000000
00000000
00011000
00000000
00000000
00000100
00000000
00000010
00000100
00000000
00000000
,  // measure 62
00000001
00000000
00000000
00000010
00000000
00000100
00001000
00000000
00000000
00110000
00000000
00000000
,  // measure 63
11000000
00000000
00000000
01100000
00000000
00000000
00100000
00000000
00010000
00001000
00000000
00000000
,  // measure 64
00000100
00000000
00000001
00000100
00000000
00000000
00000010
00000000
00000100
00011000
00000000
00000000
,  // measure 65
01100000
10010000
00000000
00000000
;

//---------------dance-double - Wrland---------------
#NOTEDATA:;
#CHARTNAME:;
#CHARTSTYLE:Pad;
#CREDIT:Wrland;
#STEPSTYPE:dance-double;
#DESCRIPTION:Wrland;
#DIFFICULTY:Medium;
#METER:10;
#METERF:10;
#RADARVALUES:0,0,0,0,0;
#NOTES:
// measure 0
00000000
00000000
00000000
00000000
,  // measure 1
00000000
00000000
00000000
00000000
,  // measure 2
00000000
00000000
00000000
00000000
,  // measure 3
00000000
00000000
00000000
00000000
,  // measure 4
02000000
00000000
00000000
03000000
01000000
00200000
00000000
00300000
,  // measure 5
01000000
00000000
00100000
00000000
00020000
00000000
00000000
00030000
,  // measure 6
00002000
00000000
00000000
00003000
00000100
00000020
00000000
00000030
,  // measure 7
00000001
00000100
00000001
00000100
00000001
00000100
00000101
00000000
,  // measure 8
00001000
00000000
00000000
00000000
00010000
00100000
00010000
00000000
02000000
00000000
03000000
00000000
00100000
01000000
00100000
00000000
,  // measure 9
02000000
03000000
10000000
01000000
00100000
01000000
00100000
01000000
,  // measure 10
00100000
00000000
00000000
00000000
00010000
00001000
00000100
00000000
00000020
00000000
00000030
00000000
00000001
00000010
00000100
00000000
,  // measure 11
00000200
00000300
00000100
00000010
00000001
00000100
00000010
00000100
,  // measure 12
00011000
00000000
00010000
00000000
00100000
00010000
00100000
00010000
,  // measure 13
00200000
00300000
01000000
00000000
00100000
01000000
00100000
01000000
,  // measure 14
20000000
30000000
01000000
00000000
10000000
01000000
00100000
00010000
,  // measure 15
00001100
00000110
00000011
00001100
,  // measure 16
00000100
00002000
00003000
00000100
00002000
00003000
00010000
00000000
,  // measure 17
00100000
00200000
00300000
01000000
02000000
03000000
10000000
00000000
,  // measure 18
01000000
20000000
30000000
01000000
20000000
30000000
01000000
00000000
,  // measure 19
00100000
00010000
00100000
01000000
00200000
00010000
00010000
00010000
,  // measure 20
00310000
00000000
00000000
00000000
00000000
00000000
00001000
00000000
00000000
00000000
00000000
00000000
00000100
00000000
00000000
00000000
00000010
00000000
00000200
00000000
00000000
00000300
00000000
00000000
,  // measure 21
00000001
00000000
00000000
00000000
00000000
00000000
00000010
00000000
00000000
00000000
00000100
00000000
00000020
00000000
00000000
00000030
00000000
00000000
00000100
00000000
00000000
00000000
00000000
00000000
,  // measure 22
00001000
00000000
00000000
00000000
00100000
00000000
00010000
00000000
00000000
00000000
10000000
00000000
02000000
00000000
00000000
03000000
00000000
00000000
00100000
00000000
00000000
00000000
00000000
00000000
,  // measure 23
00020000
00001000
00001000
00001000
00001000
00001000
00001000
00031000
,  // measure 24
00000100
00000000
00000010
00000000
00000100
00000010
00000200
00000300
,  // measure 25
00000010
00000000
00000001
00000010
00000200
00000300
00002000
00003000
,  // measure 26
00011000
00000000
00100000
00000000
01000000
00100000
01000000
10000000
,  // measure 27
02000000
03000000
10000000
01000000
00200000
00300000
00010000
00000000
,  // measure 28
01010000
00000000
00100000
01000000
00100000
10000000
02000000
03000000
,  // measure 29
20000000
30000000
01000000
00100000
00020000
00030000
00002000
00003000
,  // measure 30
00000200
00000000
00000000
00000300
00000000
00000000
00000100
00000000
00000010
00000000
00000100
00000000
00000002
00000000
00000000
00000003
00000000
00000000
00000200
00000000
00000000
00000300
00000000
00000000
,  // measure 31
00001100
00000000
00000000
00001000
00000000
00000100
00001100
00000000
00000000
00011000
00000000
00000000
,  // measure 32
00110000
00000000
00000000
01100000
00000000
00000000
01000000
00000000
10000000
01000000
00000000
00000000
,  // measure 33
01000000
00000000
00000000
00010000
00000000
01000000
00010000
00000000
00000000
01000000
00000000
00000000
,  // measure 34
00100000
00000000
00000000
00010000
00000000
00001000
00000010
00000000
00000000
00000100
00000000
00000010
,  // measure 35
00000100
00000000
00000000
00000001
00000000
00000100
00000011
00000000
00000000
00000110
00000000
00000000
,  // measure 36
00001100
00000000
00000000
00001000
00000000
00010000
00001000
00000000
00000000
00100000
00000000
00000000
,  // measure 37
00010000
00000000
00000000
00100000
00000000
00010000
00100000
00000000
00000000
10000000
00000000
00000000
,  // measure 38
01000000
00000000
00000000
00100000
00000000
01000000
00100000
00000000
00000000
01000000
00000000
10000000
,  // measure 39
01000000
00000000
00000000
01000000
00000000
00100000
00011000
00000000
00000000
00001100
00000000
00000000
,  // measure 40
00000110
00000000
00000000
00000000
00000020
00000030
00000002
00000003
,  // measure 41
00000100
00000001
00000010
00000100
00000020
00000030
00000100
00001000
,  // measure 42
00010000
00000000
01000000
00000000
00020000
00030000
00200000
00300000
,  // measure 43
00100000
10000000
01000000
00100000
02000000
03000000
10000000
01000000
,  // measure 44
00100000
00010000
01000000
00000000
00200000
00300000
00020000
00030000
,  // measure 45
00001000
00001000
00000100
00000010
00000002
00000003
00000010
00001000
,  // measure 46
00000000
00000000
00020000
00000000
00030000
00200000
00000000
00300000
,  // measure 47
01000000
00000000
00100000
00000000
00100000
00000000
01000000
00000000
00010000
01000000
10000000
00010000
00200000
00000000
00300000
00000000
,  // measure 48
00010000
00002000
00000000
00000000
00000000
00000000
00000000
00000000
00000000
00000000
00000000
00000000
00000001
00000000
00000000
00000000
,  // measure 49
00000001
00000000
00000000
00003001
00000000
00000000
00000100
00000000
00000010
00000100
00000000
00000000
,  // measure 50
00001000
00000000
00000000
00010000
00000000
00000000
00100000
00000000
00100000
01000000
00000000
00000000
,  // measure 51
10000000
00000000
00000000
01000000
00000000
00000000
00100000
00000000
00010000
00100000
00000000
00000000
,  // measure 52
00010000
00000000
00000000
00001000
00000000
00000100
00000010
00000000
00000000
00000001
00000000
00000000
,  // measure 53
00000010
00000000
00000000
00000100
00000000
00000000
00001000
00000000
00010000
00100000
00000000
00000000
,  // measure 54
01000000
00000000
00000000
10000000
00000000
00100000
01000000
00000000
00010000
00100000
00000000
00000000
,  // measure 55
00010000
00000000
00000000
00001000
00000000
00000000
00000100
00000000
00001000
00000100
00000000
00000000
,  // measure 56
00000100
00000000
00000010
00000100
00000000
00000000
00000001
00000000
00000100
00000011
00000000
00000000
,  // measure 57
00001100
00000000
00000000
00110000
00000000
00000000
00010000
00000000
00100000
00010000
00000000
00000000
,  // measure 58
10000000
00000000
00000000
01000000
00000000
10000000
01000000
00000000
00000000
01010000
00000000
00000000
,  // measure 59
10100000
00000000
00000000
01010000
00000000
00000000
00001000
00000000
00000100
00000010
00000000
00000000
,  // measure 60
00000001
00000200
00000300
00011000
,  // measure 61
00110000
00000000
00000000
01100000
00000000
00000000
10000000
00000000
01000000
10000000
00000000
00000000
,  // measure 62
01000000
00000000
00000000
00100000
00000000
00010000
00001000
00000000
00000000
00000110
00000000
00000000
,  // measure 63
00001001
00000000
00000000
00000011
00000000
00000000
00000100
00000000
00001000
00010000
00000000
00000000
,  // measure 64
00100000
00000000
10000000
01000000
00000000
00000000
10000000
00000000
01000000
00011000
00000000
00000000
,  // measure 65
00000110
00001010
00000000
00000000
;

//---------------dance-double - Wrland---------------
#NOTEDATA:;
#CHARTNAME:;
#CHARTSTYLE:Pad;
#CREDIT:Wrland;
#STEPSTYPE:dance-double;
#DESCRIPTION:Wrland;
#DIFFICULTY:Hard;
#METER:14;
#METERF:14;
#RADARVALUES:0,0,0,0,0;
#NOTES:
// measure 0
00000000
00000000
00000000
00000000
,  // measure 1
00000000
00000000
00000000
00000000
,  // measure 2
00000000
00000000
00000000
00000000
,  // measure 3
00000000
00000000
00000000
00000000
,  // measure 4
00200000
00000000
00000000
00300000
01000000
00100000
01000000
00100000
,  // measure 5
00020000
00030000
00002000
00003000
00000100
00000010
00000001
00000010
,  // measure 6
00000200
00000300
00002000
00003000
00000100
00000010
00000001
00000001
,  // measure 7
00000100
00000010
00000100
00000000
00000001
00000100
00000010
00000000
00000100
00000001
00000010
00000100
00002000
00000000
00003000
00000000
,  // measure 8
00010000
00000000
00000000
00000000
00100000
00010000
00100000
00000000
00200000
00000000
00300000
00000000
01000000
00100000
01000000
00000000
,  // measure 9
20000000
30000000
01000000
00100000
00010000
01000000
00100000
01000000
,  // measure 10
10000000
00000000
00000000
00000000
01000000
00100000
00010000
00000000
00002000
00000000
00003000
00000000
00000100
00000010
00000001
00000000
,  // measure 11
00000020
00000030
00000100
00000010
00000001
00000010
00000100
00000010
,  // measure 12
00000100
00000000
00000000
00000000
00000100
00001000
00000000
00000000
00010000
00000000
00100000
00000000
01000000
00000000
00100000
00000000
,  // measure 13
20000000
00000000
30000000
00000000
01000000
00100000
00000000
00000000
00010000
00000000
00001000
00000000
00000100
00000000
00000010
00000000
,  // measure 14
00000002
00000000
00000003
00000000
00000010
00000100
00000000
00000000
00001000
00000000
00010000
00000000
00100000
00000000
10000000
00000000
,  // measure 15
01100000
01100000
01100000
00110000
,  // measure 16
00001000
00000100
00000010
00000000
00000001
00000000
00000100
00000010
00000100
00000000
00000010
00000000
00000100
00000000
00001000
00000000
,  // measure 17
00010000
00100000
00010000
00000000
00100000
00000000
01000000
00100000
01000000
00000000
10000000
00000000
01000000
00000000
10000000
00000000
,  // measure 18
01000000
00100000
01000000
00000000
00100000
00000000
00010000
00001000
00010000
00000000
00001000
00000000
00000100
00000000
00000010
00000000
,  // measure 19
00000001
00000100
00000001
00000000
00000100
00000000
00000010
00000100
00000010
00000000
00000200
00000000
00001000
00000000
00001000
00000000
,  // measure 20
00001300
00000000
00000000
00001000
00000000
00010000
00001000
00000000
00010000
00100000
00000000
01000000
,  // measure 21
20000000
00000000
00000000
30000000
00000000
00000000
01000000
00000000
00000000
00000000
10000000
00000000
01000000
00000000
00000000
00000000
01000000
00000000
00100000
00000000
00000000
00000000
01000000
00000000
,  // measure 22
00200000
00300000
01000000
00100000
00000000
00010000
00001000
00000000
00000100
00000010
00000000
00000001
,  // measure 23
00000100
00000001
00000100
00000001
00000100
00000010
00000100
00001000
,  // measure 24
00000100
00000000
00001000
00000000
00010000
00100000
02000000
03000000
,  // measure 25
10000000
00000000
01000000
10000000
02000000
03000000
00200000
00300000
,  // measure 26
00010000
00000000
00001000
00000100
00000020
00000030
00000002
00000003
,  // measure 27
00000020
00000030
00000100
00001000
00020000
00030000
00200000
00300000
,  // measure 28
10000000
00000000
01000000
10000000
01000000
00100000
00020000
00030000
,  // measure 29
02000000
03000000
10000000
01000000
00200000
00300000
00010000
00000000
,  // measure 30
00002000
00003000
00000100
00000010
00000002
00000003
00002000
00003000
,  // measure 31
00000001
00000000
00000000
00001000
00000000
00000010
00001100
00000000
00000000
00011000
00000000
00000000
,  // measure 32
00110000
00000000
00000000
00010000
00000000
01000000
00100000
00000000
00000000
01000000
00000000
00000000
,  // measure 33
10000000
00000000
00000000
01000000
00000000
10000000
01000000
00000000
00000000
00100000
00000000
00000000
,  // measure 34
00010000
00000000
00000000
00001000
00000000
00000100
00000001
00000000
00000000
00000010
00000000
00000100
,  // measure 35
00001000
00000000
00000000
00001000
00000000
00010000
01100000
00000000
00000000
10100000
00000000
00000000
,  // measure 36
01010000
00000000
00000000
01000000
00000000
10000000
01000000
00000000
00000000
00100000
00000000
00000000
,  // measure 37
00010000
00000000
00000000
00001000
00000000
00000100
00000010
00000000
00000000
00000001
00000000
00000000
,  // measure 38
00000010
00000000
00000000
00000100
00000000
00001000
00010000
00000000
00000000
00010000
00000000
00100000
,  // measure 39
01000000
00000000
00000000
10000000
00000000
01000000
10100000
00000000
00000000
11000000
00000000
00000000
,  // measure 40
00110000
00000000
00010000
00001000
,  // measure 41
00010000
00000000
00001000
00010000
00002000
00003000
00000100
00000010
,  // measure 42
00000001
00000000
00000010
00000000
00000200
00000300
00001000
00010000
,  // measure 43
00200000
00300000
10000000
01000000
20000000
30000000
01000000
00100000
,  // measure 44
00010000
00000000
01000000
00000000
10000000
01000000
20000000
30000000
,  // measure 45
02000000
03000000
00100000
01000000
00200000
00300000
00010000
01000000
,  // measure 46
00000000
00000000
00200000
00000000
00300000
00020000
00000000
00030000
,  // measure 47
00002000
00000000
00003000
00000200
00000000
00000300
00000020
00000000
,  // measure 48
00000000
00000000
00000000
00000100
,  // measure 49
00000100
00000000
00000000
00000130
00000000
00000000
00000100
00000000
00001000
00000100
00000000
00000000
,  // measure 50
00001000
00000000
00000000
00010000
00000000
00100000
00010000
00000000
00100000
10010000
00000000
00000000
,  // measure 51
11000000
00000000
00000000
01100000
00000000
00000000
01000000
00000000
00100000
00010000
00000000
00000000
,  // measure 52
00001000
00000000
00000000
00000100
00000000
00001000
00000100
00000000
00000100
00000011
00000000
00000000
,  // measure 53
00001001
00000000
00000000
00000011
00000000
00000000
00000100
00000000
00001000
00010000
00000000
00000000
,  // measure 54
00100000
00000000
00000000
10000000
00000000
01000000
10000000
00000000
01000000
00110000
00000000
00000000
,  // measure 55
01010000
00000000
00000000
00110000
00000000
00000000
00001000
00000000
00000010
00000001
00000000
00000000
,  // measure 56
00000001
00000000
00000010
00000100
00000000
00000000
00000100
00000000
00001000
00110000
00000000
00000000
,  // measure 57
00110000
00000000
00000000
11000000
00000000
00000000
01000000
00000000
10000000
01000000
00000000
00000000
,  // measure 58
00100000
00000000
00000000
00010000
00000000
00001000
00000100
00000000
00000000
00001001
00000000
00000000
,  // measure 59
00000011
00000000
00000000
00001100
00000000
00000000
00001000
00000000
00001000
00010000
00000000
00000000
,  // measure 60
00010000
00200000
00300000
11000000
,  // measure 61
01100000
00000000
00000000
00110000
00000000
00000000
00010000
00000000
00001000
00000100
00000000
00000000
,  // measure 62
00000010
00000000
00000000
00000001
00000000
00000010
00001000
00000000
00000000
00110000
00000000
00000000
,  // measure 63
10100000
00000000
00000000
01010000
00000000
00000000
10000000
00000000
01000000
10000000
00000000
00000000
,  // measure 64
01000000
00000000
00100000
01000000
00000000
00000000
00100000
00000000
00010000
00001100
00000000
00000000
,  // measure 65
00000110
00000011
00000000
00000000
;
