#TITLE:Free;
#SUBTITLE:;
#ARTIST:RUMI & JINU;
#TITLETRANSLIT:;
#SUBTITLETRANSLIT:;
#ARTISTTRANSLIT:;
#GENRE:K-POP DEMON HUNTERS;
#CREDIT:Sony & Netflix & Republic;
#MUSIC:Free.ogg;
#BANNER:Free.png;
#BACKGROUND:BG.png;
#LYRICSPATH:Free.lrc;
#CDTITLE:K-POP DEMON HUNTERS.png;
#SAMPLESTART:56.877;
#SAMPLELENGTH:15.000;
#SELECTABLE:YES;
#OFFSET:0.000;
#BPMS:0.000=140.000
,95.000=70.000
,97.750=140.000
;
#STOPS:;
#DISPLAYBPM:140.000;
#JACKET:Free-jacket.png;
#DISCIMAGE:;
#CDIMAGE:;
#TAGS:DMCA;
#BGCHANGES:0.000=Free.avi=0.000=0=0=0=StretchNoLoop====,
99999=-nosongbg-=1.000=0=0=0 // don't automatically add -songbackground-
;
#FGCHANGES:;

//--------------- dance-single - Wrland ----------------
#NOTES:
     dance-single:
     Wrland:
     Beginner:
     3:
     0,0,0,0,0:
0000
0000
0000
0000
,
0000
0000
0000
0000
,
0000
0000
0000
0000
,
0000
0000
0000
0000
,
0000
0000
0000
0000
,
0000
0000
0000
0000
,
0000
0000
0000
0000
,
0000
0000
0000
0000
,
0200
0000
0000
0000
,
0300
0000
0000
0000
,
0002
0000
0000
0000
,
0003
0000
0000
0000
,
0200
0000
0000
0000
,
0300
0000
0000
0000
,
2000
0000
0000
0000
,
3000
0000
0000
0000
,
0002
0000
0000
0000
,
0000
0000
0000
0003
0000
0000
0000
0000
0000
0000
0000
0000
0000
0000
0000
0000
,
0000
0200
0000
0000
0000
0000
0000
0000
,
0000
0000
0000
0000
0000
0300
0000
0000
0000
0000
0000
0000
0000
0000
0000
0000
,
0000
0000
0000
0002
0000
0000
0000
0000
,
0000
0000
0003
0000
,
0000
0000
0200
0000
,
0000
0000
0000
0000
,
0300
0000
0000
0000
,
0010
0000
0010
0000
,
0100
0000
0100
0000
,
0100
0000
0010
0000
,
0001
0000
0000
0000
,
0010
0000
0010
0000
,
0100
0000
0001
0000
,
0100
0000
0100
0000
,
0100
0000
0010
0000
,
0001
0000
0001
0000
,
1000
0000
1000
0000
,
0100
0000
0100
0000
,
0010
0000
0010
0000
,
0001
0000
0010
0000
,
0100
0000
1000
0000
,
0100
0000
0001
0000
,
0100
0000
0010
0000
,
0100
0000
0000
0000
,
0010
0000
0000
0000
,
0100
0000
0000
0000
,
1000
0000
0000
0000
,
0100
0000
0100
0000
,
0001
0000
0001
0000
,
0100
0000
0100
0000
,
1000
0000
0010
0000
,
0001
0000
0000
0000
,
1000
0000
0000
0000
,
0100
0000
0000
0000
,
0010
0000
0000
0000
,
0001
0000
0010
0000
,
0100
0000
0100
0000
,
0100
0000
0001
0000
,
0100
0000
0100
0000
,
0200
0000
0000
0000
,
0000
0000
0300
0000
,
0020
0000
0000
0000
,
0000
0000
0030
0000
,
0002
0000
0000
0000
,
0000
0000
0003
0000
,
2000
0000
0000
0000
,
0000
0000
3000
0000
;

//--------------- dance-single - Wrland ----------------
#NOTES:
     dance-single:
     Wrland:
     Easy:
     6:
     0,0,0,0,0:
0000
0000
0000
0000
,
0000
0000
0000
0000
,
0000
0000
0000
0000
,
0000
0000
0000
0000
,
0000
0000
0000
0000
,
0000
0000
0000
0000
,
0000
0000
0000
0000
,
0000
0000
0000
0000
,
0200
0000
0000
0000
,
0310
0000
0000
0000
,
0002
0000
0000
0000
,
1003
0000
0000
0000
,
0200
0000
0000
0000
,
1300
0000
0000
0000
,
0200
0000
0000
0000
,
0310
0000
0000
0000
,
0002
0000
0000
0000
,
0000
0000
0000
1003
0000
0000
0000
0000
0000
0000
0000
0000
0000
0000
0000
0000
,
0000
0200
0000
0000
0000
0000
0000
0000
,
0000
0000
0000
0000
0000
0310
0000
0000
0000
0000
0000
0000
0000
0000
0000
0000
,
0000
0000
0000
0002
0000
0000
0000
0000
,
0000
0000
1003
0000
,
0000
0000
0200
0000
,
0000
0000
0000
0000
,
0300
0000
0000
0000
,
0010
0100
0010
0001
,
0100
0010
0100
1000
,
0100
1000
0100
0010
,
0001
0100
0000
0000
,
0010
0100
0010
0001
,
0100
0010
0000
0000
,
0100
1000
0100
1000
,
0100
0010
0000
0000
,
0001
1000
0001
0000
,
1000
0001
1000
0000
,
0100
1000
0100
0000
,
0010
0100
0010
0000
,
0001
0100
0010
0000
,
0100
1000
0100
0000
,
0100
0010
0001
0000
,
0100
1000
0100
0000
,
0100
0000
0100
0000
,
0010
0000
0001
0000
,
0100
0000
0100
0000
,
1000
0000
0100
0000
,
0100
0010
0100
0000
,
0001
0100
0001
0000
,
0100
1000
0100
0000
,
1000
0100
0010
0000
,
0001
0000
0001
0000
,
1000
0000
1000
0000
,
0100
0000
0100
0000
,
0010
0000
0010
0000
,
0001
0100
0010
0000
,
0100
1000
0100
0000
,
0100
0010
0001
0000
,
0100
0010
0100
0000
,
0200
0000
0000
0000
,
0000
0000
0300
0000
,
0020
0000
0000
0000
,
0000
0000
0030
0000
,
0002
0000
0000
0000
,
0000
0000
0003
0000
,
2000
0000
0000
0000
,
0000
0000
3000
0000
;

//--------------- dance-single - Wrland ----------------
#NOTES:
     dance-single:
     Wrland:
     Medium:
     11:
     0,0,0,0,0:
0000
0000
0000
0000
,
0000
0000
0000
0000
,
0000
0000
0000
0000
,
0000
0000
0000
0000
,
0000
0000
0000
0000
,
0000
0000
0000
0000
,
0000
0000
0000
0000
,
0000
0000
0000
0000
,
2000
0000
0000
0000
,
0100
0010
0001
0000
3000
0000
0000
0000
,
0002
0000
0000
0000
0000
0000
0000
1000
,
0000
0100
1000
0000
0000
0000
0003
0000
,
0200
0000
0000
0000
0000
0000
0000
0000
0010
0000
0000
0001
0001
0000
0010
0000
,
0010
0000
0000
0300
,
0002
0000
0000
0000
0000
0000
0000
1000
,
0100
1000
0100
0000
1000
0000
0103
0000
,
2000
0000
0000
0000
,
0000
0000
0000
0100
0000
0000
0010
0000
0000
0001
0000
0000
3000
0000
0000
0000
,
0000
0002
0000
0000
0000
0000
0000
0000
,
0000
0000
0000
0000
0000
1000
0000
0000
0100
0000
0000
1000
0000
0000
0003
0000
,
0000
0200
0000
0000
,
0000
0000
0000
0000
0000
0000
0000
0000
0010
0000
0000
0001
0000
0000
0010
0000
,
0300
0000
0020
0000
,
1000
0000
0100
0000
0000
1000
0000
0000
0100
0000
0000
1000
0000
0000
0000
0000
,
0000
0000
0030
0000
0000
0000
0000
0100
,
0000
0010
0000
0000
0001
0010
0100
0100
,
1000
0010
0001
0000
0100
0010
0010
0001
,
0000
0100
0000
0000
1000
0010
0100
0010
,
1000
0100
1000
0000
0010
0000
0001
0010
,
0100
0000
0001
0100
0001
0000
0010
0100
,
0100
0000
0010
0001
0100
0000
0010
0100
,
1000
0000
0100
0001
0010
0000
1000
0100
,
1000
0000
0010
0000
0100
0010
0100
0000
,
0000
1000
0001
1000
0002
0003
2000
3000
,
0002
0003
2000
0000
3000
0100
0010
0100
,
0020
0030
0001
0200
0300
0010
0200
0300
,
0010
0000
0100
0010
0001
0000
1000
0100
,
0001
0000
0000
0001
0000
0000
0100
0000
0010
0000
0000
0100
0000
0000
1000
0000
,
0100
0000
0020
0000
0030
0000
0010
0001
,
0200
0300
0010
0100
0020
0030
0001
0010
,
0200
0300
0010
0000
1000
0010
0100
0001
,
0200
0000
0000
0300
0020
0000
0000
0030
,
0200
0000
0000
0300
1000
0000
0100
1000
,
0200
0000
0000
0300
0020
0000
0000
0030
,
0002
0000
0000
0003
0200
0300
0010
0100
,
1000
0010
0100
1000
0020
0030
0001
0020
,
0030
0001
0200
0300
0100
0001
0010
0010
,
0200
0300
1000
0020
0030
1000
0200
0300
,
0010
0000
0100
0001
0010
0000
0001
0100
,
0020
0000
0000
0030
0200
0000
0000
0300
,
2000
0000
0000
3000
0200
0300
1000
0100
,
0020
0000
0000
0030
0002
0000
0000
0003
,
0200
0000
0000
0300
0020
0030
0001
0010
,
0100
1000
0100
0010
0200
0300
0001
0020
,
0030
0100
0200
0300
1000
0010
0100
0001
,
0020
0030
0001
0020
0030
0100
0020
0030
,
0010
0000
0100
0001
1000
0000
0100
0000
,
2000
0000
0000
0000
,
0100
0010
3000
0000
,
0002
0000
0000
0000
,
1000
0100
0003
0000
,
2000
0000
0000
0000
,
0001
0000
3000
0000
,
0200
0000
0000
0000
,
0010
0000
0300
0000
;

//--------------- dance-single - Wrland ----------------
#NOTES:
     dance-single:
     Wrland:
     Hard:
     13:
     0,0,0,0,0:
0000
0000
0000
0000
,
0000
0000
0000
0000
,
0000
0000
0000
0000
,
0000
0000
0000
0000
,
2000
0000
0000
0000
,
0000
0000
0000
0000
,
3002
0000
0000
0000
,
0000
0000
0000
0000
,
0103
0000
0100
0010
0200
0000
0000
0300
,
0001
0200
0000
0300
,
1000
0000
0100
1000
0200
0000
0300
0000
,
0100
0000
0002
0000
0003
0000
0100
0010
,
0100
0000
0010
0001
,
0200
0000
0300
0000
,
0010
0000
0001
0100
0002
0000
0003
0100
,
0010
0200
0000
0310
,
0000
0000
0100
0000
0000
1000
0000
0000
0200
0000
0000
0000
0000
0000
0300
0000
,
0000
0000
0000
0010
0000
0000
0001
0000
0000
0200
0000
0000
0000
0000
0000
0300
,
0000
0000
0000
0000
0000
0010
0000
0000
0100
0000
0000
0020
0000
0000
0000
0000
,
0000
0000
0030
0000
0000
0001
0000
0000
0100
0000
0000
0002
0000
0000
0000
0000
,
0003
0000
0000
0000
0000
0000
0010
0000
0000
0001
0000
0000
0200
0000
0000
0000
,
0000
0000
0000
0000
0300
0000
0000
0000
0010
0000
0000
0100
0000
0000
0020
0000
,
0000
0000
0000
0030
0002
0000
0000
0000
,
0000
0000
2000
0000
,
0000
0000
0000
3003
0000
0000
0000
0002
,
0000
0003
0200
0000
0000
0000
0300
0000
0010
0000
1000
0000
0100
0000
0001
0000
,
0010
0100
0002
0003
0100
0001
0010
0002
,
0000
0003
0200
0000
0000
0300
0000
0000
1000
0000
0010
0000
0100
0000
0010
0000
,
1000
0001
0200
0300
0010
0000
0001
0010
,
0200
0000
0300
0020
0000
0030
0001
0000
0200
0000
0300
0020
0000
0030
0001
0000
,
0200
0000
0000
0300
1000
0000
0000
0000
0100
0000
0010
0000
1000
0000
0100
0000
,
2000
0000
3000
0200
0000
0300
0010
0000
0002
0000
0003
0200
0000
0300
0010
0000
,
0200
0000
0000
0300
0010
0000
0000
0000
0200
0000
0001
0000
0310
0000
0000
0000
,
0200
0010
0001
0010
0001
0000
0010
0001
,
0000
0010
1000
0000
0000
0320
1000
0100
,
1000
0000
0100
0032
0000
0010
0203
0000
,
0010
0000
0001
0010
1300
0000
0010
0100
,
0002
0003
0000
0002
0000
0003
0100
0000
0020
0000
0030
0200
0000
0300
1000
0000
,
0200
0300
0010
0000
0100
0001
0010
0001
,
0200
0300
0010
0100
0020
0030
0001
1000
,
0200
0000
0300
0000
0010
0000
0100
0000
1000
0010
0001
0000
0100
0000
0001
0000
,
0010
0000
0001
0100
0002
0000
0010
0010
,
0203
0000
1000
1000
2300
0000
0100
0100
,
3200
0000
0010
0010
0320
0000
0001
0100
,
0032
0000
0010
0010
0203
0000
1000
1000
,
1300
0010
0100
1000
0020
0030
0001
0020
,
0030
0001
0200
0300
0100
0010
0010
0100
,
0020
0030
1000
0020
0030
1000
0200
0300
,
0010
0001
0000
0000
0100
1000
0000
0000
0110
0000
0000
0000
0001
0000
0100
0000
,
0001
0010
0100
0010
0200
0000
0010
0001
,
2300
0000
0010
0100
3020
0000
0100
1000
,
0032
0000
0100
1000
0203
0000
0010
0010
,
0302
0000
0100
1000
0023
0000
0001
1000
,
0130
0100
0010
0100
0010
0000
0001
0010
,
0000
0100
0100
0000
1000
0001
0100
0010
,
0100
0000
0001
0010
0000
0100
0010
0000
,
0010
0001
0000
0000
0100
0010
0000
0000
1000
0010
0000
0000
0101
0000
0000
0000
,
0010
0000
0100
0010
0200
0000
0300
0000
,
1000
0200
0000
0300
,
1000
0001
2000
3000
,
0100
2000
3000
0000
,
0200
0000
0010
0000
,
0001
0010
0300
0000
,
0002
0000
0100
0000
,
1000
0000
0000
0100
0003
0000
0000
0000
;

//--------------- dance-single - Wrland ----------------
#NOTES:
     dance-single:
     Wrland:
     Challenge:
     16:
     0,0,0,0,0:
0000
0000
0000
0000
,
0000
0000
0000
0000
,
0000
0000
0000
0000
,
0000
0000
0000
0000
,
2000
0000
0000
0000
,
0000
0000
0000
0000
,
3002
0000
0000
0000
,
0000
0000
0000
0000
,
0003
0010
0100
0010
0200
0000
0300
0001
,
0100
0001
0200
0000
0310
0000
0000
0000
,
0100
1000
0100
1000
0200
0000
0300
1000
,
0000
0000
0010
0000
0200
0000
0300
0000
0010
0000
0001
0000
0010
0001
0000
0000
,
0020
0000
0030
0000
0100
0000
0010
0000
0002
0000
0003
0010
0100
0000
0010
0000
,
0200
0310
0000
0000
,
0010
0001
0100
0010
0200
0000
0300
1000
,
0000
1000
0100
0001
0200
0000
0310
0000
,
0001
0000
0200
0000
0300
0010
0001
0000
0200
0000
0000
0300
0010
0000
0001
0000
,
0000
0000
0000
0002
0000
0003
0200
0000
0300
0020
0000
0000
0030
0000
0100
0000
,
1000
0000
0000
0000
0200
0000
0300
2000
0000
3000
0200
0000
0300
0000
0010
0000
,
0100
0000
0000
0000
0000
0002
0000
0003
0200
0000
0300
0020
0000
0000
0030
0000
,
0100
0000
0001
0000
0000
0000
0001
0000
0000
0100
0001
0000
0020
0000
0030
0000
,
0100
0000
0010
0000
0000
0000
0000
0000
0100
0000
0000
0010
0001
0000
0020
0000
,
0000
0000
0030
0000
0000
0100
1000
0100
0020
0000
0000
0000
0000
0000
0030
0000
,
0100
0010
0200
0000
0300
0010
0000
0000
0001
0000
0000
0200
0000
0000
0000
0000
,
0000
0000
0000
0000
0310
0001
0010
0002
,
0000
0003
0020
0000
0000
0030
0000
0000
0010
0000
0001
0000
0100
0010
0001
0000
,
0010
0100
0002
0003
0100
0001
0010
0002
,
0000
0003
0200
0000
0000
0300
0000
0000
1000
0000
0010
0000
0100
0010
0001
0000
,
1000
0000
0010
0000
0200
0000
0300
0000
0010
1000
0100
0001
0001
0000
1000
0000
,
0100
0000
0001
0010
0000
0100
0100
0000
0010
0000
0100
0001
0000
0100
0010
0000
,
0200
0000
0000
0000
1300
0000
0000
0000
0100
0000
0010
0100
1000
0000
0100
0000
,
1000
0000
0001
0010
0000
0000
0001
0000
0100
0000
0001
0010
0000
0000
1000
0000
,
0100
0010
0001
0010
0001
0000
0000
0000
0100
0001
0001
0010
0200
0000
0000
0000
,
0320
0031
0200
1300
0200
0000
0310
0002
,
0013
0020
0230
0310
2000
3001
2000
3001
,
0002
0000
2003
3020
0000
0230
0302
0023
,
0130
0000
1000
0000
0010
0001
0100
0000
0100
1000
0010
0000
0010
0000
0100
0000
,
0001
0000
0100
0001
0000
0010
0100
0000
0010
0000
0001
0100
0000
0010
1000
0000
,
0100
1000
0010
0001
0020
0000
1000
0000
0130
0000
1000
0000
0010
0100
0001
0000
,
0200
0000
0000
0000
0310
0001
0100
0010
0020
0000
0000
0000
0031
0010
0100
0010
,
0100
0000
0001
0000
0010
0000
0100
0010
2000
3000
0100
0010
0200
0300
0001
1000
,
0020
0130
0002
0103
0002
0000
0010
1000
,
0203
0000
1000
0001
2300
0000
0100
0010
,
3200
0000
0001
0010
0320
0000
1000
0100
,
0032
0000
0010
0100
0023
0000
1000
0100
,
1030
0000
0001
0010
0100
0000
1000
0001
0020
0000
0030
0000
0001
0000
0010
0001
,
0100
0000
0001
1000
0100
0000
0010
0000
0100
0000
0001
0010
0001
0000
0001
0010
,
0100
0000
0010
0000
1000
0000
0010
0000
0100
0010
1000
0000
0100
0010
0001
0000
,
0010
0000
0100
0000
0100
0000
0001
0000
0010
0001
0100
0000
0001
0010
0100
0000
,
0002
1003
0200
0310
0200
0000
0010
0001
,
2300
0000
0010
0100
3002
0000
0100
0100
,
2003
0000
0010
0001
3200
0000
1000
0010
,
0302
0000
0100
1000
0023
0000
0001
1000
,
0130
0000
0010
0001
0010
0000
0010
0100
0010
0000
0000
0000
0001
0000
0010
0001
,
0100
0000
1000
0010
0100
0000
0010
0000
1000
0000
1000
0010
0100
0000
0001
0100
,
0010
0000
1000
0000
0001
0100
0010
0000
0001
0000
0100
0001
0010
0000
0100
0000
,
0010
0001
0000
0000
0100
0010
0000
0000
1000
0010
0000
0000
0110
0000
0000
0000
,
0000
0010
0100
0010
0200
0000
0300
0001
,
0100
0001
0200
0000
0310
0000
0000
0000
,
0100
1000
0100
1000
0200
0000
0300
0010
,
0100
0010
0002
0000
0103
0000
0001
0100
,
0002
0000
0003
0100
0000
0000
0010
0000
0002
0000
0003
0100
0000
0000
0010
0000
,
0200
0000
1300
0000
0000
0000
0100
1000
,
0200
0000
0300
1000
0000
0000
0100
0000
0020
0000
0030
0001
0000
0000
1000
0000
,
0002
0000
0000
1003
0000
0000
0000
0000
;

//--------------- dance-double - Wrland ----------------
#NOTES:
     dance-double:
     Wrland:
     Easy:
     6:
     0,0,0,0,0:
00000000
00000000
00000000
00000000
,
00000000
00000000
00000000
00000000
,
00000000
00000000
00000000
00000000
,
00000000
00000000
00000000
00000000
,
00000000
00000000
00000000
00000000
,
00000000
00000000
00000000
00000000
,
00000000
00000000
00000000
00000000
,
00000000
00000000
00000000
00000000
,
02000000
00000000
00000000
00000000
,
00000000
00000000
03000000
00000000
,
00200000
00000000
00000000
00000000
,
00000000
00000000
00300000
00000000
,
00020000
00000000
00000000
00000000
,
00000000
00000000
00030000
00000000
,
00002000
00000000
00000000
00000000
,
00000000
00000000
00003000
00000000
,
00000200
00000000
00000000
00000000
,
00000000
00000000
00000300
00000000
,
00000000
00000020
00000000
00000000
00000000
00000000
00000000
00000000
,
00000000
00000000
00000000
00000000
,
00000030
00000000
00000000
00000002
00000000
00000000
00000000
00000000
,
00000000
00000000
00000000
00000000
,
00000003
00000000
00002000
00000000
,
00000000
00000000
00000000
00000000
,
00000000
00003000
00000000
00000000
,
00001000
00010000
00001000
00010000
,
00100000
00000000
01000000
00000000
10000000
00000000
01000000
10000000
,
00000000
01000000
00000000
00000000
10000000
00000000
01000000
00000000
,
00100000
01000000
00000000
00100000
,
00010000
00001000
00000100
00000010
,
00000001
00000100
00000000
00000010
,
00000100
00001000
00010000
00100000
,
01000000
10000000
00000000
00000000
,
01000000
00100000
01000000
00000000
,
00100000
00010000
00001000
00000000
,
00000100
00000010
00000001
00000000
,
00000100
00001000
00010000
00000000
,
00100000
00010000
00100000
00000000
,
00010000
00001000
00000100
00000000
,
00000010
00000001
00000100
00000000
,
00001000
00010000
00100000
00000000
,
10000000
00000000
01000000
00000000
,
00100000
00000000
00010000
00000000
,
00001000
00000000
00000100
00000000
,
00001000
00000000
00010000
00000000
,
00100000
00000000
01000000
00000000
00100000
00000000
00010000
01000000
,
00000000
00100000
01000000
10000000
,
01000000
00000000
00100000
00010000
00000000
00001000
00000100
00000000
,
00000010
00000000
00000100
00001000
,
00000100
00000000
00000010
00000000
,
00000100
00000000
00001000
00000000
,
00010000
00000000
00100000
00000000
,
01000000
00000000
10000000
00000000
,
01000000
00000000
10000000
00000000
01000000
00000000
00100000
01000000
,
00000000
00010000
01000000
00000000
00000000
00000000
00100000
00000000
,
01000000
00000000
00100000
00010000
00000000
00001000
00000100
00000000
,
00000010
00000001
00000100
00000000
,
00000020
00000000
00000000
00000000
,
00000000
00000000
00000030
00000000
,
00000200
00000000
00000000
00000000
,
00000000
00000000
00000300
00000000
,
00002000
00000000
00000000
00000000
,
00000000
00000000
00003000
00000000
,
00020000
00000000
00000000
00000000
,
00000000
00000000
00030000
00000000
;

//--------------- dance-double - Wrland ----------------
#NOTES:
     dance-double:
     Wrland:
     Medium:
     11:
     0,0,0,0,0:
00000000
00000000
00000000
00000000
,
00000000
00000000
00000000
00000000
,
00000000
00000000
00000000
00000000
,
00000000
00000000
00000000
00000000
,
00000000
00000000
00000000
00000000
,
00000000
00000000
00000000
00000000
,
00000000
00000000
00000000
00000000
,
00000000
00000000
00000000
00000000
,
00020000
00000000
00000000
00000000
00000000
00000000
00000000
00030000
,
02000000
00000000
00000000
00000000
00000000
00000000
00000000
03000000
,
00200000
00000000
00000000
00000000
00000000
00000000
00000000
00300000
,
00020000
00000000
00000000
00000000
00000000
00000000
00000000
00030000
,
00002000
00000000
00000000
00000000
00000000
00000000
00000000
00003000
,
00000200
00000000
00000000
00000000
00000000
00000000
00000000
00000300
,
00000020
00000000
00000000
00000000
00000000
00000000
00000000
00000030
,
00000002
00000000
00000000
00000000
00000000
00000000
00000000
00000003
,
00000020
00000000
00000000
00000000
,
00000000
00000000
00000030
00002000
00000000
00000000
00000000
00000000
00000000
00000000
00000000
00000000
00000000
00000000
00000000
00000000
,
00000000
00003000
00020000
00000000
00000000
00000000
00000000
00000000
00000000
00000000
00000000
00000000
00000000
00000000
00000000
00000000
,
00000000
00000000
00000000
00030000
00000000
00200000
00000000
00000000
00000000
00000000
00000000
00000000
00000000
00000000
00000000
00000000
,
00000000
00000000
00000000
00000000
00000000
00300000
00020000
00000000
00000000
00000000
00000000
00000000
00000000
00000000
00000000
00000000
,
00000000
00000000
00000000
00000000
00000000
00000000
00000000
00030000
00002000
00000000
00000000
00000000
00000000
00000000
00000000
00000000
,
00000000
00000000
00000000
00003000
00000200
00000000
00000000
00000000
,
00000000
00000000
00000000
00000300
00000002
00000000
00000000
00000000
,
00000000
00000000
00000000
00000003
00001000
00000100
00001000
00020000
,
00030000
00200000
00300000
01000000
10000000
00000000
01000000
00000000
,
10000000
01000000
00100000
00000000
01000000
00100000
00010000
00002000
,
00003000
00000200
00000300
00000000
00000010
00000001
00000010
00000100
,
00000010
00000001
00000100
00000000
00000010
00000000
00000100
00001000
,
00010000
00000000
00000000
00100000
00000000
00000000
01000000
00000000
10000000
00000000
00000000
01000000
00000000
00000000
00100000
00000000
,
00020000
00030000
01000000
00000000
00100000
00000000
00010000
00001000
,
00000100
00000000
00000000
00000010
00000000
00000000
00000001
00000000
00000100
00000000
00000000
00000010
00000000
00000000
00000100
00000000
,
00002000
00003000
00010000
00000000
00100000
10000000
01000000
00000000
,
00000000
01000000
00100000
00010000
00002000
00003000
00000100
00002000
,
00003000
00000100
00002000
00003000
00000100
00000010
00000001
00000100
,
00000020
00000030
00000010
00000200
00000300
00001000
00020000
00030000
,
00100000
00000000
01000000
10000000
01000000
00000000
00100000
01000000
,
00100000
00000000
00000000
01000000
00000000
00000000
00100000
00000000
01000000
00000000
00000000
00100000
00000000
00000000
00010000
00000000
,
02000000
03000000
00100000
00000000
00010000
00000000
00001000
00001000
,
00000200
00000300
00000010
00000100
00000002
00000003
00000010
00000100
,
00000020
00000030
00000001
00000000
00000010
00000100
00001000
00010000
,
00100000
00000000
01000000
00000000
00200000
00300000
01000000
00100000
,
02000000
03000000
10000000
00000000
02000000
03000000
10000000
01000000
,
20000000
30000000
01000000
00000000
00200000
00300000
00010000
01000000
,
00020000
00030000
01000000
00000000
00200000
00300000
00010000
00000000
,
00001000
00000100
00000010
00000001
00000020
00000030
00000100
00002000
,
00003000
00010000
00200000
00300000
01000000
00100000
01000000
10000000
,
02000000
03000000
00100000
02000000
03000000
00100000
02000000
03000000
,
00100000
00000000
00010000
00001000
00000100
00000000
00000010
00000000
,
00000001
00000000
00000010
00000100
00000020
00000030
00000100
00000000
,
00002000
00003000
00010000
00100000
02000000
03000000
10000000
00000000
,
02000000
03000000
00100000
00010000
00002000
00003000
00000100
00000000
,
00000020
00000030
00000001
00000010
00000200
00000300
00001000
00000000
,
00010000
00100000
01000000
10000000
02000000
03000000
00100000
01000000
,
00000000
00100000
02000000
03000000
00100000
00010000
00001000
00000100
,
00000020
00000030
00000001
00000020
00000030
00000100
00002000
00003000
,
00010000
00100000
00000000
00000000
10000000
01000000
00000000
00000000
00100000
01000000
00000000
00000000
01100000
00000000
00000000
00000000
,
00200000
00000000
00000000
00300000
,
00020000
00000000
00000000
00030000
,
00002000
00000000
00000000
00003000
,
00000200
00000000
00000000
00000300
,
00000020
00000000
00000000
00000030
,
00000002
00000000
00000000
00000003
,
00000200
00000000
00000000
00000300
,
00002000
00000000
00000000
00003000
;

//--------------- dance-double - Wrland ----------------
#NOTES:
     dance-double:
     Wrland:
     Hard:
     14:
     0,0,0,0,0:
00000000
00000000
00000000
00000000
,
00000000
00000000
00000000
00000000
,
00000000
00000000
00000000
00000000
,
00000000
00000000
00000000
00000000
,
00000000
00000000
00000000
00000000
,
00000000
00000000
00000000
00000000
,
00000000
00000000
00000000
00000000
,
00000000
00000000
00000000
00000000
,
02000000
00000000
00100000
00010000
00100000
00000000
00000000
00000000
,
00010000
00100000
00000000
00000000
,
03020000
00000000
00001000
00000100
00001000
00000000
00000000
00000100
,
00000000
00001000
00000100
00000000
00000000
00001000
00000100
00000000
,
00032000
00000000
00000000
00000000
00000000
00000000
00000000
00000000
00000100
00000000
00000000
00000001
00000010
00000000
00000010
00000000
,
00000001
00000000
00000000
00000000
,
00003200
00000000
00001000
00010000
00001000
00000000
00000000
00010000
,
00000000
00001000
00010000
00000000
00001000
00000000
00010000
00000000
,
00200300
00000000
00000000
01000000
00000000
00000000
10000000
00000000
00000000
01000000
00000000
00000000
00000000
10000000
00000000
01000000
,
00000000
00000000
00000000
10000000
00000000
00000000
01000000
00000000
00000000
10000000
00000000
00000000
00000000
01000000
00000000
00000000
,
00320000
00000000
00000000
00000000
00001000
00000000
00000000
00000100
00000000
00000000
00001000
00000000
00000000
00000000
00000000
00000100
,
00000000
00001000
00000000
00000000
00000000
00000100
00000000
00000000
00001000
00000000
00000000
00000100
00000000
00000000
00000000
00000000
,
00001000
00000000
00000100
00000000
00030000
00000000
00000020
00000000
00000000
00000100
00000000
00000000
00001000
00000000
00000000
00000000
,
00000100
00000000
00001000
00000000
00000000
00000000
00000000
00000000
00000100
00000000
00000000
00000100
00001000
00000000
00001000
00000000
,
00000000
00000000
00000000
00000000
00000000
00000100
00001000
00000100
00002030
00000000
00000000
00000000
00000000
00000000
00000000
00000000
,
00000100
00000010
00000100
00000000
00000000
00000010
00000000
00000000
00000001
00000000
00000000
00000100
00000000
00000000
00000000
00000000
,
00000000
00000000
00003000
00000000
00010000
00100000
01000000
20000000
,
00000000
30000000
02000000
00000000
00000000
00000000
03000000
00000000
10000000
00000000
01000000
00000000
10000000
00000000
01000000
00000000
,
00100000
00000000
00010000
00000000
00002000
00000000
00000000
00003000
00000100
00000000
00000010
00000000
00000001
00000000
00000020
00000000
,
00000030
00000200
00000000
00000300
00001000
00000100
00001000
00010000
,
00100000
00000000
01000000
00000000
00200000
00000000
00300000
00000000
01000000
00100000
00010000
00000000
01000000
00000000
00100000
00000000
,
02000000
00000000
03000000
10000000
00000000
00000000
01000000
00000000
00200000
00000000
00300000
00010000
00000000
00000000
00001000
00000000
,
00000200
00000000
00000310
00000000
00000100
00000010
00000001
00000100
,
00000002
00000000
00000003
00000100
00000000
00000000
00000010
00000000
00000200
00000000
00000300
00001000
00000000
00000000
00010000
00000000
,
00200000
00000000
00300000
00000000
01000000
00000000
00000000
00000000
01000000
00100000
01000000
00000000
00200000
00000000
00300000
00000000
,
00010000
00001000
00000100
00000010
00000002
00000003
00000100
00000002
,
00000003
00000000
00000100
00000000
00000020
00000000
00000000
00000030
00000100
00000000
00001000
00000000
00010000
00000000
00100000
00000000
,
02000000
03000000
10000000
02000000
03000000
00100000
02000000
03000000
,
00100000
00000000
01000000
00000000
00100000
01000000
00100000
00000000
00020000
00000000
00030000
00000000
00001000
00000000
00010000
00000000
,
00002000
00000000
00003000
00010000
00000000
00000000
00001000
00000000
00000200
00000000
00000300
00000010
00000000
00000000
00000001
00000000
,
00000200
00000000
00000300
00000000
00000010
00000000
00000100
00000000
00000010
00000100
00000010
00000000
00000100
00000000
00001000
00000000
,
00020000
00030000
00100000
01000000
20000000
30000000
01000000
10000000
,
02000000
00000000
03000000
00000000
00100000
00000000
00000000
00000000
01000000
00100000
01000000
00000000
00100000
00000000
00010000
00000000
,
00002000
00003000
00000100
00001000
00000200
00000300
00000010
00000100
,
00000020
00000000
00000030
00000000
00000001
00000000
00000100
00000000
00000001
00000100
00000001
00000000
00000100
00000000
00000010
00000000
,
00000200
00000000
00000300
00000000
00001000
00000000
00010000
00000000
00100000
01000000
00100000
00000000
01000000
00000000
10000000
00000000
,
02000000
00000000
03000000
00000000
01000000
00000000
00100000
00000000
01000000
00100000
01000000
00000000
00100000
00000000
00010000
00000000
,
00001000
00000100
00000010
00000100
00000020
00000030
00000001
00000200
,
00000300
00000010
00000200
00000300
00001000
00010000
00010000
00100000
,
00200000
00300000
01000000
20000000
30000000
10000000
02000000
03000000
,
00100000
01000000
00000000
00000000
00100000
01000000
00000000
00000000
10000000
01000000
00000000
00000000
10000000
00000000
01000000
00000000
,
00100000
01000000
00020000
00030000
00001000
00000100
00000020
00000030
,
00000001
00000100
00000002
00000003
00000010
00000100
00002000
00003000
,
00010000
00100000
00200000
00300000
10000000
00100000
02000000
03000000
,
01000000
10000000
00200000
00300000
01000000
00100000
02000000
03000000
,
00100000
00010000
00001000
00000100
00002000
00003000
00000100
00002000
,
00003000
00000100
00000020
00000030
00000001
00000010
00000100
00001000
,
00020000
00030000
00100000
02000000
03000000
01000000
20000000
30000000
,
01000000
10000000
00000000
00000000
01000000
00100000
00000000
00000000
00010000
01000000
00000000
00000000
01100000
00000000
00000000
00000000
,
00020000
00000100
00001000
00000100
00001000
00000000
00000000
00000100
,
00001000
00000100
00001000
00000000
00000000
00000000
00000000
00000000
,
00030200
00000010
00000001
00000010
00000001
00000000
00000000
00000010
,
00000001
00000010
00000001
00000000
00000310
00000000
00000100
00000010
,
00000002
00000000
00000003
00000100
00000000
00000000
00001000
00000000
00000200
00000000
00000300
00001000
00000000
00000000
00010000
00000000
,
00200000
00000000
01300000
00000000
10000000
00000000
01000000
10000000
,
02000000
00000000
03000000
00100000
00000000
00000000
01000000
00000000
00200000
00000000
00300000
00100000
00000000
00000000
00100000
00000000
,
00020000
00000000
00000000
00031000
00000000
00000000
00000000
00000000
;
