#VERSION:0.83;
#TITLE:with Uisce;
#SUBTITLE:;
#ARTIST:bermei.inazawa;
#TITLETRANSLIT:;
#SUBTITLETRANSLIT:;
#ARTISTTRANSLIT:;
#GENRE:;
#ORIGIN:;
#CREDIT:;
#BANNER:with Uisce-bn.png;
#BACKGROUND:with Uisce-bg.png;
#PREVIEWVID:;
#JACKET:with Uisce-jacket.png;
#CDIMAGE:;
#DISCIMAGE:;
#LYRICSPATH:;
#CDTITLE:;
#MUSIC:with Uisce.mp3;
#OFFSET:-0.280000;
#SAMPLESTART:33.560028;
#SAMPLELENGTH:12.000000;
#SELECTABLE:YES;
#BPMS:0.000=220.140,
302.000=225.140,
316.000=240.140,
349.000=239.140;
#STOPS:397.000=0.280,
407.500=0.400,
417.500=0.500;
#DELAYS:;
#WARPS:;
#TIMESIGNATURES:0.000=4=4;
#TICKCOUNTS:0.000=4;
#COMBOS:0.000=1;
#SPEEDS:0.000=1.000=0.000=0;
#SCROLLS:0.000=1.000;
#FAKES:;
#LABELS:0.000=Song Start;
#BGCHANGES:;
#KEYSOUNDS:;
#ATTACKS:
;

//---------------dance-single - ----------------
#NOTEDATA:;
#CHARTNAME:;
#STEPSTYPE:dance-single;
#DESCRIPTION:;
#CHARTSTYLE:;
#DIFFICULTY:Hard;
#METER:17;
#RADARVALUES:0.830802,1.119089,0.317360,0.158680,0.690257,733.000000,693.000000,40.000000,20.000000,0.000000,0.000000,0.000000,0.000000,0.000000,0.830802,1.119089,0.317360,0.158680,0.690257,733.000000,693.000000,40.000000,20.000000,0.000000,0.000000,0.000000,0.000000,0.000000;
#CREDIT:;
#NOTES:
0000
0000
0000
0000
,
0000
0000
0000
0000
,
1001
1000
0010
0100
,
0010
1000
0011
1000
,
0001
0010
0100
1000
,
0001
1000
0001
1000
0100
0010
0001
1000
,
0100
0010
0100
1000
0001
0100
0001
1000
,
0100
0010
0002
0000
0000
0000
0000
0000
,
1003
0100
0001
0100
,
1000
0010
0001
0010
,
1000
0102
1003
0100
,
0010
0100
1000
0001
,
0100
0010
0100
1020
,
0130
0001
0010
1000
,
0010
0001
0010
0100
,
1000
0100
0010
0001
,
0100
1000
0100
0001
,
0100
0010
1000
0001
,
1000
0010
0100
0001
0010
0000
0100
0000
,
1000
0001
0100
0010
,
1000
0010
1000
0001
0100
0010
1000
0000
,
0010
0000
0000
0000
1000
0100
0010
0100
1000
0000
0000
0000
0010
0000
0000
0000
,
1000
0100
0010
0001
1000
0001
1000
0010
,
0100
0001
1000
0100
1000
0001
0010
0100
,
1000
0000
0000
0010
0000
0000
0100
0000
0000
0010
0000
0000
1000
0000
0010
0000
0100
0000
0001
0000
0010
0000
0001
0000
,
0010
0001
0010
0001
0010
0100
1000
0010
0100
0010
0100
0010
,
1000
0100
0010
0001
1000
0001
1000
0001
1000
0001
0010
0100
,
1000
0100
1000
0100
1000
0100
1000
0100
0010
0001
0010
0001
,
0010
0001
0010
0001
0100
0010
1000
0010
1000
0010
1000
0010
,
1000
0001
0100
0010
0100
0010
0100
0010
1000
0001
0010
0100
,
1000
0000
0000
0000
1001
0000
1000
0010
,
0100
0001
1000
0100
1000
0010
0100
0001
,
0100
0001
1000
0001
1000
0000
0100
0000
0010
0000
0001
0000
0010
0000
0100
0000
,
1000
0000
0010
0000
1000
0000
0000
0000
0010
0100
0010
0100
0001
0000
1000
0000
,
0001
0000
1000
0000
0010
0000
0100
0000
0001
0000
0100
0000
0001
0000
0010
0100
,
1000
0000
0010
0000
0100
0000
0001
0000
1000
0000
0010
0100
0001
0000
1000
0000
,
1001
0000
0000
0000
1100
0000
0000
0000
0101
0000
0000
0000
0010
1000
0010
1000
,
0001
0100
0010
1000
0001
0100
0010
1000
,
0100
0010
0001
0000
0010
0000
0100
0000
1000
0000
0100
0000
0001
0000
0100
0000
,
0010
0001
0010
0000
0100
0000
1000
0000
0100
0000
0001
0000
0100
0000
1100
0000
,
1000
0001
0100
0010
0100
0110
0010
1000
,
0001
1000
0001
0100
0010
1000
1001
0000
,
1010
0101
1001
1020
,
0130
0001
1000
0010
,
0100
0000
0000
0001
0010
0100
1000
0000
,
0000
0010
0100
0001
1000
0000
0001
0100
,
1000
0100
0001
0000
1000
0100
0001
0100
,
1000
0000
0010
0100
0001
0000
1000
0010
,
0100
0001
0000
0000
1001
0000
0100
0000
,
0010
1000
0001
0100
,
0010
0000
0000
1000
0100
0010
0001
0000
,
0000
0100
0010
1000
0001
0000
1000
0010
,
0001
0010
1000
0000
0001
0010
1000
0010
,
0001
0000
0000
0000
1000
0001
1000
0001
0100
0000
0000
0000
0001
0000
0100
0000
,
0010
0000
0000
1000
0000
0000
0010
0000
0000
0100
0000
0000
0001
0000
1000
0000
0001
0000
1000
0000
0001
0000
1000
0000
,
0001
1000
0001
1000
0001
1000
0001
1000
0001
1000
0001
1000
,
0010
0100
0010
0100
0010
0100
0010
0100
0010
0100
0010
0100
,
0010
0100
0010
0100
0010
0100
0001
0010
0001
0010
0001
0010
,
0001
0010
0001
0010
0001
0010
0001
0010
0001
0010
0001
0010
,
0100
1000
0100
1000
0100
1000
0100
1000
0100
1000
0001
0100
,
0001
0000
0100
0000
0001
0000
0100
0000
0001
0000
0100
0000
0001
0000
0000
1000
0000
0000
0010
0000
0000
1000
0000
0000
,
0100
0010
0001
0010
0100
1000
0010
0100
,
0010
0000
0000
0000
1000
0000
0000
0000
0001
0000
0000
0000
0100
0000
0000
0000
0010
0000
0000
0000
1000
0000
0000
0000
0100
0000
0000
0000
0010
0000
0000
0000
0001
0000
0000
0000
0100
0000
0000
0001
0000
0000
0100
0000
0000
0001
0000
0000
,
1000
0010
1000
0010
0100
0001
0100
0001
0010
0000
0000
0000
0201
0000
0000
0000
,
0310
1000
0001
0100
0001
0000
1000
0000
0100
0000
0010
0000
0001
0000
1000
0000
,
0010
0000
0000
0000
2010
0000
0000
0000
3001
0010
0100
0010
0001
0000
1000
0000
,
0010
0100
0001
1000
0010
0000
2010
0000
,
3001
0010
0100
1000
0001
0000
0100
0000
1000
0000
0100
0000
0001
0000
1000
0000
,
0010
0000
0000
0000
0102
0000
0000
0000
1003
0010
0100
0001
1000
0000
0100
0000
,
0001
0100
1000
0001
0100
0000
1020
0000
,
0130
0001
1000
0010
1000
0000
0001
0000
0010
0000
0100
0000
1000
0000
0001
0000
,
0100
0000
0000
0000
0102
0000
0000
0000
1003
0100
0010
0100
1000
0000
0001
0000
,
0100
0010
1000
0001
0100
0000
0102
0000
,
1003
0100
0010
0001
1000
0000
0010
0000
0001
0000
0010
0000
1000
0000
0001
0000
,
0100
0000
0000
0000
2010
0000
0000
0000
3001
0100
0010
1000
0001
0000
0010
0000
,
0100
1000
0100
0010
0002
0000
0000
0000
,
0000
0000
0000
0000
,
0000
0000
0000
0000
,
0000
0000
0000
0000
,
1003
0010
0100
0001
0000
0000
0100
0010
0100
0010
1000
0001
,
1000
0100
0010
0001
0010
0100
1000
0100
0010
0100
1000
0001
,
1000
0010
0100
0001
0010
0100
0010
0001
1000
0010
0100
1000
,
0100
0010
1000
0001
0010
1000
0010
0001
0100
1000
0100
0001
,
0010
0000
0100
0000
1000
0000
0002
0000
0000
0000
0000
0000
0000
0000
0000
1000
0000
0000
0000
0000
0000
0000
0000
0000
,
0100
0000
0000
0010
0000
0000
0100
0000
,
0000
0000
1003
0010
0200
0000
0000
0000
0010
0000
0010
0000
0000
0000
0000
0000
,
1000
0000
0000
0001
0000
0000
0310
1000
,
0001
1000
0010
0000
0000
1000
0001
1000
,
0010
0100
0010
0100
0001
0010
0001
0010
,
0100
0000
1000
0000
0100
0000
0010
0000
0000
0000
0001
1000
0010
0000
0100
0000
,
0000
0000
0001
1000
0001
1000
0010
0000
0000
0000
1010
0000
0000
0000
0101
0000
,
0000
0000
0001
0010
0100
0010
0001
0000
0010
0000
0100
0000
1000
0000
0010
0000
,
0100
0010
0000
1010
0000
0110
0000
0101
,
0000
0000
1010
0000
0000
0000
1001
0000
0000
0000
0001
1000
0001
1000
0010
0000
,
0000
0110
0000
1001
0000
1010
0000
0100
,
0010
1000
0000
0101
0000
1010
0000
1001
,
0000
0110
0000
1001
0000
0101
0000
0001
,
1000
0010
1000
0100
0010
0001
0100
0010
,
1000
0001
1000
0002
0000
0000
0000
2003
,
0000
0000
0000
3020
0000
0000
0000
0000
,
0000
0000
0000
0000
,
0000
0000
0000
0000
,
2000
0030
0000
0000
0000
0000
0000
0000
,
0000
0000
0000
0000
,
0000
0000
0000
0000
0020
3000
0000
0000
,
0000
0000
0000
0000
,
0000
0000
0000
0000
,
0000
0000
0000
0000
,
0000
0000
0130
0000
;

//---------------dance-single - ----------------
#NOTEDATA:;
#CHARTNAME:;
#STEPSTYPE:dance-single;
#DESCRIPTION:;
#CHARTSTYLE:;
#DIFFICULTY:Medium;
#METER:13;
#RADARVALUES:0.597316,0.774754,0.285624,0.357029,0.000000,527.000000,491.000000,36.000000,45.000000,0.000000,0.000000,0.000000,0.000000,0.000000,0.597316,0.774754,0.285624,0.357029,0.000000,527.000000,491.000000,36.000000,45.000000,0.000000,0.000000,0.000000,0.000000,0.000000;
#CREDIT:;
#NOTES:
0000
0000
0000
0000
,
0000
0000
0000
0000
,
0001
1000
0001
0010
,
0100
1000
0010
0100
,
0010
1000
0001
0100
,
0010
0100
0010
0100
0001
1000
0001
0000
,
1000
0010
1000
0010
0100
0000
0001
0010
,
0100
1000
0020
0000
0000
0000
0000
0000
,
0130
0010
1000
0010
,
1000
0001
0100
0001
,
0010
0200
1300
0100
,
0010
0100
1000
0001
,
0100
0010
0100
0002
,
1003
0001
0100
0010
,
1000
0001
0010
0001
,
1000
0100
1000
0010
,
0100
0010
1000
0001
,
1000
0100
0010
0001
,
1000
0001
0010
0100
1000
0000
0100
0000
,
1000
0001
0100
0010
,
1000
0010
1000
0010
0100
0001
0100
0000
,
0010
0000
1000
0001
1000
0000
0010
0000
,
1000
0100
0010
0001
0010
0100
1000
0000
,
0001
1000
0000
0010
0100
0001
1000
0001
,
0000
1000
0010
1000
0002
0000
0000
0000
,
0000
0023
0000
0000
,
2030
0000
0000
3200
,
0000
0000
0302
0000
,
0000
2003
0000
0000
,
3020
0000
0000
0130
,
1001
0000
0000
0000
1001
0000
1000
0001
,
0100
0001
1000
0100
1000
0001
0100
0001
,
0100
0010
1000
0010
1000
0100
0010
0001
,
0010
0100
1000
0000
0001
0100
0001
0100
,
0010
1000
0010
1000
0001
0010
0100
0010
,
0001
1000
0010
0100
0010
1000
0100
1000
,
1001
0000
1010
0000
0101
0000
0001
1000
,
0001
1000
0100
0010
0001
0100
0010
1000
,
0001
1000
0001
0010
0001
1000
0010
1000
,
0001
0010
0001
1000
0100
1000
0010
0200
,
0000
0301
1000
0001
1000
0020
0000
0130
,
0001
0100
0010
1000
0010
0100
0110
0000
,
0101
0011
1100
1002
,
0103
0010
0100
0001
,
0010
0000
0000
0100
1000
0100
1000
0000
,
0000
0001
0100
0001
0100
0000
0010
1000
,
0010
1000
0001
0000
1000
0100
1000
0100
,
0010
0000
0001
0010
0100
0000
1000
0001
,
1000
0001
0000
0000
1001
0000
0100
0000
,
0001
1000
0010
0100
,
0001
0000
0000
0010
0001
0010
0001
0000
,
0000
1000
0010
1000
0010
0000
0100
0001
,
0100
0001
1000
0000
0001
0010
0001
0010
,
0100
0000
1000
0100
0010
0000
0001
1000
,
0001
1000
0100
0010
0002
0000
1000
0000
,
0010
1000
0010
1000
,
0023
0100
1000
0100
,
1000
0100
0032
0010
,
0100
0010
0100
0010
,
2003
0010
0001
3020
,
0100
0000
1000
0000
0130
0001
0100
0010
,
1000
0100
0010
0100
1000
0010
0100
0001
,
0200
0000
0010
0000
0010
0000
0310
1000
,
0001
1000
0010
0100
0010
0000
0220
0330
,
0010
1000
0001
1000
0100
0010
0001
1000
,
0001
0000
2002
3003
0001
0100
0010
1000
,
0001
1000
0100
0010
0001
0000
2200
3300
,
1000
0001
0010
0001
0100
0010
0100
0001
,
1000
0000
0202
0303
0010
1000
0010
1000
,
0001
0100
0001
0010
0100
0000
2020
3030
,
0100
1000
0010
0100
0001
1000
0100
0010
,
0001
0000
0022
0033
0010
0100
0010
0001
,
1000
0001
0100
0010
0100
0000
2002
3003
,
0100
0001
0100
0010
1000
0001
0100
0010
,
1000
0000
0220
0330
0100
0001
0100
1000
,
0100
0001
1000
0100
0020
0000
0000
0000
,
0000
0000
0000
0000
,
0000
0000
0000
0000
,
0000
0000
0000
0000
,
0031
1000
0200
0000
0000
0010
0000
0000
,
1000
0000
0000
0010
0000
0000
1000
0000
,
0000
0310
0002
0000
0000
0100
0000
0000
,
0010
0000
0000
1000
0000
0000
0010
0000
,
0000
0103
2000
0000
0000
0001
0000
0000
,
0010
0000
0000
0001
0000
0000
0100
0000
,
0000
3001
0020
0000
0000
0100
0000
0000
,
0001
0000
0000
0100
0000
0000
0031
0010
,
0100
1000
0001
0000
0000
0100
0010
0100
,
0010
1000
0001
1000
0001
0010
0100
1000
,
0100
0010
0001
1000
0000
0001
0100
0010
,
0000
1000
0100
0010
0000
1001
0000
1001
,
0000
0001
0010
0100
1000
0001
0010
0100
,
1000
0001
0000
1010
0000
1010
0000
0101
,
0000
0101
0000
1001
0000
0100
0010
0100
,
0000
0110
0000
0110
0000
1001
0000
1000
,
0001
0010
0000
1100
0000
1100
0000
0110
,
0000
0110
0000
0011
0000
0011
0000
0001
,
1000
0010
0000
1000
0001
0100
0000
0010
,
1000
0001
0000
0201
0000
0000
0000
0320
,
0000
0000
0000
2030
0000
0000
0000
0000
,
0000
0000
0000
0000
,
0000
0000
0000
0000
,
3002
0000
0000
0000
,
0000
0000
0000
0000
,
0000
0000
0203
0000
,
0000
0000
0000
0000
,
0000
0000
0000
0000
,
0000
0000
0000
0000
,
0000
0000
0310
0000
;

//---------------dance-single - ----------------
#NOTEDATA:;
#CHARTNAME:;
#STEPSTYPE:dance-single;
#DESCRIPTION:;
#CHARTSTYLE:;
#DIFFICULTY:Easy;
#METER:6;
#RADARVALUES:0.362697,0.473461,0.007934,0.364964,0.000000,320.000000,319.000000,1.000000,46.000000,0.000000,0.000000,0.000000,0.000000,0.000000,0.362697,0.473461,0.007934,0.364964,0.000000,320.000000,319.000000,1.000000,46.000000,0.000000,0.000000,0.000000,0.000000,0.000000;
#CREDIT:;
#NOTES:
0000
0000
0000
0000
,
0000
0000
0000
0000
,
1000
0000
0000
0001
,
0000
0100
0010
0000
,
0000
1000
0001
0010
,
0200
0000
0000
1300
,
0000
0001
0000
0000
0100
0000
0000
0010
,
0000
0200
0000
0000
,
0301
0000
1000
0010
,
0000
0001
0100
0000
,
0010
0200
0310
0000
,
0010
1000
0000
0001
,
1000
0000
0100
0002
,
1003
0000
0001
0010
,
0000
0100
1000
0000
,
0010
0001
0000
0010
,
0100
0000
1000
0001
,
0000
0010
0100
1000
,
0001
0100
0002
0000
,
0000
2003
0000
3010
,
0100
0010
0100
0001
,
1000
0010
0100
0010
,
1000
0010
1000
0001
,
0010
0001
0000
0010
0100
0000
1000
0100
,
0000
0010
0001
0000
2000
0000
0000
0000
,
0000
3002
0000
0000
,
2003
0000
0000
3200
,
0000
0000
0320
0000
,
0000
0032
0000
0000
,
2003
0000
0000
3010
,
0110
0000
0000
1000
,
0100
1000
0001
0100
,
0001
1000
0010
1000
,
0001
0200
0301
0010
,
0001
1000
0100
0010
,
0100
1000
0010
0100
,
0020
2030
3001
0010
,
0100
0010
0001
1000
,
0001
0100
0010
1000
,
0100
0000
1000
0000
0010
0000
0100
0020
,
0000
0030
0000
0000
1000
0002
0000
0003
,
0000
0000
1000
0200
0000
0000
0320
0000
,
0032
2003
3001
0100
,
0010
1000
0100
1000
,
0001
0000
1000
1000
,
0000
0100
0100
0010
,
0001
0010
0100
1000
,
0010
0100
0010
1000
,
0001
0000
0000
0100
,
0001
1000
0010
0100
,
0001
0000
1000
1000
,
0000
0001
0010
0100
,
0010
0001
1000
0010
,
1000
0010
0100
0001
,
1000
0100
2000
0010
,
0010
0010
0010
0010
,
3020
0100
0100
0100
,
0100
0100
0230
0001
,
0001
0001
0001
0001
,
0302
0010
0010
0023
,
0100
0100
0130
1000
,
0100
0010
0001
1000
,
0002
0000
0000
2000
,
0000
0000
0000
0003
3001
0000
0200
0000
,
0310
1000
0100
0010
,
0001
2000
3010
0100
,
0001
0010
0001
0200
,
0310
1000
0100
0010
,
0001
0020
0031
1000
,
0010
0100
0001
2000
,
3010
0100
0001
0010
,
0100
2000
3100
0010
,
0001
0010
0100
0020
,
0031
0100
0010
1000
,
0010
0200
0310
0100
,
0001
1000
0002
0000
,
0000
0000
0000
0000
,
0000
0000
0000
0000
,
0000
0000
0000
0000
,
0103
0001
1000
0000
0000
0010
0000
0000
,
1000
0000
0000
0010
0000
0000
1000
0000
,
0000
0010
0100
0000
0000
0100
0000
0000
,
0010
0000
0000
1000
0000
0000
0010
0000
,
0000
0100
0001
0000
0000
0001
0000
0000
,
0010
0000
0000
0001
0000
0000
0100
0000
,
0000
0001
1000
0000
0000
1000
0000
0000
,
0001
0000
0000
0100
0000
0000
0001
0000
,
1000
0000
0001
0000
0000
0100
0000
0010
,
0000
1000
0000
0010
0000
0100
0000
0001
,
0000
0010
0000
0100
0000
1000
0000
0010
,
0000
0100
0000
0001
0000
2000
0000
3010
,
0000
0100
0000
0001
0000
0010
0000
0100
,
0000
1000
0000
0200
0000
0310
0000
0002
,
0000
0103
0000
0010
0000
1000
0000
0001
,
0000
0100
0000
0100
0000
0010
0000
1000
,
0000
0001
0000
1000
0000
1000
0000
0010
,
0000
0010
0000
0100
0000
0100
0000
0001
,
0000
0010
0000
0001
0000
1000
0000
0010
,
0000
1000
0000
0002
0000
0000
0000
0203
,
0000
0000
0000
0302
0000
0000
0000
0000
,
0000
0000
0000
0000
,
0000
0000
0000
0000
,
2003
0000
0000
0000
,
0000
0000
0000
0000
,
0000
0000
3020
0000
,
0000
0000
0000
0000
,
0000
0000
0000
0000
,
0000
0000
0000
0000
,
0000
0000
1030
0000
;

//---------------dance-single - ----------------
#NOTEDATA:;
#CHARTNAME:;
#STEPSTYPE:dance-single;
#DESCRIPTION:;
#CHARTSTYLE:;
#DIFFICULTY:Beginner;
#METER:3;
#RADARVALUES:0.214218,0.301293,0.000000,0.325294,0.000000,189.000000,189.000000,0.000000,41.000000,0.000000,0.000000,0.000000,0.000000,0.000000,0.214218,0.301293,0.000000,0.325294,0.000000,189.000000,189.000000,0.000000,41.000000,0.000000,0.000000,0.000000,0.000000,0.000000;
#CREDIT:;
#NOTES:
// measure 0
0000
0000
0000
0000
,  // measure 1
0000
0000
0000
0000
,  // measure 2
0001
0000
0000
1000
,  // measure 3
0000
0010
0100
0000
,  // measure 4
0000
0001
1000
0000
,  // measure 5
0020
0000
0000
0031
,  // measure 6
0000
1000
0000
0000
0010
0000
0000
0100
,  // measure 7
0000
0020
0000
0000
,  // measure 8
1030
0000
0001
0000
,  // measure 9
0000
1000
0000
0000
,  // measure 10
0100
0020
0030
0000
,  // measure 11
0100
0000
0000
1000
,  // measure 12
0000
0000
0010
2000
,  // measure 13
3000
0000
1000
0000
,  // measure 14
0000
0010
0000
0000
,  // measure 15
0100
0000
0000
0100
,  // measure 16
0000
0000
0001
0000
,  // measure 17
0000
0100
0000
0001
,  // measure 18
0000
0010
2000
0000
,  // measure 19
0000
3002
0000
0103
,  // measure 20
0000
0100
0000
1000
,  // measure 21
0000
0100
0000
0100
,  // measure 22
0000
0100
0000
1000
,  // measure 23
0100
0000
0010
0001
,  // measure 24
0000
1000
0002
0000
,  // measure 25
0000
2003
0000
0000
,  // measure 26
3002
0000
0000
0023
,  // measure 27
0000
0000
0230
0000
,  // measure 28
0000
2300
0000
0000
,  // measure 29
3002
0000
0000
0103
,  // measure 30
0100
0000
0000
0001
,  // measure 31
0000
0001
0000
0010
,  // measure 32
0000
0001
0000
0001
,  // measure 33
0000
0020
0030
0100
,  // measure 34
0000
0001
0000
0100
,  // measure 35
0000
0001
0000
0010
,  // measure 36
0200
0300
1000
0000
,  // measure 37
0010
0000
1000
0000
,  // measure 38
1000
0000
0100
0000
,  // measure 39
0010
0000
0000
0000
0100
0000
0000
0200
,  // measure 40
0000
0300
0000
0000
0000
2000
0000
3000
,  // measure 41
0000
0000
0000
0020
0000
0000
0130
0000
,  // measure 42
1000
0002
1003
0000
,  // measure 43
0100
0000
0010
0000
,  // measure 44
1000
0000
0001
0000
,  // measure 45
0000
0010
0000
0100
,  // measure 46
0000
0100
0000
0001
,  // measure 47
0000
0010
0000
0001
,  // measure 48
1000
0000
0000
0010
,  // measure 49
0000
0001
0000
0010
,  // measure 50
0000
0000
0001
0000
,  // measure 51
0000
1000
0000
0010
,  // measure 52
0000
1000
0000
0100
,  // measure 53
0000
0100
0000
1000
,  // measure 54
0000
0010
0002
0000
,  // measure 55
0000
0000
0000
0000
,  // measure 56
0203
0000
0000
0000
,  // measure 57
0000
0000
0320
0000
,  // measure 58
0000
0000
0000
0000
,  // measure 59
2030
0000
0000
3200
,  // measure 60
0000
0000
0300
0001
,  // measure 61
0000
0100
0000
0001
,  // measure 62
2000
0000
0000
0002
,  // measure 63
0000
0000
0000
3000
1003
0000
0020
0000
,  // measure 64
0030
0001
0000
0100
,  // measure 65
0000
0002
0003
0010
,  // measure 66
0000
0100
0000
0020
,  // measure 67
0030
0001
0000
0100
,  // measure 68
0000
0200
0300
0001
,  // measure 69
0000
0010
0000
0002
,  // measure 70
0003
0010
1000
0000
,  // measure 71
0010
0002
0003
0100
,  // measure 72
0000
0100
0000
0200
,  // measure 73
0300
0010
0000
0001
,  // measure 74
0000
0020
0030
0010
,  // measure 75
0000
0001
0200
0000
,  // measure 76
0000
0000
0000
0000
,  // measure 77
0000
0000
0000
0000
,  // measure 78
0000
0000
0000
0000
,  // measure 79
0310
0000
0010
0000
0000
0100
0000
0000
,  // measure 80
0001
0000
0000
0100
0000
0000
0001
0000
,  // measure 81
0000
0100
0100
0000
0000
0010
0000
0000
,  // measure 82
0100
0000
0000
0001
0000
0000
0100
0000
,  // measure 83
0000
0010
0010
0000
0000
1000
0000
0000
,  // measure 84
0001
0000
0000
1000
0000
0000
0010
0000
,  // measure 85
0000
1000
1000
0000
0000
0001
0000
0000
,  // measure 86
1000
0000
0000
0010
0000
0000
1000
0000
,  // measure 87
0000
0000
0001
0000
0000
0010
0000
0000
,  // measure 88
0000
0001
0000
0000
0000
0010
0000
0000
,  // measure 89
0000
0100
0000
0000
0000
0001
0000
0000
,  // measure 90
0000
0010
0000
0000
0000
0002
0000
0003
,  // measure 91
0000
0010
0000
0000
0000
0100
0000
0000
,  // measure 92
0000
0001
0000
0000
0000
0100
0000
0000
,  // measure 93
0000
0010
0000
0000
0000
0001
0000
0000
,  // measure 94
0000
0010
0000
0000
0000
0100
0000
0000
,  // measure 95
0000
1000
0000
0000
0000
0001
0000
0000
,  // measure 96
0000
0100
0000
0000
0000
0010
0000
0000
,  // measure 97
0000
0100
0000
0000
0000
0001
0000
0000
,  // measure 98
0000
0001
0000
2000
0000
0000
0000
3002
,  // measure 99
0000
0000
0000
2003
0000
0000
0000
0000
,  // measure 100
0000
0000
0000
0000
,  // measure 101
0000
0000
0000
0000
,  // measure 102
3002
0000
0000
0000
,  // measure 103
0000
0000
0000
0000
,  // measure 104
0000
0000
0203
0000
,  // measure 105
0000
0000
0000
0000
,  // measure 106
0000
0000
0000
0000
,  // measure 107
0000
0000
0000
0000
,  // measure 108
0000
0000
0301
0000
;
