#TITLE:Walk with you;
#SUBTITLE:;
#ARTIST:TOMOSUKE feat Jazzin' park;
#TITLETRANSLIT:walk with you;
#SUBTITLETRANSLIT:;
#ARTISTTRANSLIT:;
#CREDIT:;
#BANNER:walk with you.png;
#BACKGROUND:Walk with you-bg.png;
#LYRICSPATH:;
#CDTITLE:;
#MUSIC:Walk with you.mp3;
#OFFSET:0.000;
#SAMPLESTART:79.100;
#SAMPLELENGTH:12.000;
#SELECTABLE:YES;
#BPMS:0.000=127.000;
#STOPS:;
#BGCHANGES:0.000=walk with you.avi=1.000=0=0=1,
99999=-nosongbg-=1.000=0=0=0 // don't automatically add -songbackground-
;

//---------------dance-single - ----------------
#NOTES:
     dance-single:
     :
     Challenge:
     14:
     0.601,0.617,0.249,0.178,0.773: // measure 1
0000
0000
0000
0000
,  // measure 2
0000
0000
0000
0000
,  // measure 3
0000
0000
0000
0000
,  // measure 4
0000
0000
0000
0000
,  // measure 5
0000
0000
0000
0000
,  // measure 6
1000
0100
0010
0000
0000
0002
0000
0000
0203
0000
0000
0000
0320
0000
0000
0000
,  // measure 7
0000
0000
1030
0000
0000
0010
0000
0000
0200
0000
0020
0000
0000
0000
0330
0000
,  // measure 8
1000
0001
0100
0000
0000
0001
0000
0000
0011
0000
0000
0000
0010
0000
0100
0000
,  // measure 9
1000
0000
0100
0000
0000
0010
0000
0000
0001
0000
1000
0000
0010
0000
0000
0100
,  // measure 10
0000
0000
0001
0000
1000
0001
0000
0100
0000
0010
0000
2000
0000
0001
0000
3001
,  // measure 11
0000
0000
0010
0000
0100
1000
0000
0001
0000
0010
0000
0200
0000
1000
0000
1300
,  // measure 12
0000
0000
0010
0000
0100
0001
0000
0100
0000
1000
0000
0200
0000
0010
0000
0310
,  // measure 13
0000
0000
1000
0000
0001
0100
0000
0010
1000
0000
0020
0000
0000
0000
2030
0000
,  // measure 14
0000
0000
3001
0000
0100
0010
0000
1000
0000
0001
0000
0020
0000
1000
0000
1030
,  // measure 15
0000
0000
0010
0000
0001
0100
0000
0010
0000
1000
0000
0001
0000
0100
0000
0000
,  // measure 16
0010
1000
0010
0100
0001
1000
0000
0001
,  // measure 17
1000
0000
0010
0000
0100
0010
0000
0100
0000
0011
0000
0000
0101
0000
0000
0110
,  // measure 18
0000
0000
1001
0000
0000
0000
0010
0000
0000
0001
0000
0000
1000
0000
0001
0000
,  // measure 19
0010
0000
0100
0000
0000
1000
0000
0000
0100
0000
0020
0000
0000
0000
0130
1000
,  // measure 20
0100
0010
0001
0000
0000
0000
0010
0000
0000
0100
0000
0000
1000
0000
0100
0000
,  // measure 21
0010
0001
0100
0000
0000
0010
0000
0000
1000
0000
0100
0000
1010
0000
0000
1100
,  // measure 22
0000
0000
0110
0000
0000
0000
0100
0000
0000
1000
0000
0000
0010
0000
0100
0000
,  // measure 23
1000
0000
0100
0000
0000
0010
0000
0000
1000
0000
0001
0000
0000
0000
0010
0100
,  // measure 24
1000
0001
0010
0000
0000
0000
0100
0000
0000
0100
0000
0000
1000
0000
0100
0000
,  // measure 25
0010
0001
0010
0000
0000
1100
0000
0000
0110
0000
0011
0000
0000
0000
1001
0000
,  // measure 26
1000
0000
0001
0000
0010
0100
0010
0100
0000
1000
0000
0000
0010
0000
0001
0000
,  // measure 27
0010
0000
1000
0000
0001
0100
0000
0010
0000
1000
0001
0000
0100
0000
0010
0000
,  // measure 28
1000
0000
0100
0000
0010
0001
0010
0001
0000
1000
0000
0010
0000
0100
0000
0001
,  // measure 29
0010
0100
1000
0001
0010
0100
1000
0001
0010
0100
0000
0100
0010
0000
0000
0010
,  // measure 30
0000
2002
0000
0000
0000
0000
3000
0010
,  // measure 31
0000
0000
1003
0000
0100
1000
0000
0001
0000
1000
0010
0000
0100
0000
0001
0000
,  // measure 32
0100
0000
2000
0000
0000
0000
0000
3100
0000
0010
0000
0000
0100
0000
0001
1000
,  // measure 33
0000
0010
1000
0010
0100
0000
2002
0000
,  // measure 34
3003
0000
0000
0000
0000
0000
0000
0000
0010
0000
0000
0000
0000
0000
0000
0000
0100
0000
0000
0000
1000
0000
0000
0000
0000
0000
0000
0000
0001
0000
0000
0000
0000
0000
0000
0000
0000
0000
0000
0000
0000
0100
0000
0000
0000
0000
0010
0000
0000
0000
0000
0000
0100
0000
0000
0000
0000
0010
0000
0000
0000
0000
0000
0000
,  // measure 35
1000
0001
1000
0000
0100
0010
0000
0001
0010
0000
0010
0100
0000
1000
0000
0100
,  // measure 36
0010
0000
0001
0000
1000
0010
0000
0100
1000
0100
0010
0100
0000
0001
1000
0000
,  // measure 37
0001
1000
0001
0000
0100
0010
0000
1000
0100
0000
0010
0000
0001
0000
0010
0000
,  // measure 38
0100
0000
1000
0000
0000
1000
0000
0000
0001
0000
0101
0000
0000
0000
1001
0000
,  // measure 39
0100
0001
1000
0000
0100
0010
0000
0001
1000
0000
1000
0001
0000
0100
0000
0001
,  // measure 40
0010
0000
0001
0000
0100
0010
0000
0100
1000
0100
0010
0100
0000
0010
1000
0000
,  // measure 41
0010
0100
0001
0000
0100
0010
0000
1000
0100
0000
0010
0000
0001
0000
1000
0000
,  // measure 42
0010
0000
0100
0000
0000
0100
0000
0000
0001
0000
0101
0000
0000
0000
0011
0000
,  // measure 43
0001
0010
0100
0000
1000
0010
0000
0100
0010
0000
0010
1000
0000
0001
0000
0100
,  // measure 44
0010
0000
1000
0000
0100
0010
0000
0001
1000
0001
0100
0001
0000
1000
0001
0000
,  // measure 45
1000
0010
0100
0000
0001
0010
0000
0100
0010
0000
0100
0000
1000
0000
0010
0000
,  // measure 46
0001
0000
1000
0000
0000
0100
0000
0000
0010
0000
0110
0000
0000
0000
0101
0000
,  // measure 47
0010
1000
0001
0000
0100
0010
0000
0001
0010
0000
0010
1000
0000
0001
0000
0100
,  // measure 48
0001
0000
1000
0000
0001
0100
0000
0010
0100
1000
0100
0010
0000
1000
0100
0000
,  // measure 49
0010
0001
1000
0000
0001
1000
0000
0010
1000
0000
0100
0000
0010
0000
0100
0000
,  // measure 50
1000
0000
0100
0000
0000
0010
0000
0000
0010
0000
1001
0000
0000
0000
0110
0000
,  // measure 51
0000
0000
1010
0000
0000
1000
0010
0000
0100
0001
0000
0000
0010
0000
0001
0000
,  // measure 52
1000
0010
0100
0001
2000
0010
0000
3010
,  // measure 53
0000
0000
1000
0000
0001
0100
0000
1000
0000
0100
0000
0000
0010
0000
1000
0000
,  // measure 54
0001
0000
0100
0000
1000
0100
0000
0010
0000
0000
1001
0000
0000
0000
0101
0000
,  // measure 55
0000
0000
0001
0000
0010
0100
1000
0100
0000
0010
0001
0010
0001
1000
0000
0010
,  // measure 56
0100
0001
1000
0000
0100
0010
0100
1000
0000
0001
0010
0100
0000
0010
0100
1000
,  // measure 57
0000
0001
1000
0000
0100
0010
0001
0000
1000
0000
0001
0100
0000
0010
0000
0100
,  // measure 58
0000
0000
0110
0000
0000
0110
0000
0000
0220
0000
0000
0000
0000
0000
0330
0000
;

//---------------dance-single - Copied from----------------
#NOTES:
     dance-single:
     Copied from:
     Hard:
     13:
     0.523,0.488,0.249,0.409,0.369:
0000
0000
0000
0000
,
0000
0000
0000
0000
,
0000
0000
0000
0000
,
0000
0000
0000
0000
,
0000
0000
0000
0000
,
1000
0001
1000
0000
0000
0002
0000
0000
2003
0000
0000
0000
3002
0000
0000
0000
,
0000
0000
1003
0000
0000
1000
0000
0000
0200
0000
0020
0000
0000
0000
0300
0000
,
0031
1000
0100
0000
0000
0100
0000
0000
0110
0000
0000
0000
0010
0000
0100
0000
,
1000
0100
0010
0001
1000
0001
0010
0100
,
1000
0000
0001
0000
1000
0000
0001
0000
0100
0000
0001
0000
1000
0010
0000
0010
,
0000
0000
1000
0000
0001
0000
1000
0000
0010
0000
0100
0000
0010
1000
0000
1000
,
0000
0000
0010
0000
0100
0000
0001
0000
0100
0000
1000
0000
0100
0010
0000
0010
,
0000
1000
0001
0010
0100
1000
0010
0100
,
0001
0000
1000
0000
0100
0000
0010
0000
0001
0000
1000
0000
0001
0100
0000
0100
,
0000
0010
1000
0100
0001
0100
2000
0000
,
3010
0010
1000
1000
0001
0002
0000
1003
,
1000
0000
0010
0000
0200
0000
0000
0000
0000
1000
0000
0000
0001
0000
0000
0310
,
0000
1001
0000
1000
0001
1000
0100
0010
,
0001
0000
0100
0000
0000
1000
0000
0000
0100
0000
0001
0000
0000
0000
2002
0000
,
0000
3003
0000
0000
0000
0000
0001
0000
0100
0000
0001
0000
1000
0000
0100
0000
,
0020
0000
0000
0000
0032
0000
0000
0000
0103
0000
0100
0000
1002
0000
0000
0010
,
0000
0000
0013
0000
0000
0000
2001
0000
0000
3002
0000
0000
0103
0000
0100
0000
,
1000
0000
0100
0000
0010
0000
1000
0000
1000
0000
0001
0000
0000
0000
0010
0100
,
0010
0000
1001
0000
0000
0000
0100
0000
0000
0100
0000
0000
0010
0000
0100
0000
,
0001
1000
0020
0000
0000
0100
0000
0000
0001
0000
1030
0000
0000
0000
1001
0000
,
0000
0000
0102
0000
0000
0000
0100
0000
0000
0100
0000
0000
1000
0000
2003
0000
,
0001
0000
3002
0000
0000
0103
0000
0010
0000
1000
0001
0000
0100
0000
0010
0000
,
2000
0000
0200
0000
0000
0000
3000
0000
0010
0000
0320
0000
0000
0000
0000
0031
,
1000
0001
0000
0010
0001
0010
0000
0001
1000
0001
0000
0100
0000
0000
0100
0000
,
0000
0220
0000
0000
0000
0000
0030
0302
,
0000
2000
0000
0000
0003
3010
1000
0001
,
0100
0000
2000
0000
0000
0000
0000
0100
0000
3100
0000
0000
0010
0000
0100
0010
,
0000
0010
1000
0010
0110
0000
1002
0000
,
0000
0000
0000
0000
0000
0000
0000
0000
0000
0000
0000
0000
0000
0000
0000
0000
0000
0000
0000
0000
1000
0000
0000
0000
0000
0000
0000
0000
0013
0000
0000
0000
0000
0000
0000
0000
0000
0000
0000
0000
0000
0100
0000
0000
0000
0000
0010
0000
0000
0000
0000
0000
0100
0000
0000
0000
0000
0010
0000
0000
0000
0000
0000
0000
,
1000
0001
0200
0000
0000
0320
0000
0000
2030
0000
0000
0000
3002
0000
0000
0000
,
0000
0000
1003
0000
0000
0001
0000
0000
0100
0000
0001
1000
0000
0000
1001
0000
,
0001
1000
0002
0000
0000
0100
0000
0003
0100
0000
0000
0000
0010
0000
1000
0000
,
0001
0000
0100
0000
0000
0100
0000
0000
0001
0000
1001
0000
0000
0000
0110
0000
,
0100
0001
1000
0000
0000
0010
0000
0000
2000
0000
0000
0000
3002
0000
0000
0000
,
0003
0000
1000
0000
0000
0010
0000
0000
0100
0000
0010
0100
0000
0000
1010
0000
,
0010
0100
0001
0000
0000
0010
0000
0000
0100
0000
0000
0000
0100
0000
1000
0000
,
0010
0000
0100
0000
0000
0100
0000
0000
0001
0000
0101
0000
0000
0000
0011
0000
,
0001
0010
0100
0000
2000
0000
0000
0000
3020
0000
0000
0000
0230
0000
0000
0000
,
0000
0000
0301
0000
0000
1000
0000
0000
0002
0000
2000
0000
0000
0000
0003
0000
,
3010
0100
0010
0000
0000
1000
0000
0000
0001
0000
0000
0000
1000
0000
1000
0000
,
0010
0000
0010
0000
0000
0100
0000
0000
0010
0000
0110
0000
0000
0000
1001
0000
,
0001
1000
0001
0000
0000
0010
0000
0000
0100
0000
0000
0000
2000
0000
0000
0000
,
0000
0000
3001
0000
0000
1000
0000
0000
0010
0000
0010
0100
0000
0000
0101
0000
,
0100
0001
1000
0000
0000
0001
0000
0000
1000
0000
0000
0000
0001
0000
0010
0000
,
0100
0000
2000
0000
0000
0001
0000
0000
3001
0000
1001
0000
0000
0000
0110
0000
,
0000
0000
1001
0000
0000
0000
0002
0000
0000
0200
0003
0000
0000
0000
0301
0000
,
0010
0100
1000
0100
0010
1001
0000
1001
,
0000
0000
1000
0000
0001
0000
1000
0000
0000
0100
0000
0000
0010
0000
0001
0000
,
1000
0010
1000
0010
0100
0101
0000
1001
,
0000
0000
0001
0000
0010
0100
0000
0100
1000
0000
0001
0100
0000
0010
0000
0000
,
0100
0000
0001
0000
1000
0010
0000
0010
1000
0000
0010
0100
0000
0010
0000
0000
,
1000
0000
0001
0000
0100
0010
0100
0000
0001
0000
1000
0100
0000
0010
0000
0100
,
0000
0000
1000
0000
0000
1000
0000
0000
0202
0000
0000
0000
0000
0000
0303
0000
;

//---------------dance-single - Copied from Copied f----------------
#NOTES:
     dance-single:
     Copied from Copied f:
     Medium:
     10:
     0.426,0.411,0.124,0.293,0.080:
0000
0000
0000
0000
,
0000
0000
0000
0000
,
0000
0000
0000
0000
,
0000
0000
0000
0000
,
0000
0000
0000
0000
,
0100
0000
0100
0000
0000
0002
0000
0000
2003
0000
0000
0000
3002
0000
0000
0000
,
0000
0100
0000
1003
0010
0020
0000
0000
,
0031
0000
1000
0000
0000
1000
0000
0000
1001
0000
0000
0000
1000
0000
0001
0000
,
0100
0000
0010
1000
0001
0000
0010
0100
,
1000
0000
0001
1000
0010
0000
1000
0010
,
0010
1000
0001
1000
0000
0100
0010
0100
,
0100
0010
0100
1000
0000
0001
0100
0010
,
0010
1000
0001
0010
0000
0100
1000
0001
,
0100
0010
0010
0000
0100
0001
1000
0100
,
0100
0010
0001
0001
0010
0100
2000
0000
,
3010
0010
1000
1000
0001
0001
0000
1000
,
0001
0000
0100
0000
0200
0000
0000
0000
0000
0310
0000
0000
0010
0000
0000
0010
,
0000
1001
0000
1000
0001
1000
0000
0001
,
0100
0001
0000
1000
0010
0100
0000
0220
,
0330
0000
0000
0001
0100
0001
0000
1000
,
2000
0000
3010
0000
0010
0100
0001
0010
,
0000
0000
0001
0000
0000
0000
2000
0000
0000
0002
3000
0000
0103
0000
0100
0000
,
0000
0010
0010
1000
0000
0001
1000
0010
,
0000
0000
1001
0000
0000
0000
0100
0000
0000
0100
0000
0000
0010
0000
0100
0000
,
0010
0000
0020
0000
0000
1000
0000
0000
1030
0000
0001
0000
0000
0000
1001
0000
,
0000
0000
0002
0000
0000
0000
0000
0000
0000
1000
0000
0000
1000
0000
2003
0000
,
0000
3020
0000
0000
0000
0130
0100
0010
,
1000
0200
0000
0000
0310
0020
0000
0000
,
1030
1000
0001
0001
1000
1000
0000
0100
,
0000
0220
0000
0000
0000
0000
0030
0302
,
0000
2000
0000
0000
0003
3010
1000
0001
,
1000
0000
0002
0000
0000
0000
0000
0100
0000
0103
0000
0000
0010
0000
0010
0000
,
0000
0010
1000
0010
0100
0000
0202
0000
,
0000
0000
0000
0000
0000
0000
0000
0000
0000
0000
0000
0000
0000
0000
0000
0000
0000
0000
0000
0000
0000
0000
0000
0000
0300
0000
0000
0000
0003
0000
0000
0000
0000
0000
0000
0000
0000
0000
0000
0000
0000
0100
0000
0000
0000
0000
0010
0000
0000
0000
0000
0000
0100
0000
0000
0000
0000
0010
0000
0000
0000
0000
0000
0000
,
1000
0001
0100
0000
0010
1000
0002
0000
,
0000
1003
1000
0010
0010
0100
0100
0001
,
1000
0000
0002
0000
0000
0100
0000
0000
0103
0000
0000
0000
0010
0000
1000
0000
,
0001
0000
1000
0001
0100
0020
0000
0230
,
0000
0301
0000
0001
1000
0000
0002
0000
,
0000
1003
0001
1000
0000
0010
0000
1010
,
0000
1000
0001
0010
0100
0000
0100
1000
,
0010
0000
1000
0000
0001
0001
0000
1000
,
1000
0001
1000
0000
0010
0000
0100
0000
,
0001
1000
0001
0000
0100
0100
0000
0000
,
0010
0010
0000
1000
0001
0000
0001
1000
,
0010
0000
1000
0001
0010
0110
0000
1001
,
0000
1000
0001
0010
0100
0000
0200
0000
,
0000
0301
0000
1000
0000
0010
0010
0100
,
0100
0000
0001
0000
0000
0001
0000
0000
1000
0000
0000
0000
0010
0000
0010
0000
,
0000
0000
1000
0000
0000
0010
0000
0000
0100
0000
0100
0000
0000
0000
0010
0000
,
0000
0000
1001
0000
0000
0000
0002
0000
0000
1003
0000
0000
0000
0000
0001
0000
,
1000
0001
0000
0100
0010
0100
0000
1001
,
0000
1000
0001
1000
0000
0010
0100
0001
,
0000
1000
0001
1000
0010
0100
0000
1001
,
0000
0001
0010
0001
0000
1000
0100
1000
,
0000
0100
0010
0100
0000
0010
0001
0010
,
0000
0100
1000
0100
0000
0010
0001
0010
,
0000
0010
0000
0010
2002
0000
0000
3003
;

//---------------dance-single - Copied from Copied f----------------
#NOTES:
     dance-single:
     Copied from Copied f:
     Easy:
     5:
     0.344,0.360,0.124,0.293,0.000:
0000
0000
0000
0000
,
0000
0000
0000
0000
,
0000
0000
0000
0000
,
0000
0000
0000
0000
,
0000
0000
0000
0000
,
0000
1000
0000
0001
0000
1000
0000
0001
,
0000
0100
0000
0010
0000
0200
0000
0010
,
0000
0310
0000
0000
1001
0000
1000
0001
,
0000
0100
0000
0010
1000
0000
0100
0000
,
1000
0001
0000
0010
0000
0100
0000
0010
,
0010
0010
0000
0001
0000
1000
0000
0001
,
0001
0001
0000
0100
0000
0010
0000
0100
,
0100
0100
0000
0010
0000
0001
0000
1000
,
0000
0100
0100
0100
0000
0001
0000
1000
,
0000
0010
0000
1000
1000
1000
0000
0001
,
0000
0100
0000
0010
0000
0100
0100
0100
,
0000
0001
0000
1000
0000
0010
0000
0000
,
0001
1001
0000
1000
0000
1000
0000
0001
,
0000
0001
0000
0100
0010
0100
0000
0220
,
0330
0000
0000
0001
0000
0001
0000
1000
,
0000
2000
0000
0000
3000
0100
0000
0010
,
0000
1001
0000
0100
0000
0010
0000
0100
,
0000
0010
0000
0100
0000
0001
1000
0001
,
0000
1001
0000
0100
0000
0100
0000
0100
,
0100
0010
0000
0000
1000
0001
0000
1001
,
0000
2002
0000
0000
0000
0000
3000
0200
,
0003
0320
0000
0000
0000
2030
0000
3020
,
0000
0230
0000
0000
0000
0302
0000
1000
,
0000
1000
0000
1000
0000
1003
0000
0100
,
0000
0220
0000
0000
0000
0000
0030
0301
,
0000
0002
0000
0000
0000
1003
1000
1000
,
0000
0020
0000
0000
0030
0000
0100
0100
,
0000
0010
0000
0010
0010
0000
0202
0000
,
0000
0000
0000
0000
0000
0000
0300
0003
0000
0000
1000
0000
0000
0000
1000
0000
,
0000
0001
0001
0000
1000
1000
0002
0000
,
0000
1003
1000
0000
0000
0010
0010
0000
,
2000
0002
0000
0000
3003
0000
0000
1000
,
0000
0001
0000
1000
0000
0002
0000
2000
,
0000
3003
0000
0001
0001
0000
1000
1000
,
0000
0010
0000
0100
0000
0001
0000
0200
,
0000
0301
0000
0001
0000
0000
0000
1000
,
1000
0000
1000
0000
0001
0001
0000
1000
,
1000
0001
0000
0100
0100
0000
0000
0001
,
0001
0000
0000
1000
1000
0000
0000
0001
,
0000
1000
0000
0001
0000
0100
0000
0001
,
0001
0001
0000
0100
0100
0100
0000
0110
,
0000
0010
0000
1000
0000
0000
0220
0000
,
0000
0330
0000
1000
0000
0010
0010
0100
,
0000
0001
0000
1000
0000
0010
0001
0010
,
0000
1000
0000
0010
0000
0100
1000
0100
,
0000
0000
1001
0000
0000
0000
2002
0000
0000
3003
0000
0000
0000
0000
1000
0000
,
1000
1000
0000
0001
0001
0002
0000
1003
,
0000
1000
1000
1000
0000
0010
0010
0010
,
0000
0100
0100
0200
0000
0302
0000
0013
,
0000
0010
0010
0010
0000
0100
0100
0100
,
0000
1000
1000
1000
0000
0001
0001
0001
,
0000
0100
0100
0100
0000
0010
0100
0010
,
0000
0010
0000
0010
2002
0000
0000
3003
;

//---------------dance-single - Copied from Copied f----------------
#NOTES:
     dance-single:
     Copied from Copied f:
     Beginner:
     3:
     0.227,0.308,0.098,0.222,0.000:
0000
0000
0000
0000
,
0000
0000
0000
0000
,
0000
0000
0000
0000
,
0000
0000
0000
0000
,
0000
0000
0000
0000
,
0000
0001
0000
0000
0000
1000
0000
0000
,
0000
0010
0000
0000
0000
0020
0000
0000
,
0000
0030
0000
0100
0000
0000
0000
1000
,
0000
0000
0000
0100
0000
0000
0000
0010
,
0000
1000
0000
0000
0000
0010
0000
0100
,
0000
0010
0000
0000
0000
1000
0000
0001
,
0000
0100
0000
0000
0000
0100
0000
0000
,
0000
0010
0000
0000
0000
1000
0000
0001
,
0000
0000
0000
0010
0000
0000
0000
0001
,
0000
0100
0000
0001
0000
0001
0000
0000
,
0000
0010
0000
0100
0000
0010
0000
0010
,
0000
0000
0000
0001
0000
0100
0000
0000
,
0000
1001
0000
0001
0000
0001
0000
1000
,
0000
1000
0000
0010
0000
0010
0000
0020
,
0030
0000
0000
0000
0000
1000
0000
0001
,
0000
0002
0000
0000
0003
0010
0000
0000
,
0000
1001
0000
1001
0000
0000
0000
0010
,
0000
0100
0000
0010
0000
1000
0000
0001
,
0000
0000
0000
0100
0000
0010
0000
0000
,
0000
0100
0000
0000
0000
0110
0000
1001
,
0000
0002
0000
0000
0000
0000
0000
0023
,
0000
0230
0000
0000
0000
1300
0000
0100
,
0000
0020
0000
0000
0000
0032
0000
0000
,
0000
0000
0000
0100
0000
0103
0000
0010
,
0000
0200
0000
0000
0000
0000
0000
0302
,
0000
2003
0000
0000
0000
3000
0000
0010
,
0000
0220
0000
0000
0000
0330
0000
0010
,
0000
0100
0000
0010
0000
0000
2002
0000
,
0000
0000
3003
0000
,
0000
0000
0000
1000
0000
0001
0000
2000
,
0000
3001
0000
0000
0000
0100
0000
0000
,
0010
0010
0000
0000
0000
0000
0000
0001
,
0000
0000
0000
0100
0000
1000
0000
0020
,
0000
0030
0000
1000
0000
0001
0000
0001
,
0000
0100
0000
0000
0000
0010
0000
2000
,
0000
3010
0000
0100
0000
0000
0000
0001
,
0000
1000
0000
1000
0000
0001
0000
0000
,
0000
1000
0000
0100
0000
0100
0000
0010
,
0000
0000
0000
1001
0000
0000
0000
1000
,
0000
0001
0000
1000
0000
0010
0000
1000
,
0000
1000
0000
0000
0000
0010
0000
0000
,
0000
0100
0000
0000
0000
0020
0000
0000
,
0030
0000
0000
0001
0000
0100
0000
0010
,
0000
1000
0000
0001
0000
0000
0000
0000
,
0000
0001
0000
0100
0000
0000
0000
0000
,
0000
0000
1001
0000
0000
0000
2002
0000
0000
3003
0000
0000
0000
0000
0010
0000
,
0000
0010
0000
1000
0000
2000
0000
3002
,
0000
1003
0000
1000
0000
0010
0000
0010
,
0000
0100
0000
0000
0000
0001
0000
1000
,
0000
0000
0000
0010
0000
0100
0000
0100
,
0000
0001
0000
0001
0000
1000
0000
1000
,
0000
0010
0000
0010
0000
0100
0000
0010
,
0000
0000
0000
0000
2002
0000
0000
3003
;
