#VERSION:0.81;
#TITLE:veRtrageS;
#SUBTITLE:;
#ARTIST:Riz vs Shiron;
#TITLETRANSLIT:;
#SUBTITLETRANSLIT:;
#ARTISTTRANSLIT:;
#GENRE:;
#ORIGIN:;
#CREDIT:;
#BANNER:veRtrageS.png;
#BACKGROUND:veRtrageS-bg.png;
#PREVIEWVID:;
#JACKET:veRtrageS-jacket.png;
#CDIMAGE:;
#DISCIMAGE:;
#LYRICSPATH:;
#CDTITLE:;
#MUSIC:veRtrageS.mp3;
#OFFSET:-0.050000;
#SAMPLESTART:42.449978;
#SAMPLELENGTH:12.000000;
#SELECTABLE:YES;
#BPMS:0.000=190.020;
#STOPS:;
#DELAYS:;
#WARPS:;
#TIMESIGNATURES:0.000=4=4;
#TICKCOUNTS:0.000=4;
#COMBOS:0.000=1;
#SPEEDS:0.000=1.000=0.000=0;
#SCROLLS:0.000=1.000;
#FAKES:;
#LABELS:0.000=Song Start;
#BGCHANGES:;
#KEYSOUNDS:;
#ATTACKS:
;

//---------------dance-single - ----------------
#NOTEDATA:;
#CHARTNAME:;
#STEPSTYPE:dance-single;
#DESCRIPTION:;
#CHARTSTYLE:;
#DIFFICULTY:Hard;
#METER:16;
#RADARVALUES:1.000000,1.000000,0.399226,0.603275,0.856119,687.000000,45.000000,68.000000,0.000000,0.000000,0.000000,0.000000,0.000000,1.000000,1.000000,0.399226,0.603275,0.856119,687.000000,45.000000,68.000000,0.000000,0.000000,0.000000,0.000000,0.000000;
#CREDIT:;
#NOTES:
// measure 0
0000
0000
0000
0000
,  // measure 1
0000
0000
0000
0000
0000
0000
0000
0000
0000
1000
0010
0100
,  // measure 2
0002
0000
0000
0023
0000
0000
0230
0000
0000
1300
0010
1000
,  // measure 3
0020
0000
0000
0230
0000
0000
0302
0000
0000
0013
0100
0010
,  // measure 4
0200
0000
0000
2300
0000
0000
3020
0000
0000
0130
0001
0100
,  // measure 5
0002
0000
0000
2003
0000
0000
3020
0000
0000
0130
0001
0100
,  // measure 6
0002
0000
0000
0023
0000
0000
2030
0000
0000
3010
0001
0100
,  // measure 7
0020
0000
0000
2030
0000
0000
3200
0000
0000
1300
0010
0100
,  // measure 8
0002
0000
0000
2003
0000
0000
3020
0000
0000
0130
0001
0010
,  // measure 9
0001
0000
0000
0000
1001
0010
1000
0001
,  // measure 10
0010
0001
0100
0010
0100
1000
0100
0001
,  // measure 11
0010
1000
0010
0001
0010
0100
0010
1000
,  // measure 12
0001
1000
0010
0001
0100
0010
1000
0001
,  // measure 13
1001
0000
0000
0110
0000
0000
1010
0000
0100
0000
0001
0000
0010
0000
0001
0000
,  // measure 14
1000
0100
1000
0010
0001
1000
0100
0001
,  // measure 15
0010
0001
1000
0010
1000
0010
0001
1000
,  // measure 16
0100
0001
0010
0001
1000
0100
1000
0010
,  // measure 17
0100
0000
1000
0000
0100
0000
0010
0000
1000
0001
0100
0001
1000
0000
0020
0000
,  // measure 18
0000
0000
0130
0000
0010
1000
0010
0000
1000
0100
0001
0100
1000
0000
0002
0000
,  // measure 19
0000
0000
1003
0000
0100
1000
0100
0000
0010
0001
0100
0001
0010
0000
0002
0000
,  // measure 20
0000
0000
0103
0000
0010
1000
0010
0000
1000
0001
0010
0001
1000
0000
0020
0000
,  // measure 21
0000
0000
0130
0000
0001
0010
0001
0000
1000
0001
0100
0001
1000
0000
0020
0000
,  // measure 22
0000
0000
0130
0000
0010
0100
0010
0000
1000
0100
0010
0100
1000
0000
0002
0000
,  // measure 23
0000
0000
1003
0000
0100
1000
0100
0000
0010
0001
1000
0001
0010
0000
0002
0000
,  // measure 24
0000
0000
0103
0000
0010
0000
1000
0000
1000
0000
0010
0100
0001
0100
0010
0000
,  // measure 25
0100
0001
1000
0000
0010
0000
0100
0000
0001
0000
1000
0000
0010
0000
1000
0000
,  // measure 26
0001
0100
1000
0100
0001
0010
1000
0010
,  // measure 27
0001
0010
0001
0100
0010
1000
0100
1000
,  // measure 28
0001
0010
1000
0001
0100
1000
0010
0100
,  // measure 29
1000
0000
0100
0010
0100
0000
0001
1000
0001
0000
1000
0000
0010
0000
0100
0000
,  // measure 30
1000
0001
0010
1000
0001
0010
1000
0001
,  // measure 31
0100
1000
0001
0100
1000
0100
0010
1000
,  // measure 32
0100
1000
0001
0010
0001
1000
0010
0100
,  // measure 33
0010
0100
0010
0100
0001
1000
0001
1000
0010
0000
0100
0000
0110
0000
0010
0000
,  // measure 34
1000
0001
0100
0001
0010
0001
1000
0010
,  // measure 35
1000
0100
0010
0100
0001
0100
1000
0010
,  // measure 36
0100
0010
1000
0001
0100
0001
0010
0100
,  // measure 37
1000
0100
0000
0010
0001
0000
1000
0000
0100
0010
0001
0010
0100
0000
1000
0100
,  // measure 38
1000
0000
0001
0100
0010
0000
1000
0010
1000
0000
0001
0100
0010
0000
0100
0010
,  // measure 39
0100
0000
0001
1000
0100
0000
0010
0000
0001
0010
0001
0010
0100
0000
1000
0000
,  // measure 40
0001
0010
0100
1000
0100
0010
0001
1000
0001
0000
0100
0010
0000
0010
1000
0000
,  // measure 41
0001
0000
0000
1000
0000
0000
0000
0000
0000
0010
0000
0000
0100
0000
0000
0000
0000
0000
0100
0000
0000
0000
0000
0000
0010
0000
0000
0000
1000
0000
0000
0000
0000
0000
0000
0000
1000
0000
0000
0000
0100
0000
0000
0000
0000
0000
0000
0000
,  // measure 42
0100
0000
0000
0000
0010
0000
0000
0000
0000
0000
0000
0000
0010
0000
0000
0000
0001
0000
0000
0000
0000
0000
0000
0000
0001
0000
0000
0100
0000
0000
0010
0000
0000
1000
0000
0000
0001
0000
0000
0010
0000
0000
0100
0000
0000
1000
0000
0000
,  // measure 43
0010
0100
0001
1000
0001
0100
0010
0100
0001
0000
0000
0000
1001
0000
0000
0000
,  // measure 44
0110
0000
0000
0201
0000
0000
0010
0000
1300
0000
0010
1000
0010
0000
0100
0001
,  // measure 45
1000
0010
1000
0001
0100
0010
1000
0100
0020
0000
0000
0030
0011
0000
0000
0000
,  // measure 46
1001
0000
0000
0220
0000
0000
0330
0000
0100
0000
0100
0000
0001
1000
0001
0000
,  // measure 47
2002
0000
0000
0000
0000
0000
0000
3003
0200
0000
0000
0320
0000
0000
1030
0000
,  // measure 48
1002
0000
0000
0000
1003
0010
0100
0001
0010
0000
0000
0100
0000
0000
1000
0000
,  // measure 49
1200
0000
0000
0000
0310
0001
1000
0001
0100
0000
0000
1000
0000
0000
0100
0000
,  // measure 50
0001
0000
0000
0010
0000
0000
0100
0000
2010
0000
0000
0000
0000
0000
3001
0100
,  // measure 51
0001
0100
0110
1001
,  // measure 52
0110
0000
0000
1020
0000
0000
0100
0000
0031
0000
0100
0001
0100
0000
0010
1000
,  // measure 53
0001
0100
0001
1000
0010
0100
0001
0010
0200
0000
0000
0300
1100
0000
0000
0000
,  // measure 54
1001
0000
0000
0220
0000
0000
0330
0000
0010
0000
0010
0000
1000
0001
1000
0000
,  // measure 55
2002
0000
0000
0000
0000
0000
0000
3003
0020
0000
0000
0230
0000
0000
0301
0000
,  // measure 56
2001
0000
0000
0000
3001
0100
0010
1000
0100
0000
0000
0010
0000
0000
0001
0000
,  // measure 57
0021
0000
0000
0000
0130
1000
0001
1000
0010
0000
0000
0001
0000
0000
0010
0000
,  // measure 58
1000
0000
0000
0100
0000
0000
0010
0000
0102
0000
0000
0000
0000
0000
1003
0010
,  // measure 59
1000
0000
0000
0000
0010
0000
0000
0000
0100
0000
0000
0000
0001
1000
0001
1000
,  // measure 60
0010
0000
0000
0000
0000
0000
0000
0000
0000
0100
0000
0000
0000
0000
0000
0000
0000
0000
0001
0000
0000
0000
0000
0000
1000
0000
0000
0000
0000
0000
0000
0000
0000
0000
0000
0000
0100
0000
0000
0000
0010
0000
0000
0000
0000
0000
0000
0000
,  // measure 61
0010
0000
0000
0000
0001
0000
0000
0000
0000
0000
0000
0000
1000
0000
0000
0100
0000
0000
0010
0000
0000
0001
0000
0000
0010
0000
0000
0000
0000
0000
0000
0000
0000
0000
0000
0000
0000
0000
0000
0000
0000
0000
0100
0000
0000
1000
0000
0000
,  // measure 62
0100
0000
0000
0010
0000
0000
0001
0000
1000
0000
0000
0010
0000
0000
0100
0000
,  // measure 63
0001
0000
0000
1000
0001
1000
0001
0000
0000
1000
0010
0100
,  // measure 64
0001
0000
0001
1000
0000
1000
0100
0000
0100
0010
0000
0010
,  // measure 65
0001
0010
0100
0010
0001
1000
0010
0000
0000
0100
0001
1000
,  // measure 66
0010
0000
0000
0100
0000
0000
0001
0000
1000
0000
0000
0100
0000
0000
0010
0000
,  // measure 67
0001
0100
0010
1000
0001
0010
0100
0010
0001
0100
0010
1000
0010
0100
0000
0100
,  // measure 68
0001
0010
0001
1000
0010
1000
0001
0100
0001
0010
0000
0010
0001
0100
0010
1000
,  // measure 69
0100
0010
0000
0000
1001
0000
1001
0000
0100
0000
0010
0100
0010
0000
0100
0000
,  // measure 70
0001
0100
0010
0000
1000
0010
0100
0000
0101
0000
0000
1100
0000
0000
1001
0000
,  // measure 71
0220
0000
0000
0000
0330
0000
0000
0000
1020
0000
0000
0100
0000
0000
0001
0000
,  // measure 72
0130
0000
0000
0000
0001
0010
0100
0010
1000
0000
0000
0010
0000
0000
0001
0000
,  // measure 73
2002
0000
3003
0000
1000
0001
1000
0010
0100
0000
0000
0010
0000
0000
1000
0000
,  // measure 74
0001
0000
0000
0010
0000
0000
0002
0000
2000
0000
0000
0000
3003
0000
0001
0100
,  // measure 75
0010
0000
0110
0000
1001
0001
0100
0000
,  // measure 76
1002
0100
1003
0000
1020
0100
0031
0000
,  // measure 77
0210
0001
1300
0000
0102
1000
0013
0000
,  // measure 78
2010
0100
3001
0000
0201
0010
1300
0000
,  // measure 79
0120
0000
0001
0000
1030
0000
0000
0000
0001
0100
0010
0100
0001
0000
0000
0000
,  // measure 80
1000
0100
0010
0100
1000
0000
0000
0000
0010
0100
1000
0100
0001
0000
0000
0000
,  // measure 81
1000
0010
0100
0001
0100
0000
0000
0000
0001
0010
0001
1000
0100
1000
0100
0010
,  // measure 82
0001
0100
1000
0100
0001
0010
0001
0100
1000
0100
0010
1000
0001
0010
0100
0010
,  // measure 83
1000
0001
0100
0010
0001
0010
0100
0000
0000
0000
0000
0000
0220
0000
0000
0000
,  // measure 84
0000
0000
0000
0000
,  // measure 85
0000
0000
0000
0000
0330
2002
0000
0000
,  // measure 86
0000
0000
0000
0000
,  // measure 87
0000
0000
0000
3003
;

//---------------dance-single - ----------------
#NOTEDATA:;
#CHARTNAME:;
#STEPSTYPE:dance-single;
#DESCRIPTION:;
#CHARTSTYLE:;
#DIFFICULTY:Medium;
#METER:12;
#RADARVALUES:0.735084,0.622793,0.239536,0.585532,0.106460,487.000000,27.000000,66.000000,0.000000,0.000000,0.000000,0.000000,0.000000,0.735084,0.622793,0.239536,0.585532,0.106460,487.000000,27.000000,66.000000,0.000000,0.000000,0.000000,0.000000,0.000000;
#CREDIT:;
#NOTES:
0000
0000
0000
0000
,
0000
0000
0000
0000
0000
0000
0001
1000
,
0002
0000
2003
0000
3200
0000
0310
0001
,
0020
0000
0200
0000
0330
0000
1000
0001
,
0200
0000
0320
0000
2030
0000
3001
0100
,
0020
0000
2000
0000
3030
0000
0001
0100
,
0002
0000
0203
0000
0320
0000
1030
0001
,
0200
0000
0002
0000
0303
0000
1000
0010
,
0200
0000
0302
0000
0023
0000
0130
1000
,
0002
0000
0000
0003
1000
0010
1000
0001
,
0100
0001
0010
0001
0000
1000
0100
1000
,
0000
0001
0010
0001
0010
0100
0010
0001
,
1000
0010
1000
0001
0000
0100
0001
1000
,
0010
0000
0000
0010
0000
0000
0010
0000
0100
0000
0001
0000
0100
0000
0001
0000
,
1000
0010
1000
0001
0000
1000
0100
1000
,
0100
0010
0001
0100
0001
0100
0010
1000
,
0010
0100
0001
0100
0000
0001
1000
0001
,
1000
0100
1000
0010
0100
0001
1000
0002
,
0000
0103
0010
0010
1000
0001
1000
0200
,
0000
0310
0001
0001
1000
0010
1000
0002
,
0000
0103
0010
0010
1000
0001
0100
0020
,
0000
0130
0001
0001
1000
0010
1000
0200
,
0000
1300
0010
0010
0100
0001
0100
0020
,
0000
1030
0001
0001
1000
0010
1000
0200
,
0000
0310
0001
1000
1000
0000
0001
0000
,
0100
1001
0001
1000
,
0001
0100
0010
0100
0001
0000
1000
0000
,
0100
0010
0100
0010
0001
0000
0100
0000
,
0010
1000
0010
0100
0001
0000
1000
0000
,
0100
0010
0100
1000
0001
0100
0010
0000
,
0010
1000
0010
1000
0001
0000
0100
0000
,
0001
1000
0001
1000
0100
0000
0010
0000
,
0001
0010
0001
0010
0100
0000
1000
0000
,
0010
0100
0001
1000
0001
0100
0110
0000
,
0010
1000
0010
0000
0100
0001
1001
0000
,
1000
0100
0010
0000
0001
0010
0011
0000
,
0001
1000
0100
0000
1000
0010
0110
0000
,
2000
0000
0002
3003
0100
0001
0100
0010
,
1000
0010
0100
0001
0010
0100
1000
0001
,
0010
0100
0010
0001
1000
0010
0100
0010
,
0100
0001
0010
0100
1000
0001
0100
0010
,
1000
0001
0100
0010
2000
0000
3020
0000
,
0230
0302
0023
0230
,
2300
3020
0130
1001
,
0100
0000
0000
0100
0000
0000
0001
0000
1000
0000
0001
0000
0100
0000
0010
0000
,
0100
0001
0010
0100
1000
0000
1100
0000
,
0010
0000
0000
0010
0000
0000
0000
0000
0001
0000
0001
0000
1000
0000
1000
0000
,
2002
0000
0000
0000
0000
0000
0000
3003
0010
0000
0000
0010
0000
0000
1000
0000
,
0002
0000
0000
0000
1003
0000
0010
0000
0100
0000
0000
0100
0000
0000
0010
0000
,
2000
0000
0000
0000
3010
0000
0100
0000
0001
0000
0000
0001
0000
0000
1000
0000
,
0010
0000
0000
0010
0000
0000
1000
0000
0002
0000
0000
0000
0000
0000
1000
0000
,
1003
0100
0010
1001
,
0010
0000
0000
0010
0000
0000
1000
0000
0001
0000
1000
0000
0010
0000
0100
0000
,
0010
1000
0100
0010
0001
0000
0011
0000
,
0100
0000
0000
0100
0000
0000
0000
0000
1000
0000
1000
0000
0001
0000
0001
0000
,
2002
0000
0000
0000
0000
0000
0000
3003
0100
0000
0000
0100
0000
0000
0001
0000
,
2000
0000
0000
0000
3001
0000
0100
0000
0010
0000
0000
0010
0000
0000
0100
0000
,
0002
0000
0000
0000
0103
0000
0010
0000
1000
0000
0000
1000
0000
0000
0001
0000
,
0100
0000
0000
0100
0000
0000
0001
0000
2000
0000
0000
0000
0000
0000
0001
0000
,
3001
0000
0010
0000
0100
0000
1000
0100
,
0010
0000
0000
0010
0000
0000
0001
0000
1000
0000
0000
0000
0020
0000
0000
0000
,
0230
0000
0301
1000
0001
0000
0000
0100
,
0010
0000
0000
0010
0000
0000
1000
0000
0001
0000
0000
0001
0000
0000
0100
0000
,
1000
0000
0100
0001
0100
0000
0010
0100
,
0002
0203
0320
2030
,
3001
0010
0100
0010
0001
0000
1000
0010
,
1000
0000
0000
0100
0000
0000
0010
0000
0001
0000
0000
1000
0000
0000
0010
0000
,
0100
0010
1000
0001
1000
0010
0100
0010
,
1000
0100
0010
0001
0010
0100
1000
0010
,
0100
0010
0000
0000
0100
0000
0100
0000
0001
0000
1000
0000
0000
0000
0001
0000
,
1000
0000
0010
0000
1000
0000
0001
0000
0101
0000
0000
0100
0000
0000
0100
0000
,
0020
0000
0000
0000
0030
0000
0000
0000
1000
0000
0000
0001
0000
0000
0100
0000
,
0001
0000
0000
0000
0001
0000
0010
0000
0100
0000
0000
1000
0000
0000
0001
0000
,
1000
0000
0000
0000
0010
0000
0100
0000
0001
0000
0000
0010
0000
0000
0100
0000
,
1000
0000
0000
0010
0000
0000
0100
0000
0020
0000
0000
0000
0000
0000
0130
0000
,
0010
0110
2001
3100
,
1002
0103
0120
1030
,
2010
3001
0012
1003
,
2100
3001
0201
0310
,
0120
0000
1030
0000
0001
0100
0101
0000
,
1000
0010
1010
0000
1000
0010
0110
0000
,
0001
1000
1010
0000
0001
0100
0001
0010
,
1000
0010
0001
0100
1000
0100
0001
0010
,
0100
0010
0001
1000
0000
0000
0220
0000
,
0000
0000
0000
0000
,
0000
0000
0000
0000
0330
2002
0000
0000
,
0000
0000
0000
0000
,
0000
0000
0000
3003
;

//---------------dance-single - ----------------
#NOTEDATA:;
#CHARTNAME:;
#STEPSTYPE:dance-single;
#DESCRIPTION:;
#CHARTSTYLE:;
#DIFFICULTY:Easy;
#METER:4;
#RADARVALUES:0.495548,0.622793,0.195177,0.638762,0.000000,297.000000,22.000000,72.000000,0.000000,0.000000,0.000000,0.000000,0.000000,0.495548,0.622793,0.195177,0.638762,0.000000,297.000000,22.000000,72.000000,0.000000,0.000000,0.000000,0.000000,0.000000;
#CREDIT:;
#NOTES:
0000
0000
0000
0000
,
0000
0000
0000
2000
,
3002
2003
3020
0230
,
0302
2003
3000
0020
,
2030
3002
0023
0230
,
2300
3002
0003
2000
,
3002
0203
0320
2030
,
3002
0203
0300
0002
,
0023
0230
2300
3002
,
0203
0000
0310
1000
,
0010
0100
0001
1000
,
0010
1000
0100
0010
,
0001
0010
0001
0100
,
0020
0000
0000
0130
0100
0000
0001
0000
,
1000
0001
1000
0100
,
1000
0010
0100
0010
,
0100
0001
1000
0010
,
0100
0000
0001
0000
0010
0000
0001
2000
,
0000
3100
0000
0000
0010
0000
0001
0200
,
0000
0310
0000
0000
1000
0000
1000
0002
,
0000
0103
0000
0000
0010
0000
1000
0002
,
0000
0103
0000
0000
0010
0000
1000
0200
,
0000
0310
0000
0000
0001
0000
1000
0020
,
0000
0130
0000
0000
0001
0000
1000
0200
,
0000
0310
0000
0000
0001
0000
0010
0000
,
0100
1001
0001
1000
,
0001
0100
0010
1000
,
0100
0010
0001
0010
,
0100
1000
0010
0100
,
0001
1000
0010
1000
,
0001
0100
0010
0100
,
0001
1000
0001
0010
,
0100
1000
0010
0100
,
0001
1000
0100
0110
,
0010
0001
1000
1001
,
0010
1000
0001
0101
,
0100
0010
1000
1010
,
0010
0200
0310
0100
,
0001
1000
0010
1000
,
0001
0100
0001
0010
,
0100
1000
0010
0100
,
0010
1000
0002
0023
,
0230
2300
3020
0230
,
0302
2003
3010
0100
,
0100
0000
0001
1000
,
0001
0100
0010
1000
,
1000
0000
0001
1000
,
2002
0000
0000
0000
0000
0000
0000
3003
0010
0000
0000
0000
0000
0000
0100
0000
,
0002
0000
0003
0000
1000
0000
0000
0010
,
0200
0000
0300
0000
0010
0000
0000
0100
,
0001
0000
0000
1000
0010
0000
0000
0100
,
0001
0000
0010
0100
,
0100
0000
0001
0010
,
0100
1000
0100
0010
,
0010
0000
1000
0001
,
2002
0000
0000
0000
0000
0000
0000
3003
0100
0000
0000
0000
0000
0000
0001
0000
,
2000
0000
3000
0000
0001
0000
0000
1000
,
0020
0000
0030
0000
1000
0000
0000
0001
,
0100
0000
0000
0001
2000
0000
0000
3001
,
0100
0010
0200
0000
,
0320
0000
1030
0020
,
0230
0000
0301
0000
1001
0000
0000
0010
,
0010
0000
0000
1000
0001
0000
0000
0001
,
1000
0000
0100
0000
,
0001
1000
0010
0200
,
0302
2003
3001
0000
,
1010
0000
0101
0000
,
0010
0010
1000
0100
,
1000
0001
0001
1000
,
0100
0000
0010
0000
0001
1000
0000
0000
,
1000
0000
0010
0000
1001
0000
0000
0100
,
0020
0000
0030
0000
1000
0000
0000
0001
,
0100
0000
0000
0000
0010
0000
0000
1000
,
0001
0000
0000
0000
1000
0000
0000
0001
,
0100
0000
0000
0100
0010
0000
0000
0010
,
0100
0110
1001
0000
,
1001
0000
0110
0000
,
1010
0000
0011
0000
,
1010
0000
0110
0000
,
1001
0000
1000
0001
,
0100
0010
0100
0001
,
1000
0100
0020
0032
,
0023
0230
2300
3002
,
0203
0000
0310
0100
0000
0000
0220
0000
,
0000
0000
0000
0000
,
0000
0000
0000
0000
0330
2002
0000
0000
,
0000
0000
0000
0000
,
0000
0000
0000
3003
;

//---------------dance-single - ----------------
#NOTEDATA:;
#CHARTNAME:;
#STEPSTYPE:dance-single;
#DESCRIPTION:;
#CHARTSTYLE:;
#DIFFICULTY:Beginner;
#METER:2;
#RADARVALUES:0.294033,0.311397,0.115332,0.416970,0.000000,172.000000,13.000000,47.000000,0.000000,0.000000,0.000000,0.000000,0.000000,0.294033,0.311397,0.115332,0.416970,0.000000,172.000000,13.000000,47.000000,0.000000,0.000000,0.000000,0.000000,0.000000;
#CREDIT:;
#NOTES:
0000
0000
0000
0000
,
0000
0000
0000
2000
,
3000
2000
3000
0200
,
0300
2000
3000
0020
,
0030
0002
0003
0200
,
0300
0002
0003
2000
,
3000
0200
0300
2000
,
3000
0200
0300
0002
,
0003
0200
0300
0002
,
0203
0000
0310
0000
,
0010
0000
0001
0000
,
0010
0000
0100
0000
,
0001
0000
0001
0000
,
0020
0000
0000
0030
0100
0000
0000
0000
,
1000
0000
1000
0000
,
1000
0000
0100
0000
,
0100
0000
1000
0000
,
0100
0000
0000
0000
0010
0000
0000
2000
,
0000
3100
0000
0000
0010
0000
0000
0200
,
0000
0310
0000
0000
1000
0000
0000
0002
,
0000
0103
0000
0000
0010
0000
0000
0002
,
0000
0103
0000
0000
0010
0000
0000
0200
,
0000
0310
0000
0000
0001
0000
0000
0020
,
0000
0130
0000
0000
0001
0000
0000
0200
,
0000
0310
0000
0000
0001
0000
0000
0000
,
0100
0000
1001
0000
,
0001
0000
0010
0000
,
0100
0000
0001
0000
,
0100
0000
0010
0000
,
0001
0000
0010
0000
,
0001
0000
0010
0000
,
0001
0000
0001
0000
,
0100
0000
0010
0000
,
0001
0000
0100
0110
,
0000
0001
0000
1001
,
0000
1000
0000
0101
,
0000
0010
0000
1010
,
0000
0100
0000
0100
,
0000
1000
0000
1000
,
0000
0100
0000
0010
,
0000
1000
0000
0100
,
0000
1000
0002
0000
,
2003
0000
3020
0000
,
0230
0000
0310
0000
,
0100
0000
0001
0000
,
0001
0000
0010
0000
,
1000
0000
0001
0000
,
2000
0000
3010
0000
,
0002
0003
1000
0000
,
0200
0300
0010
0000
,
0001
0000
0010
0000
,
0001
0000
0010
0000
,
0100
0000
0001
0000
,
0100
0000
0100
0000
,
0010
0000
1000
0000
,
0002
0000
0000
0000
0000
0000
0000
0003
0100
0000
0000
0000
0000
0000
0000
0000
,
2000
3000
0001
0000
,
0020
0030
1000
0000
,
0100
0000
0000
0000
2000
0000
0000
3000
,
0100
0000
0200
0000
,
0320
0000
1030
0000
,
0200
0300
1001
0000
,
0010
0000
0001
0000
,
1000
0000
0100
0000
,
0001
0000
0000
0200
,
0300
0020
1030
0000
,
0010
0000
0100
0000
,
0010
0000
1000
0000
,
1000
0000
0001
0000
,
0100
0000
0001
0000
,
1000
0000
1001
0000
,
0020
0030
1000
0000
,
0100
0000
0010
0000
,
0001
0000
1000
0000
,
0100
0000
0010
0000
,
0100
0000
0001
0000
,
1001
0000
0010
0000
,
0110
0000
1000
0000
,
1010
0000
0001
0000
,
0101
0000
1000
0000
,
0001
0000
1000
0000
,
0010
0000
2000
0000
,
0000
0000
0002
0000
,
0000
0000
0000
3003
0000
0000
0220
0000
,
0000
0000
0000
0000
,
0000
0000
0000
0000
0330
2002
0000
0000
,
0000
0000
0000
0000
,
0000
0000
0000
3003
;
