#TITLE:smile;
#SUBTITLE:;
#ARTIST:miru_maki.gjw;
#TITLETRANSLIT:;
#SUBTITLETRANSLIT:;
#ARTISTTRANSLIT:;
#CREDIT:;
#BANNER:smile-bn.png;
#BACKGROUND:;
#LYRICSPATH:;
#CDTITLE:;
#MUSIC:smile.mp3;
#OFFSET:-0.300;
#SAMPLESTART:105.000;
#SAMPLELENGTH:12.000;
#SELECTABLE:YES;
#BPMS:0.000=189.000;
#STOPS:;
#BGCHANGES:0.000=smile.avi=1.000=0=0=1,
99999=-nosongbg-=1.000=0=0=0 // don't automatically add -songbackground-
;

//---------------dance-single - ----------------
#NOTES:
     dance-single:
     :
     Hard:
     14:
     0.772,0.778,0.392,0.256,0.117:
0000
0000
0000
0000
0000
0000
0000
2001
,
0000
0000
0000
0200
0000
0000
3000
0020
,
0000
0000
0300
0002
0000
0000
0030
0200
,
0000
0000
0003
2000
0000
0000
0300
0200
,
0000
0000
3000
0301
0001
1000
1000
0010
,
0010
0000
0100
0000
0100
0001
1000
0000
0000
0000
1100
0000
0000
0000
1001
0000
,
0000
0101
0000
0110
0000
1010
0000
1001
,
0000
0101
0100
0010
0100
1000
0100
0010
,
0100
1000
0100
0002
0000
0020
0003
0200
,
0030
2000
0300
3001
1000
0001
0100
0001
,
0010
0001
0010
0100
1000
0010
0000
0100
,
0100
0100
0000
0010
1000
0001
0100
0010
,
1000
0001
0100
0010
1000
0001
0100
0010
,
0010
0010
0000
1000
0001
1000
0010
1000
,
0100
1000
0100
0010
0001
1000
0000
0001
,
0001
0001
0000
0100
0010
1000
0001
1000
,
0010
0100
0010
1010
0000
1001
0000
0101
,
0100
0001
1000
0001
1000
0000
0001
0000
0010
0000
0100
0000
1000
0000
0100
0000
,
0001
0100
1000
0010
0100
0001
0000
1000
,
1000
1000
0000
0010
0100
0001
1000
0010
,
0100
0001
0010
0100
1000
0010
0100
0001
,
0001
0001
0000
0010
0100
1000
0100
0010
,
0100
1000
0010
0100
0001
0100
0000
0010
,
0010
0010
0000
1000
0001
1000
0001
0100
,
0010
0100
0010
1010
0000
1001
0000
1100
,
0000
0110
0000
0012
0000
0000
0000
0000
,
0003
1000
0100
0000
0000
0000
0000
0010
,
0000
0001
0000
1000
0010
0000
0010
1000
,
0000
1000
0100
0000
0000
0000
0000
1001
,
0000
0101
0000
0110
0100
0000
0100
0010
,
0000
1010
0000
0110
0000
0101
0000
1010
,
0000
0101
0000
1002
0000
1000
0000
1003
,
0000
0000
1000
0000
0000
0000
0100
0000
0100
0000
0110
0000
0000
0010
0001
0000
,
1000
0001
1000
0000
0100
0000
1000
0000
0010
0000
0100
0000
0001
0000
0010
0000
,
0100
1000
0100
0010
0001
0010
0100
1000
,
0001
0100
0010
1000
0100
1000
0100
0010
,
0001
0100
1000
0100
0001
0010
1000
0010
,
0001
1000
0100
0010
0001
0010
0100
1000
,
0100
0010
0001
1000
0010
0100
0001
1000
,
0100
0010
0001
0010
0100
1000
0001
0010
,
0001
0000
1000
0000
0100
0000
1000
0000
0010
0000
0100
0001
0000
0001
1000
0000
,
0100
0010
0100
0000
1000
0000
0000
0000
1000
0000
0010
0000
0100
0000
0000
0000
,
0001
0010
0100
0000
1000
0100
1000
0000
,
0001
0010
0001
0000
1000
0010
0100
0000
,
0001
0010
0100
0000
1000
0001
0100
0000
,
0010
0100
1000
0000
1000
0100
0001
0000
,
0001
0010
0100
0000
1000
0001
0100
0000
,
0000
0001
1000
0200
0000
1000
0000
0000
,
1300
0000
0001
0000
0010
0000
0100
1000
0000
1000
0100
0000
0010
0000
0001
1000
,
0001
0010
0100
1000
0001
0000
0100
0000
0010
0000
1000
0000
1000
0000
0000
0000
,
0100
0010
0010
0000
1000
0100
0100
0000
,
0010
0001
0001
0000
0010
0100
0100
0000
,
1000
0001
0001
0000
0100
0010
0010
0000
,
0100
0001
0001
0000
0010
0100
1000
0000
,
0010
0100
0001
0000
1000
0100
1000
0000
,
0001
0100
0001
0110
0000
1010
0000
0101
,
0000
1001
0000
0020
0000
0100
0000
1030
,
0000
0000
1000
0000
0002
0000
0000
0000
0013
0000
0100
0000
1000
0001
0100
0010
,
0100
0001
0010
0001
1000
0000
0010
0000
0100
0000
0001
0000
2000
0000
0000
0000
,
3001
0000
1000
0000
0020
0000
0000
0000
1030
0000
0001
0000
0100
0010
1000
0010
,
0100
0001
0010
0001
1000
0000
0100
0000
0010
0000
0001
0000
2000
0000
0000
0000
,
3010
0100
0001
0100
1000
0100
0010
0100
,
0001
0010
0100
1000
0100
0010
0001
0010
,
0100
0010
0001
0010
1000
0010
0100
1000
,
0001
0010
0100
1000
0100
1000
0001
0010
,
0001
1000
0010
1000
0000
0001
0101
0000
,
1000
1001
0000
0110
0000
0001
0011
0000
,
1000
1100
0000
1001
0000
0010
0110
0000
,
0100
1100
0000
1001
0000
0010
0011
0000
,
0010
0100
1000
0100
0010
0001
1000
0010
,
0100
1000
0100
0001
0010
1000
0010
0001
,
1000
0010
0100
0001
1000
0100
0010
0001
,
0010
0100
1000
0010
0001
0010
1000
0100
,
0001
0100
1000
0002
0000
1000
0000
0203
,
0000
0001
0000
0320
0000
0100
0000
2030
,
0000
0100
0000
3002
0000
1000
0000
0203
,
0000
0010
0000
2300
0000
0100
0000
3200
,
0000
0010
0000
0301
0000
1000
0100
0000
,
0100
1000
0000
1010
0000
0010
0100
0000
,
0010
0100
0001
2001
0000
0200
3000
0020
,
0300
0002
0030
0000
0000
0000
0000
0000
,
0000
0000
0023
0000
0000
0000
0000
0000
0000
0000
0000
0000
0000
0000
0031
0100
,
0001
0010
0100
1000
0100
0010
0001
0000
1000
0000
0001
0000
0100
0000
0001
0000
,
0010
0001
0010
0100
1000
0010
0000
0100
,
0110
0100
0000
0010
1000
0001
0100
0010
,
1000
0001
0100
0010
1000
0001
0100
0010
,
1010
0010
0000
1000
0001
1000
0010
1000
,
0100
1000
0100
0010
0001
1000
0000
0001
,
0011
0001
0000
0100
0010
1000
0001
1000
,
0010
0100
0010
1010
0000
1001
0000
0101
,
0100
0010
1000
0001
0100
0000
0001
0000
0010
0000
0100
0000
1000
0000
0100
0000
,
0001
0100
1000
0010
0100
0001
0000
1000
,
1010
1000
0000
0010
0100
0001
1000
0010
,
0100
0001
0010
0100
1000
0010
0100
0001
,
0101
0001
0000
0010
0100
1000
0100
0010
,
0100
1000
0010
0100
0001
0100
0000
0010
,
0110
0010
0000
1000
0001
1000
0001
0100
,
0010
0000
0100
0000
0010
0000
2010
0000
0000
0000
3002
0000
0000
0000
1003
0010
,
0100
0001
1000
0010
0100
0001
1000
0000
0000
0000
0000
0000
0000
0000
0000
0000
;

//---------------dance-single - Copied from----------------
#NOTES:
     dance-single:
     Copied from:
     Medium:
     11:
     0.623,0.630,0.233,0.248,0.004:
0000
0000
0000
0000
0000
0000
0000
1002
,
0000
0000
0000
0023
0000
0000
0000
0230
,
0000
0000
0000
2300
0000
0000
0000
3020
,
0000
0000
0000
0032
0000
0000
0000
0023
,
0000
0000
0000
1030
0001
1000
0001
0100
,
0010
0100
0010
0200
0000
0310
0000
1001
,
0000
0100
0000
1001
0000
0010
0000
1001
,
0000
0110
0000
0100
0001
0100
0001
0100
,
0001
0100
0001
2000
0000
3200
0000
0320
,
0000
0032
0000
1003
0001
1000
0000
0001
,
0100
0001
0000
0100
0010
1000
0000
0010
,
0100
0010
0000
0100
0001
1000
0000
0001
,
0100
0001
0000
1000
0001
1000
0000
0100
,
0010
0100
0000
1000
0001
0010
0000
0100
,
1000
0100
0000
0010
0001
0010
0000
0100
,
1000
0100
0000
0010
0001
0010
0000
0100
,
1000
0100
0000
1100
0000
1001
0000
0011
,
0000
1001
0000
0001
1000
0001
0000
1000
,
0010
1000
0000
0010
0100
0001
0000
0100
,
0010
0100
0000
0010
1000
0001
0000
1000
,
0010
1000
0000
0001
1000
0001
0000
0010
,
0100
0010
0000
0001
1000
0100
0000
0010
,
0001
0010
0000
0100
1000
0100
0000
0010
,
0001
0010
0000
0100
1000
0100
0000
0010
,
0001
0010
0000
0011
0000
1001
0000
1100
,
0000
1001
0000
0200
0000
0000
0000
0000
,
0300
0010
0010
0000
0000
0000
0000
0100
,
0000
1000
0000
0001
1000
0000
0001
1000
,
0000
0001
2000
0000
0000
3000
0000
0010
,
0000
0010
0000
1001
0000
0000
0000
0100
,
0000
0001
0000
0010
0000
0100
0000
1000
,
0000
0100
0000
0020
0000
0001
0000
0001
,
0000
0031
0000
0010
0010
0010
0000
0100
,
1000
0100
0000
0001
1000
0010
0000
1000
,
0001
0100
0000
0010
1000
0100
0000
0010
,
0001
0010
0000
0100
1000
0001
0000
0100
,
0010
1000
0000
0001
0100
0010
0000
1000
,
0010
0100
0000
0001
0100
0010
0000
1000
,
0100
0010
0000
0001
0100
0010
0000
1000
,
0001
1000
0000
0001
0100
0010
0000
1000
,
0001
1000
0000
0001
0100
0001
1000
0001
,
0010
0100
1000
0000
0001
0100
0010
0000
,
1000
0100
0010
0000
0001
0010
0001
0000
,
1000
0100
1000
0000
0001
0100
0010
0000
,
1000
0100
0010
0000
0001
1000
0010
0000
,
0100
0010
0001
0000
0001
0010
1000
0000
,
1000
0100
0010
0000
0001
1000
0010
0000
,
0000
1000
0001
2000
0000
0000
0000
0000
,
3001
1000
0001
1000
0010
0100
0010
0100
,
0001
1000
0001
0000
0100
0001
0100
0000
,
0010
0100
0010
0000
0100
0010
0001
0000
,
0010
1000
0100
0000
0010
0001
0010
0000
,
0001
0010
1000
0000
0010
0100
1000
0000
,
0010
0100
0001
0000
0100
0010
1000
0000
,
0001
1000
0010
0000
0100
0001
1000
0000
,
0001
0100
0001
0101
0000
0101
0000
1010
,
0000
1010
0000
0100
0000
0010
0000
0100
,
0000
0001
2000
0000
3100
0010
0001
0010
,
0100
1000
0100
0010
0001
1000
0002
0000
,
1003
0001
0200
0000
0301
0100
0010
1000
,
0001
0100
0010
1000
0100
0010
0002
0000
,
0103
0010
1000
0010
0100
0001
0100
0010
,
0000
0000
0000
1000
0010
1000
0001
0100
,
0000
0000
0000
0001
1000
0010
0100
0001
,
1000
0100
0010
0001
0010
0001
1000
0100
,
1000
0001
1000
0001
0000
1000
1000
0000
,
0001
0001
0000
0110
0000
1000
1000
0000
,
0010
0010
0000
1001
0000
0100
0100
0000
,
0010
0010
0000
0101
0000
1000
1000
0000
,
0000
0010
0100
0010
0000
1000
0001
0100
,
0000
0010
1000
0001
0000
0100
0010
1000
,
0000
0001
0100
0001
0000
1000
0001
1000
,
0000
0010
0100
0101
0000
0010
0000
1001
,
0000
0100
0000
2010
0000
0000
0000
3002
,
0000
0000
0000
0203
0000
0000
0000
0320
,
0000
0000
0000
2030
0000
0000
0000
3200
,
0000
0000
0000
0320
0000
0000
0000
0032
,
0000
0000
0000
1003
0000
0001
0100
0000
,
0000
0000
0000
0010
0000
0100
0001
0000
,
0000
0001
1000
0002
0000
0023
0000
0230
,
0000
2300
0000
0000
0000
0000
0000
0000
,
0000
3200
0000
0000
0000
0000
0000
1300
,
1000
0100
0100
1000
0001
1000
0000
0001
,
0100
0001
0000
0100
0010
1000
0000
0010
,
0100
0010
0000
0100
0001
1000
0000
0001
,
0100
0001
0000
1000
0001
1000
0000
0100
,
0010
0100
0000
1000
0001
0010
0000
0100
,
1000
0100
0000
0010
0001
0010
0000
0100
,
1000
0100
0000
0010
0001
0010
0000
0100
,
1000
0100
0000
1100
0000
1001
0000
0011
,
0000
1001
0000
0001
1000
0001
0000
1000
,
0010
1000
0000
0010
0100
0001
0000
0100
,
0010
0100
0000
0010
1000
0001
0000
1000
,
0010
1000
0000
0001
1000
0001
0000
0010
,
0100
0010
0000
0001
1000
0100
0000
0010
,
0001
0010
0000
0100
1000
0100
0000
0010
,
0001
0010
0000
0100
1000
0100
0000
0010
,
0001
0010
0000
0011
0000
1001
0000
0110
,
0000
0000
0010
0000
1000
0001
1000
0000
0000
0000
0000
0000
0000
0000
0000
0000
;

//---------------dance-single - Copied from Copied f----------------
#NOTES:
     dance-single:
     Copied from Copied f:
     Easy:
     5:
     0.466,0.481,0.158,0.271,0.000:
0000
0000
0000
0000
0000
0000
0000
0002
,
0000
0000
0000
0023
0000
0000
0000
0230
,
0000
0000
0000
2300
0000
0000
0000
3020
,
0000
0000
0000
0230
0000
0000
0000
0320
,
0000
0000
0000
0130
0000
0100
0000
0010
,
0000
0010
0000
0200
0000
0310
0000
1001
,
0000
1001
0000
1001
0000
1001
0000
1001
,
0000
1001
0000
0100
0000
0010
0000
0100
,
0000
0010
0000
2000
0000
3002
0000
0203
,
0000
0320
0000
1030
0000
1000
0000
0001
,
0000
0001
0000
0100
0000
0100
0000
0010
,
0100
0010
0000
0100
0000
0100
0000
0001
,
0000
0001
0000
1000
0000
1000
0000
0100
,
0010
0100
0000
0010
0000
0010
0000
0100
,
0000
0100
0000
0010
0000
0010
0000
0100
,
1000
0100
0000
0010
0000
0010
0000
0001
,
0000
0001
0000
1000
0000
1001
0000
0010
,
0000
0110
0000
0100
0000
0100
0000
1000
,
0000
1000
0000
0010
0000
0010
0000
0100
,
0010
0100
0000
0010
0000
0010
0000
1000
,
0000
1000
0000
0001
0000
0001
0000
0010
,
0100
0010
0000
0100
0000
0100
0000
0010
,
0000
0010
0000
0100
0000
0100
0000
0010
,
0001
0010
0000
0100
0000
0100
0000
0010
,
0000
0010
0000
0001
0000
1001
0000
0100
,
0000
0110
0000
0200
0000
0000
0000
0000
,
0300
0010
0010
0000
0000
0000
0000
0100
,
0000
0010
0000
2000
0000
3000
0002
0000
,
0003
0000
2000
0000
0000
3000
0000
0010
,
0000
0010
0000
1001
0000
0000
0000
1000
,
0000
0001
0000
1000
0000
0001
0000
1000
,
0000
0001
0000
0200
0000
0000
0000
0000
,
0000
0300
0000
0010
0000
0010
0000
0100
,
0100
0100
0000
0001
0000
0010
0000
0100
,
0000
1000
0000
0010
0000
0100
0000
0001
,
0000
1000
0000
0010
0000
1000
0000
0001
,
0000
0100
0000
0001
0000
0010
0000
0100
,
0000
1000
0000
0010
0000
0100
0000
0010
,
0000
1000
0000
0001
0000
1000
0000
0010
,
0000
0100
0000
0001
0000
0010
0000
0001
,
0000
0100
0000
1000
0000
0100
0001
0010
,
0100
1000
0001
0000
0000
0100
0010
0000
,
0000
1000
0010
0000
0000
0010
1000
0000
,
0000
0001
1000
0000
0000
0010
0100
0000
,
0000
0100
0001
0000
0000
0010
1000
0000
,
0000
0001
1000
0000
0000
0100
0010
0000
,
0000
0001
1000
0000
0000
1000
0010
0000
,
0000
0100
0001
2000
0000
0000
0000
0000
,
3001
1000
0002
0000
0000
0000
0000
0000
,
0003
1000
0001
0000
0000
0001
0100
0000
,
0000
0100
0010
0000
0000
0010
1000
0000
,
0000
1000
0100
0000
0000
0010
0001
0000
,
0000
0001
1000
0000
0000
0010
1000
0000
,
0000
0001
0100
0000
0000
0010
0100
0000
,
0000
0001
0010
0000
0000
0100
1000
0000
,
0001
0100
0001
0100
0000
0010
0000
1000
,
0000
0010
0000
0100
0000
0010
0000
0100
,
0000
0001
2000
0000
3000
0010
0000
0100
,
0000
0001
0000
0010
0000
0001
0200
0000
,
0300
0010
0200
0000
0300
0001
0000
1000
,
0000
0100
0000
1000
0000
0100
0002
0000
,
0003
0010
0000
0010
0000
0001
0000
0010
,
0000
0000
0000
1000
0000
0100
0000
1000
,
0000
0000
0000
0001
0000
0010
0000
0001
,
0000
1000
0000
0100
0000
1000
0000
0010
,
0000
0100
0000
0010
0000
1000
1000
0000
,
0001
0001
0000
0110
0000
1000
1000
0000
,
0010
0010
0000
1001
0000
0100
0100
0000
,
0010
0010
0000
0101
0000
1000
1000
0000
,
0000
0010
0000
0010
0000
0100
0000
0100
,
0000
0010
0000
0001
0000
0100
0000
1000
,
0000
0001
0000
0001
0000
1000
0000
1000
,
0000
0010
0000
1001
0000
0100
0000
0110
,
0000
0100
0000
2001
0000
0000
0000
3020
,
0000
0000
0000
2030
0000
0000
0000
3002
,
0000
0000
0000
0023
0000
0000
0000
0230
,
0000
0000
0000
2300
0000
0000
0000
3002
,
0000
0000
0000
1003
0000
0000
0010
0000
,
0000
0000
0000
0100
0000
0000
0001
0000
,
0000
0001
1000
0002
0000
0023
0000
0230
,
0000
2300
0000
0000
0000
0000
0000
0000
,
0000
3002
0000
0000
0000
0000
0000
0103
,
0000
0100
0000
0001
0000
0001
0000
1000
,
0000
1000
0000
0010
0000
0010
0000
0100
,
0010
0100
0000
0010
0000
0010
0000
1000
,
0000
1000
0000
0001
0000
0001
0000
0010
,
0100
0010
0000
0100
0000
0100
0000
0010
,
0000
0010
0000
0100
0000
0100
0000
0010
,
0001
0010
0000
0100
0000
0100
0000
1000
,
0000
1000
0000
0001
0000
1001
0000
0100
,
0000
0110
0000
0010
0000
0010
0000
0001
,
0000
0001
0000
0100
0000
0100
0000
0010
,
0100
0010
0000
0100
0000
0100
0000
0001
,
0000
0001
0000
1000
0000
1000
0000
0100
,
0010
0100
0000
0010
0000
0010
0000
0100
,
0000
0100
0000
0010
0000
0010
0000
0100
,
1000
0100
0000
0010
0000
0010
0000
0100
,
0000
0010
0000
1000
0000
1001
0000
1001
,
0000
0010
0100
0001
0000
0000
0000
0000
;

//---------------dance-single - Copied from Copied from Copied f----------------
#NOTES:
     dance-single:
     Copied from Copied from Copied f:
     Beginner:
     3:
     0.267,0.370,0.015,0.279,0.000: // measure 1
0000
0000
0000
0000
0000
0000
0000
0002
,  // measure 2
0000
0000
0000
0000
0000
0000
0000
0203
,  // measure 3
0000
0000
0000
0000
0000
0000
0000
0320
,  // measure 4
0000
0000
0000
0000
0000
0000
0000
2030
,  // measure 5
0000
0000
0000
3100
0000
0000
0000
0010
,  // measure 6
0000
0000
0000
0200
0000
0300
0000
0001
,  // measure 7
0000
0001
0000
0001
0000
0001
0000
0001
,  // measure 8
0000
0001
0000
0100
0000
0000
0000
0100
,  // measure 9
0000
0000
0000
0020
0000
2030
0000
3002
,  // measure 10
0000
0203
0000
0310
0000
0000
0000
1000
,  // measure 11
0000
0000
0000
0001
0000
0000
0000
0010
,  // measure 12
0000
0000
0000
0100
0000
0000
0000
0001
,  // measure 13
0000
0000
0000
1000
0000
0000
0000
0100
,  // measure 14
0000
0000
0000
0010
0000
0000
0000
0100
,  // measure 15
0000
0000
0000
0010
0000
0000
0000
0100
,  // measure 16
0000
0000
0000
0010
0000
0000
0000
0001
,  // measure 17
0000
0000
0000
1000
0000
0002
0000
0003
,  // measure 18
0000
2000
0000
3010
0000
0000
0000
1000
,  // measure 19
0000
0000
0000
0010
0000
0000
0000
0100
,  // measure 20
0000
0000
0000
0010
0000
0000
0000
1000
,  // measure 21
0000
0000
0000
0001
0000
0000
0000
0010
,  // measure 22
0000
0000
0000
0100
0000
0000
0000
0010
,  // measure 23
0000
0000
0000
0100
0000
0000
0000
0010
,  // measure 24
0000
0000
0000
0100
0000
0000
0000
0010
,  // measure 25
0000
0000
0000
0001
0000
0000
0000
1000
,  // measure 26
0000
0000
0000
0200
0000
0000
0000
0000
,  // measure 27
0300
0000
0010
0000
0000
0000
0000
0100
,  // measure 28
0000
0000
0000
2000
0000
3000
0000
0002
,  // measure 29
0000
0003
0000
2000
0000
3000
0000
0010
,  // measure 30
0000
0000
0000
1001
0000
0000
0000
1000
,  // measure 31
0000
0000
0000
0001
0000
0000
0000
1000
,  // measure 32
0000
0000
0000
0020
0000
0000
0000
0000
,  // measure 33
0030
0000
0000
0100
0000
0100
0000
0000
,  // measure 34
0100
0100
0000
0001
0000
0000
0000
0100
,  // measure 35
0000
0000
0000
0010
0000
0000
0000
0001
,  // measure 36
0000
0000
0000
0010
0000
0000
0000
0001
,  // measure 37
0000
0000
0000
0001
0000
0000
0000
0100
,  // measure 38
0000
0000
0000
0010
0000
0000
0000
0010
,  // measure 39
0000
0000
0000
0001
0000
0000
0000
0010
,  // measure 40
0000
0000
0000
0001
0000
0000
0000
0001
,  // measure 41
0000
0000
0000
1000
0000
0000
0000
0100
,  // measure 42
0000
0000
0001
0000
0000
0100
0000
0000
,  // measure 43
0000
1000
0000
0000
0000
0010
0000
0000
,  // measure 44
0000
0001
0000
0000
0000
0010
0000
0000
,  // measure 45
0000
0100
0000
0000
0000
0010
0000
0000
,  // measure 46
0000
0001
0000
0000
0000
0100
0000
0000
,  // measure 47
0000
0001
0000
0000
0000
1000
0000
0000
,  // measure 48
0000
0100
0000
2000
0000
0000
0000
0000
,  // measure 49
3000
0001
0000
0002
0000
0000
0000
0000
,  // measure 50
0003
1000
0000
0000
0000
0001
0000
0000
,  // measure 51
0000
0100
0000
0000
0000
0010
0000
0000
,  // measure 52
0000
1000
0000
0000
0000
0010
0000
0000
,  // measure 53
0000
0001
0000
0000
0000
0010
0000
0000
,  // measure 54
0000
0001
0000
0000
0000
0010
0000
0000
,  // measure 55
0000
0001
0000
0000
0000
0100
0000
0000
,  // measure 56
0000
0100
0000
0100
0000
0010
0000
0000
,  // measure 57
0000
0010
0000
0100
0000
0010
0000
0000
,  // measure 58
0000
0001
2000
0000
3000
0010
0000
0000
,  // measure 59
0000
0001
0000
0000
0000
0001
0200
0000
,  // measure 60
0300
0000
0020
0000
0030
1000
0000
0000
,  // measure 61
0000
0001
0000
0000
0000
1000
0002
0000
,  // measure 62
0003
0010
0000
0000
0000
0100
0000
0001
,  // measure 63
0000
0000
0000
1000
0000
0000
0000
1000
,  // measure 64
0000
0000
0000
0001
0000
0000
0000
0001
,  // measure 65
0000
0000
0000
0100
0000
0000
0000
0010
,  // measure 66
0000
0000
0000
0010
0000
0000
1000
0000
,  // measure 67
0000
0001
0000
0001
0000
0000
1000
0000
,  // measure 68
0000
0010
0000
0010
0000
0000
0100
0000
,  // measure 69
0000
0010
0000
1000
0000
0000
1000
0000
,  // measure 70
0000
0001
0000
0000
0000
1000
0000
0002
,  // measure 71
0000
0000
0000
2003
0000
0000
0000
3020
,  // measure 72
0000
0000
0000
0130
0000
0000
0000
0100
,  // measure 73
0000
0000
0000
0001
0000
0000
0000
1000
,  // measure 74
0000
0000
0000
2000
0000
0000
0000
0000
,  // measure 75
0000
0000
0000
3002
0000
0000
0000
0000
,  // measure 76
0000
0000
0000
0203
0000
0000
0000
0000
,  // measure 77
0000
0000
0000
0320
0000
0000
0000
0000
,  // measure 78
0000
0000
0000
1030
0000
0000
0010
0000
,  // measure 79
0000
0000
0000
0100
0000
0000
0001
0000
,  // measure 80
0000
0000
1000
0002
0000
2003
0000
3002
,  // measure 81
0000
2003
0000
0000
0000
0000
0000
0000
,  // measure 82
0000
3002
0000
0000
0000
0000
0000
0203
,  // measure 83
0000
0000
0000
0310
0000
0000
0000
0001
,  // measure 84
0000
0000
0000
1000
0000
0000
0000
0100
,  // measure 85
0000
0000
0000
0010
0000
0000
0000
1000
,  // measure 86
0000
0000
0000
0001
0000
0000
0000
0010
,  // measure 87
0000
0000
0000
0100
0000
0000
0000
0010
,  // measure 88
0000
0000
0000
0100
0000
0000
0000
0010
,  // measure 89
0000
0000
0000
0100
0000
0000
0000
1000
,  // measure 90
0000
0000
0000
0001
0000
2000
0000
3000
,  // measure 91
0000
0002
0000
0103
0000
0000
0000
0001
,  // measure 92
0000
0000
0000
0100
0000
0000
0000
0010
,  // measure 93
0000
0000
0000
0100
0000
0000
0000
0001
,  // measure 94
0000
0000
0000
1000
0000
0000
0000
0100
,  // measure 95
0000
0000
0000
0010
0000
0000
0000
0100
,  // measure 96
0000
0000
0000
0010
0000
0000
0000
0100
,  // measure 97
0000
0000
0000
0010
0000
0000
0000
0100
,  // measure 98
0000
0000
0000
1000
0000
0010
0000
0010
,  // measure 99
0000
0100
0000
0110
0000
0000
0000
0000
;
