#TITLE:shamshir no mai;
#SUBTITLE:;
#ARTIST:Zektbach;
#TITLETRANSLIT:;
#SUBTITLETRANSLIT:;
#ARTISTTRANSLIT:;
#GENRE:;
#CREDIT:;
#BANNER:shamshir no mai-bn.png;
#BACKGROUND:shamshir no mai-bg.png;
#LYRICSPATH:;
#CDTITLE:;
#MUSIC:shamshir no mai.mp3;
#OFFSET:0.170000;
#SAMPLESTART:33.390179;
#SAMPLELENGTH:12.000000;
#SELECTABLE:YES;
#BPMS:0.000000=100.000000
,25.000000=155.000000
,241.000000=150.000000
,243.000000=142.000000
,245.000000=134.000000
;
#STOPS:
;
#BGCHANGES:;
#KEYSOUNDS:;
#ATTACKS:;

//---------------dance-single - ----------------
#NOTES:
     dance-single:
     :
     Hard:
     14:
     0.748603,0.872289,0.475598,0.717720,0.324271,468.000000,55.000000,83.000000,0.000000,0.000000,0.000000,0.748603,0.872289,0.475598,0.717720,0.324271,468.000000,55.000000,83.000000,0.000000,0.000000,0.000000:
0000
2000
0000
3002
,
0023
0230
0000
2300
,
3001
0100
0020
0000
2030
0000
3002
0000
,
0023
0000
0230
0000
1300
0001
2000
0000
,
3200
0000
0320
0000
0031
0010
0100
1000
,
0100
0010
0002
0000
0000
0003
0011
0000
,
1100
0000
1001
0001
1000
0000
0001
0100
,
0000
0010
1000
0100
0010
0100
1000
0001
,
0000
0100
0110
0010
1000
0001
0100
0001
,
0000
1000
1010
0010
0100
0001
1000
0100
,
0000
0000
0010
0000
0011
0000
0000
0000
0001
1000
0001
1000
0100
0000
0100
0000
,
0010
0000
0001
0000
1000
0000
0000
0000
0000
0000
0001
1000
0001
0000
0100
0000
,
0010
0000
0000
0000
1000
0000
0010
0100
0001
0000
0010
0000
0010
0000
0100
0000
,
1000
0001
0001
0100
0010
1000
1000
0001
,
0100
0000
0000
0000
0101
0000
0000
0000
0001
0100
0001
0100
0010
0000
1000
0000
,
0100
0000
0010
0000
0001
0000
0000
0000
0000
0000
0100
0010
0100
0000
0001
0000
,
1000
0000
0000
0000
0001
0000
1000
0100
1000
0000
0001
0000
0100
0000
1000
0000
,
0100
0001
0010
1000
0010
0001
1001
0000
,
1001
0000
0000
0000
0110
0000
0000
0000
1000
0001
1000
0001
0010
0000
0010
0000
,
0100
0000
1000
0000
0001
0000
0000
0000
0000
0000
1000
0001
1000
0000
0010
0000
,
0100
0000
0000
0000
0001
0000
0100
0010
1000
0000
0100
0000
0100
0000
0010
0000
,
0001
1000
1000
0010
0100
0001
0001
1000
,
0010
0000
0000
0000
1010
0000
0000
0000
1000
0010
1000
0010
0100
0000
0001
0000
,
0010
0000
0100
0000
1000
0000
0000
0000
0000
0000
0010
0100
0010
0000
1000
0000
,
0001
0000
0000
0000
1000
0000
0001
0010
0001
0000
1000
0000
0010
0000
0001
0000
,
0010
1000
0100
0001
0100
1000
1001
0000
,
1001
0000
0000
0000
0001
0010
0001
0010
0100
1000
0100
1000
0010
0100
0010
0100
,
0001
1000
0001
1000
0010
0100
0010
1000
0100
1000
0001
0100
0001
0010
0100
1000
,
0100
0010
0001
1000
0010
1000
0010
1000
0001
0100
0001
0100
0001
0010
0001
0010
,
0001
1000
0100
1000
0200
0000
0300
0000
0220
0000
0330
0000
0022
0000
0033
0000
,
2002
3003
2020
3030
0010
0100
0001
0000
,
0010
0100
1000
0010
0100
1000
0100
0000
,
0101
0000
0001
1000
0100
1000
0001
0100
,
0001
0010
0100
1000
0002
0000
0010
0000
,
1000
0000
0013
0000
0100
0010
1000
0000
,
0100
0010
0001
0100
0010
0001
0010
0000
,
1010
0000
1000
0001
0010
0001
1000
0010
,
1000
0000
0100
0000
0010
0001
1000
0001
0010
0100
1000
0001
0010
0001
0100
0010
,
0100
0010
1000
0001
1000
0000
0000
0000
2001
0000
0000
0000
3200
0000
0000
0000
,
0320
0000
0031
0010
1100
0000
1000
0010
,
0101
0110
1002
0203
,
0320
0000
1030
0010
0101
0000
0001
0010
,
1100
0000
0000
0000
1000
0000
0001
0100
0001
0000
0101
0000
0100
0000
0010
1000
,
0010
0000
1010
0000
1000
0000
0100
0010
0100
0000
0110
0000
0010
0000
0001
0010
,
0002
0000
0000
0000
0013
0000
0100
1000
0001
0000
0011
0000
0010
0000
0100
0010
,
0001
0000
1001
0000
1000
0000
0001
0100
0010
0000
0110
0000
0100
0000
0001
1000
,
0100
0000
0010
0001
1000
0000
0000
0000
0000
0000
0010
0100
0010
0000
1000
0000
,
0001
0100
0100
0000
0010
0100
0002
0000
,
2000
3003
2002
3003
2020
3030
0202
0303
,
0022
0000
0033
0000
0001
0000
0010
0100
1000
0000
0001
0000
0200
0000
0000
0000
,
0310
0000
0000
0000
1000
0100
1000
0100
0010
0000
0001
0000
2000
0000
0000
0000
,
3001
0000
0000
0000
0100
0000
0010
0100
0001
0000
1000
0000
0001
0000
0010
0000
,
0100
1000
2200
3300
0220
0330
0022
0033
,
2002
0000
3003
0000
1000
0000
0010
0100
0001
0000
1000
0000
0002
0000
0000
0000
,
0013
0000
0000
0000
0100
1000
0100
1000
0001
0000
0100
0000
0020
0000
0000
0000
,
1030
0000
0000
0000
0001
0000
0100
0001
1000
0001
0100
0000
0010
0000
1000
0001
,
0100
0001
1000
0000
0210
0000
0300
0000
1020
0000
0030
0000
2100
0000
3000
0000
,
0012
0000
0003
0000
2002
0000
0000
0000
3003
0000
0001
1000
0010
0000
0110
0000
,
0100
0001
0010
0100
1000
0000
0000
0000
0201
0000
0300
0000
0012
0000
0003
0000
,
2100
0000
3000
0000
2002
0000
0000
0000
3003
0000
1000
0010
0100
0000
0101
0000
,
0001
1000
0010
0100
0002
0000
0000
0000
0000
0000
0000
0000
2003
0000
0000
0000
,
3020
0030
0210
0000
0302
0000
0023
0000
,
0230
0300
2100
0000
3002
0000
0203
0000
,
0320
0030
2010
0000
3200
0000
0310
0001
,
0010
0100
2000
0000
3020
0000
0230
0000
,
0302
0003
2001
0000
0000
0000
0000
0000
,
0000
0002
0000
0000
,
0000
3003
0000
0000
;

//---------------dance-single - ----------------
#NOTES:
     dance-single:
     :
     Medium:
     11:
     0.562070,0.465221,0.086472,0.544775,0.000000,382.000000,10.000000,63.000000,0.000000,0.000000,0.000000,0.562070,0.465221,0.086472,0.544775,0.000000,382.000000,10.000000,63.000000,0.000000,0.000000,0.000000:
0000
0002
0000
2003
,
3002
0023
0000
0230
,
1300
0100
0020
0000
0032
0000
0023
0000
,
0230
0000
2300
0000
3001
0010
0002
0000
,
2003
0000
3020
0000
0130
0001
1000
0001
,
1000
0100
0020
0000
0000
0000
0032
0000
,
1003
0000
0001
1000
0001
0000
0100
0010
,
0000
1000
0010
0000
0100
0000
0001
1000
,
0000
0001
0100
0000
0010
0000
1000
0100
,
0000
0010
0001
0000
0100
0000
0010
1000
,
0000
0100
1000
0000
0100
0010
0001
0001
,
1000
0001
1000
0000
0000
0010
1000
0010
,
0100
0000
0001
1000
0001
0100
0001
0100
,
0010
1000
0010
1000
0001
0100
0010
0100
,
0001
0000
1001
0000
1000
1000
0001
1000
,
0010
1000
0001
0000
0000
0100
0010
0100
,
0001
0000
1000
0010
1000
0001
0100
0001
,
1000
0010
1000
0001
0010
0100
1000
0000
,
1001
0000
1001
0000
1000
0001
1000
0001
,
0100
0001
0100
0000
0000
0010
0010
0100
,
0001
0000
1000
0100
0001
0100
1000
0001
,
0100
1000
0100
0001
1000
0010
0100
0001
,
0100
0000
0110
0000
0010
1000
0100
0010
,
0001
0100
0010
0000
0000
0100
0100
0001
,
1000
0000
0001
1000
0100
0010
0100
1000
,
0100
0010
0001
0010
0100
1000
1010
0000
,
0101
0000
0001
0001
1000
1000
0001
0001
,
0010
0010
0100
0100
1000
0001
0100
0010
,
1000
0010
0100
0100
0010
0010
1000
1000
,
0001
0001
0200
0000
1000
0000
0010
0000
,
0001
0000
0310
0000
1000
0001
0100
0000
,
0001
0010
0100
1000
0001
1000
0001
0000
,
0100
0000
0010
0100
0001
0100
0010
1000
,
0010
0100
0001
1000
0020
0000
0100
0000
,
1000
0000
0130
0000
0001
0100
0010
0000
,
1000
0010
0100
0001
1000
0010
1000
0000
,
0001
0000
0100
0001
1000
0010
0100
0001
,
0010
0001
1000
0010
0100
0001
0010
0100
,
1000
0010
0100
0000
0002
0000
2003
0000
,
3002
0000
0013
0100
1000
0000
0010
0100
,
0001
1001
2000
3002
,
2003
0000
3001
0010
0100
0000
1000
0010
,
0100
0000
0001
0100
0100
0100
0001
1000
,
1000
1000
0001
0010
0010
0010
0100
1000
,
1000
0000
0010
0100
0100
0100
0001
0010
,
0010
0010
0100
1000
1000
1000
0001
0100
,
0100
0002
2000
3003
0000
0010
0100
0010
,
1000
0001
1000
0000
0001
0100
0020
0000
,
0130
0002
0023
0230
,
2300
0000
3001
0000
1000
0001
2000
0000
,
3010
0000
0100
0000
0001
0100
0020
0000
,
1030
0000
0001
0000
0010
0100
1000
0010
,
0100
0010
2000
0000
3002
0000
0023
0000
,
0230
0000
1300
0000
0001
1000
0200
0000
,
0310
0000
0001
0000
1000
0100
0020
0000
,
0031
0000
1000
0001
0100
0001
1000
0100
,
1000
0001
0200
0000
0320
0000
2030
0000
,
3001
0000
2002
0000
3003
0010
0010
1000
,
0001
0100
0001
0000
0200
0000
0302
0000
,
1003
0000
2002
0000
3003
0100
0100
0001
,
1000
0010
0200
0000
0000
0000
0302
0000
,
2003
3020
0230
0302
,
0023
0230
2300
3200
,
0302
0000
0023
0000
2030
0000
3001
1000
,
0001
0100
0020
0000
0100
0000
1000
0000
,
0130
2001
0000
0000
,
0000
0002
0000
0000
,
0000
3003
0000
0000
;

//---------------dance-single - ----------------
#NOTES:
     dance-single:
     :
     Easy:
     4:
     0.361948,0.348916,0.043236,0.371831,0.000000,245.000000,5.000000,43.000000,0.000000,0.000000,0.000000,0.361948,0.348916,0.043236,0.371831,0.000000,245.000000,5.000000,43.000000,0.000000,0.000000,0.000000:
0000
0002
0000
1003
,
1000
0020
0000
0130
,
0100
0002
0023
0230
,
1300
1000
0001
0002
,
2003
3002
0103
0010
,
0100
0020
0000
0130
,
0100
0000
0001
0000
0001
0000
1000
0010
,
0000
0000
0100
0000
0100
0000
0001
1000
,
0000
0000
0001
0000
0001
0000
1000
0010
,
0000
0000
1000
0000
1000
0000
0001
0100
,
0000
0010
1000
0001
,
0100
0000
0010
0000
0000
1000
0010
0000
,
0100
0001
1000
0010
,
1000
0001
0100
0001
,
1000
1001
0001
0010
,
0100
0000
1000
0000
0000
0100
0010
0000
,
0001
1000
0010
0100
,
0001
0100
0010
1000
,
0002
0103
0100
0010
,
1000
0000
0001
0000
0000
1000
0001
0000
,
0100
0010
1000
0001
,
0010
0100
1000
0001
,
1000
0010
0010
1000
,
0001
0000
0010
0000
0000
0100
1000
0000
,
0100
0010
0001
0010
,
0100
1000
0001
2000
,
3001
0010
0010
0100
,
0100
1000
1000
0001
,
1000
0010
0010
1000
,
1000
0002
0203
0320
,
2030
3001
0100
0100
,
0001
0010
0010
0001
,
0000
1000
0001
0001
,
0100
0100
0010
1000
,
0001
0100
0001
0001
,
1000
0100
0010
1000
,
0000
0001
1000
1000
,
0010
0100
0100
0001
,
0020
0130
1000
1000
,
0002
0103
0100
0020
,
0130
0110
0010
0010
,
2000
3001
0001
0200
,
0310
1000
0001
0100
,
0010
0100
0001
0100
,
0010
1000
0100
1000
,
0001
0100
0010
1000
,
0200
0310
0000
0001
,
0010
0100
1000
0002
,
0103
0010
0010
0100
,
0100
0001
1000
2000
,
3010
0100
0100
0002
,
0103
1000
0001
0100
,
0001
1000
0001
2000
,
3010
0100
0100
0002
,
0013
0100
0100
2000
,
3100
0010
0001
0010
,
0100
1000
0001
2000
,
3001
0200
0300
0010
,
0001
1001
1000
0002
,
0103
0020
0030
0100
,
1000
2002
3003
0200
,
0300
0020
0030
2000
,
3000
0002
0003
0200
,
0300
0002
0003
1000
,
1000
0002
0000
2003
,
0000
3001
0000
0000
,
0000
2002
0000
0000
,
0000
3003
0000
0000
;

//---------------dance-single - ----------------
#NOTES:
     dance-single:
     :
     Beginner:
     2:
     0.190239,0.232610,0.008647,0.172945,0.000000,133.000000,1.000000,20.000000,0.000000,0.000000,0.000000,0.190239,0.232610,0.008647,0.172945,0.000000,133.000000,1.000000,20.000000,0.000000,0.000000,0.000000:
// measure 0
0000
2000
0000
3001
,  // measure 1
0000
0200
0000
0310
,  // measure 2
0000
2000
3000
0020
,  // measure 3
0031
0000
1000
0000
,  // measure 4
0002
2003
3010
0000
,  // measure 5
0000
0200
0000
0300
,  // measure 6
0010
1000
0000
0001
,  // measure 7
0000
0010
0000
1000
,  // measure 8
0000
1000
0000
0001
,  // measure 9
0000
0001
0000
1000
,  // measure 10
0000
0100
0000
1000
,  // measure 11
0000
0100
0000
0100
,  // measure 12
0000
1000
0000
0100
,  // measure 13
0000
1000
0000
1000
,  // measure 14
0000
0001
1000
0000
,  // measure 15
0010
0000
0000
0100
,  // measure 16
0000
0001
0000
0010
,  // measure 17
0000
0010
0000
0001
,  // measure 18
0000
0010
0000
0100
,  // measure 19
0000
1000
0000
1000
,  // measure 20
0000
0100
0000
1000
,  // measure 21
0000
0010
0000
1000
,  // measure 22
0000
0100
0000
0001
,  // measure 23
0000
0100
0000
0001
,  // measure 24
0000
0100
0000
0100
,  // measure 25
0000
0001
0000
0001
,  // measure 26
0000
0100
0000
0010
,  // measure 27
0000
0001
0000
1000
,  // measure 28
0000
0100
0000
0001
,  // measure 29
0000
1000
0000
0100
,  // measure 30
0000
1000
0000
0010
,  // measure 31
0000
0100
0000
1000
,  // measure 32
0000
0001
0000
1000
,  // measure 33
0000
0010
0000
0001
,  // measure 34
0000
0010
0000
1000
,  // measure 35
0000
0010
0000
0001
,  // measure 36
0000
1000
0000
0001
,  // measure 37
0000
0010
0000
1000
,  // measure 38
0000
0010
0000
0001
,  // measure 39
0000
0010
0000
0200
,  // measure 40
0300
0010
0000
0100
,  // measure 41
0000
1000
0000
0000
,  // measure 42
0100
0000
1000
0000
,  // measure 43
0100
0000
1000
0000
,  // measure 44
0100
0000
0010
0000
,  // measure 45
1000
0000
0100
0000
,  // measure 46
0000
0100
0000
1000
,  // measure 47
0000
0010
0000
0000
,  // measure 48
0010
0000
0100
0000
,  // measure 49
0010
0000
0001
0000
,  // measure 50
0100
0000
0010
0000
,  // measure 51
0010
0000
1000
0000
,  // measure 52
1000
0000
1000
0000
,  // measure 53
0100
0000
0010
0000
,  // measure 54
0100
0000
0010
0000
,  // measure 55
0010
0000
1000
0000
,  // measure 56
0010
0000
1000
0000
,  // measure 57
1000
0000
0000
0100
,  // measure 58
0000
1000
0001
1000
,  // measure 59
0010
0200
0300
0010
,  // measure 60
0000
2000
3000
0002
,  // measure 61
0003
2000
3000
0200
,  // measure 62
0300
0020
0030
0002
,  // measure 63
0003
2000
3000
0001
,  // measure 64
0000
2000
0000
3020
,  // measure 65
0000
0130
0000
0000
,  // measure 66
0000
2002
0000
0000
,  // measure 67
0000
3003
0000
0000
;
