#VERSION:0.81;
#TITLE:op.31 Lyricism;
#SUBTITLE:;
#ARTIST:akiko;
#TITLETRANSLIT:;
#SUBTITLETRANSLIT:;
#ARTISTTRANSLIT:;
#GENRE:;
#ORIGIN:;
#CREDIT:;
#BANNER:op.31 Lyricism-bn.png;
#BACKGROUND:op.31 Lyricism-bg.png;
#PREVIEWVID:;
#JACKET:;
#CDIMAGE:;
#DISCIMAGE:;
#LYRICSPATH:;
#CDTITLE:;
#MUSIC:op.31 Lyricism.mp3;
#OFFSET:0.020000;
#SAMPLESTART:76.980003;
#SAMPLELENGTH:12.000000;
#SELECTABLE:YES;
#BPMS:0.000=180.000,
7.000=200.000,
11.000=180.000,
11.500=100.000,
16.500=160.000,
18.500=210.000,
54.500=180.000,
60.500=160.000,
66.500=210.000,
83.000=140.000,
84.000=120.000,
87.750=290.000,
102.000=310.000,
122.500=230.001,
125.000=180.000,
126.000=140.000,
126.750=130.000,
127.500=150.000,
128.500=300.000,
153.500=319.999,
177.500=300.000,
201.500=140.000,
204.000=200.000,
249.000=220.000,
261.000=230.000,
279.000=190.000,
282.500=140.000,
285.000=339.999,
309.000=349.999,
351.500=319.999,
364.000=299.999,
372.000=220.000,
377.000=119.999,
384.250=259.999,
408.000=239.999,
420.000=129.999;
#STOPS:;
#DELAYS:;
#WARPS:;
#TIMESIGNATURES:0.000=4=4;
#TICKCOUNTS:0.000=4;
#COMBOS:0.000=1;
#SPEEDS:0.000=1.000=0.000=0;
#SCROLLS:0.000=1.000;
#FAKES:;
#LABELS:0.000=Song Start;
#BGCHANGES:0.000=op.31 Lyricism.avi=1.000=0=0=1=====,
99999=-nosongbg-=1.000=0=0=0 // don't automatically add -songbackground-
;
#KEYSOUNDS:;
#ATTACKS:
;

//---------------dance-single - ----------------
#NOTEDATA:;
#CHARTNAME:;
#STEPSTYPE:dance-single;
#DESCRIPTION:;
#CHARTSTYLE:;
#DIFFICULTY:Challenge;
#METER:17;
#RADARVALUES:0.880418,0.833460,0.763856,0.564212,0.221345,557.000000,88.000000,65.000000,0.000000,0.000000,0.000000,0.000000,0.000000,0.880418,0.833460,0.763856,0.564212,0.221345,557.000000,88.000000,65.000000,0.000000,0.000000,0.000000,0.000000,0.000000;
#CREDIT:;
#NOTES:
// measure 0
0000
0000
0000
0000
0000
0000
0000
0110
0000
0000
0000
0000
0000
0000
0000
0000
0000
0000
0000
0000
0000
0000
0000
0000
,  // measure 1
0000
0000
0000
0000
0000
0000
0001
0010
,  // measure 2
0100
0000
0000
1000
0000
0000
0001
0000
0000
0010
0000
0000
0100
0000
0000
1000
0000
0000
0001
0000
0000
0010
0000
0100
,  // measure 3
0000
0000
0000
1000
0000
0000
0000
0000
0000
0000
0010
0000
0000
0000
0000
0000
0000
0000
0000
0000
0000
0000
0000
0000
0000
0000
0000
0000
0000
0000
0000
0000
0000
0000
0000
0000
0000
0000
0000
0000
0000
0000
0000
0000
0000
0000
0000
0000
,  // measure 4
0000
1010
0000
0101
0000
0110
0000
0000
,  // measure 5
0000
0000
0000
1001
0000
1100
0000
0101
,  // measure 6
0000
1100
0000
0000
0000
0000
0000
0110
,  // measure 7
0000
0101
0000
1010
0000
1001
0000
0000
,  // measure 8
0000
0000
0000
1001
0000
1010
0000
0101
,  // measure 9
0000
1001
0000
0000
0000
0000
0000
0002
,  // measure 10
0000
0023
0000
0230
0000
2300
0000
3200
,  // measure 11
0000
0302
0000
0203
0000
2300
0000
3020
,  // measure 12
0000
0032
0000
0023
0000
2030
0000
3200
,  // measure 13
0000
0320
0000
0032
0000
0023
0000
2030
,  // measure 14
0000
3010
0000
0011
0000
0001
0000
0101
,  // measure 15
0000
0100
0000
0110
0000
0010
0000
1010
,  // measure 16
0000
1000
0000
1001
0000
0001
0100
0001
,  // measure 17
1000
0010
0100
0001
1000
0100
0010
0001
,  // measure 18
0100
0010
0100
0001
0010
0100
1000
0010
,  // measure 19
0001
0010
1000
0100
0001
0100
1000
0001
,  // measure 20
0010
0000
0000
0001
0000
0000
1000
0000
0000
0010
0000
0000
0100
0000
0000
0010
0000
0000
1000
0000
0001
0000
0100
0000
,  // measure 21
0010
0000
1000
0100
0000
0010
0000
0001
0000
0010
0000
0100
0000
1000
0000
0100
,  // measure 22
0000
0000
0000
0000
0000
0010
0000
0000
0000
0000
0001
0000
0000
0000
0010
0000
,  // measure 23
0000
0100
1000
0100
0010
0001
1000
0010
,  // measure 24
0100
0001
0010
1000
0010
0100
1000
0001
,  // measure 25
0100
0010
0100
0010
1000
0001
0100
0010
,  // measure 26
1000
0100
0010
0100
1000
0001
0100
0010
,  // measure 27
0100
0001
1000
0010
0100
0001
0010
0100
,  // measure 28
1000
0100
0010
0001
0010
0100
1000
0100
,  // measure 29
1000
0001
0100
0010
0100
0001
1000
0010
,  // measure 30
0100
0010
0001
0010
1000
0001
0000
0000
,  // measure 31
1001
0000
0000
0000
0101
0000
0000
0011
0000
0000
1001
0000
0000
0000
1010
0000
,  // measure 32
0000
0110
0000
0000
0000
0010
1000
0010
,  // measure 33
0100
0001
0000
0101
0000
1010
0000
1001
,  // measure 34
0000
0001
1000
0010
0100
0010
0000
1001
,  // measure 35
0000
0011
0000
1001
0000
1000
0010
0100
,  // measure 36
0001
0100
0000
1001
0000
1100
0000
0110
,  // measure 37
0000
0010
0001
0010
0100
1000
0000
0011
,  // measure 38
0000
1100
0000
0110
0000
0010
0100
1000
,  // measure 39
0100
0010
0000
0011
0000
1001
0000
1010
,  // measure 40
0000
1000
0010
0100
0001
1000
0000
1001
,  // measure 41
0000
0110
0000
1010
0000
0010
0100
0001
,  // measure 42
0010
0100
0000
1100
0000
0110
0000
0011
,  // measure 43
0000
0001
0010
0100
1000
0001
0000
0011
,  // measure 44
0000
0110
0000
1100
0000
1000
0010
0100
,  // measure 45
0001
0100
0000
0110
0000
1010
0000
0101
,  // measure 46
0000
1000
0010
1000
0100
1000
0000
1100
,  // measure 47
0000
0011
0000
1001
0000
0001
0100
0001
,  // measure 48
0010
0001
0000
0011
0000
1100
0000
1001
,  // measure 49
0000
1000
0010
1000
0001
1000
0000
1010
,  // measure 50
0000
0101
0000
1010
0000
0000
0000
0000
,  // measure 51
1001
0000
0001
0100
0001
1000
0100
1000
,  // measure 52
0010
0100
0010
1000
0001
0000
0000
0000
,  // measure 53
0000
0000
1000
0010
0100
0010
1000
0001
,  // measure 54
0200
0000
0001
0000
0001
0000
0301
0010
,  // measure 55
0100
1000
0100
0010
0002
0000
2003
0000
,  // measure 56
3020
0230
0302
1003
,  // measure 57
1001
0000
0001
0010
0100
1000
0001
0010
,  // measure 58
0100
1000
0001
0010
0100
0000
0000
0000
,  // measure 59
0000
0000
1000
0010
0100
0001
1000
0010
,  // measure 60
0200
0000
0010
0000
0010
0000
0310
1000
,  // measure 61
0001
0010
0100
1000
0002
0000
1000
0000
,  // measure 62
1000
0000
1003
0010
0100
0001
1000
0100
,  // measure 63
0020
0000
0001
0000
0001
0000
0031
0010
,  // measure 64
0100
1000
0001
0010
0002
0000
1000
0000
,  // measure 65
1000
0000
1003
0010
1000
0100
1000
0001
,  // measure 66
1000
0001
0010
0001
0100
0001
1000
0001
,  // measure 67
0100
0010
0100
1000
0100
0010
0100
0001
,  // measure 68
0010
0100
1000
0000
1000
0100
0010
0100
,  // measure 69
1000
0001
0010
0100
0010
0001
1000
0010
,  // measure 70
0100
0001
1000
0001
0100
0010
1000
0001
,  // measure 71
1000
0000
1001
0000
0000
0001
0010
0100
,  // measure 72
1000
0001
0000
0010
0000
0010
0000
0010
,  // measure 73
0000
0100
1000
0001
0010
0100
0000
1000
,  // measure 74
0000
1000
0000
1000
0000
0010
0100
0001
,  // measure 75
1000
0001
0000
0100
0000
0100
0000
0100
,  // measure 76
0000
0010
1000
0100
0010
0001
0000
1000
,  // measure 77
0000
1000
0000
1000
0000
0001
0100
0010
,  // measure 78
1000
0002
0000
0100
0000
1000
0000
0103
,  // measure 79
0000
0010
1000
0001
0100
0020
0000
0001
,  // measure 80
0000
1000
0000
0031
0000
1000
0100
0001
,  // measure 81
1000
0200
0000
0010
0000
0001
0000
0310
,  // measure 82
0000
0100
0010
0100
1000
0020
0000
1000
,  // measure 83
0000
0001
0000
1030
0000
0001
1000
0100
,  // measure 84
0010
0002
0000
0100
0000
0010
0000
0103
,  // measure 85
0000
0010
1000
0001
0010
0200
0000
1000
,  // measure 86
0000
0001
0000
1300
0000
0100
0010
0001
,  // measure 87
1000
0020
0000
0100
0000
1000
0000
0130
,  // measure 88
0000
0000
0001
0100
0001
1000
0010
0000
,  // measure 89
0110
0000
0101
0000
1010
0000
0100
0001
,  // measure 90
0100
0010
1000
0000
0000
0101
0000
1010
,  // measure 91
0000
1001
0000
1000
0001
0100
0010
0100
,  // measure 92
0000
0101
0000
1001
0000
1010
1000
0001
,  // measure 93
1000
0000
0000
0000
0010
0000
0000
0000
0100
0000
0000
0000
0002
0000
0000
0000
0000
0000
0000
0000
0000
0000
0000
0000
2003
0000
0000
0000
0000
0000
0000
0000
0000
0000
0000
0000
3000
0000
0000
0020
0000
0000
0000
0000
0000
0000
0000
0000
,  // measure 94
0000
0000
0000
0230
0000
0000
0000
0000
0000
0000
0000
0000
0301
0000
0000
0010
0000
0000
0100
0000
0000
1000
0000
0000
0001
0000
1000
0000
0000
0000
0000
0000
0000
0000
0000
0000
0000
0000
0000
0020
0000
0000
0000
0000
0000
0000
0000
0000
,  // measure 95
0000
0100
0000
0000
0000
0230
0000
0000
0000
0000
0000
0000
0300
0020
0000
0000
,  // measure 96
0000
2030
0000
0000
0000
3002
0000
0000
0000
0203
0000
0000
0000
0320
0000
0000
,  // measure 97
0000
2030
0000
0000
0000
3001
0000
0000
0000
0101
0000
0000
0000
0200
0000
0000
,  // measure 98
0000
0320
0000
0000
0000
2030
0000
0000
0000
3002
0000
0000
0000
1003
0000
0000
,  // measure 99
0000
1010
0000
0000
0000
0020
0000
0000
0000
0230
0000
0000
0000
0302
0000
0000
,  // measure 100
0000
2003
0000
0000
0000
3001
0000
0000
0000
1010
0000
0000
0000
0101
0000
0000
,  // measure 101
0000
0011
0000
0000
0000
1100
0000
0000
0000
0110
0000
0000
0000
1001
0000
0000
,  // measure 102
0220
0000
0330
2020
,  // measure 103
0000
3030
2002
0000
,  // measure 104
3003
0022
0000
0033
,  // measure 105
0220
0000
0330
2000
,  // measure 106
0000
0000
0000
0000
0000
0000
0000
0000
0000
0000
0000
0000
0000
0000
0000
0000
0000
0000
0000
0000
0000
0000
0000
0000
0000
0000
0000
0000
0000
0000
0000
0000
0010
3000
0000
0000
0000
0000
0000
0000
0000
0000
0000
0000
0000
0000
0000
0000
;

//---------------dance-single - Copied from----------------
#NOTEDATA:;
#CHARTNAME:Copied from;
#STEPSTYPE:dance-single;
#DESCRIPTION:Copied from;
#CHARTSTYLE:;
#DIFFICULTY:Hard;
#METER:14;
#RADARVALUES:0.680774,0.740853,0.164923,0.390608,0.147563,485.000000,19.000000,45.000000,0.000000,0.000000,0.000000,0.000000,0.000000,0.680774,0.740853,0.164923,0.390608,0.147563,485.000000,19.000000,45.000000,0.000000,0.000000,0.000000,0.000000,0.000000;
#CREDIT:Copied from;
#NOTES:
0000
0000
0000
0000
0000
0000
0000
1001
0000
0000
0000
0000
0000
0000
0000
0000
0000
0000
0000
0000
0000
0000
0000
0000
,
0000
0000
0000
0000
0000
0000
0001
1000
,
0001
0000
0000
0100
0000
0000
0010
0000
0000
0100
0000
0000
0001
0000
0000
1000
0000
0000
0001
0000
0000
0010
0000
0100
,
0000
0000
0000
0100
0000
0000
0000
0000
0000
0000
0100
0000
0000
0000
0000
0000
0000
0000
0000
0000
0000
0000
0000
0000
0000
0000
0000
0000
0000
0000
0000
0000
0000
0000
0000
0000
0000
0000
0000
0000
0000
0000
0000
0000
0000
0000
0000
0000
,
0000
2000
0000
3002
0000
0203
0000
0300
,
0000
0000
0000
0020
0000
2030
0000
3002
,
0000
0203
0000
0300
0000
0000
0000
0020
,
0000
0230
0000
0302
0000
2003
0000
3000
,
0000
0000
0000
0020
0000
2030
0000
3002
,
0000
0203
0000
0300
0000
0000
0000
0001
,
0000
1000
0000
0010
0000
0100
0000
0010
,
0000
1000
0000
0100
0000
0010
0000
0001
,
0000
0100
0000
0010
0000
0100
0000
1000
,
0000
0100
0000
0001
0000
1000
0000
0001
,
0000
0001
0000
0020
0000
0001
0000
0032
,
0000
0100
0000
0203
0000
0010
0000
0320
,
0000
1000
0000
2030
0000
3001
1000
0010
,
0100
0001
1000
0100
0000
0100
0010
0001
,
0010
0100
0000
0100
1000
0001
0100
0010
,
0000
0010
1000
0100
1000
0001
0000
0001
,
0100
0001
1000
0100
0000
0100
0020
0000
,
0032
0000
0000
2000
0000
0000
0000
0000
,
0000
0000
0000
0000
,
0003
3010
1000
0010
1000
0010
1000
0010
,
0000
0100
0010
1000
0001
0100
0010
1000
,
0000
0010
0100
0010
0100
0010
0100
0010
,
0000
1000
0010
0100
0001
0010
0100
1000
,
0000
0001
1000
0001
1000
0001
1000
0001
,
0000
0100
0010
1000
0010
0100
0001
1000
,
0000
0001
0100
0001
0100
0001
0100
0001
,
0000
1000
0001
1000
0010
0100
0000
0000
,
0100
0000
0000
0000
0100
0000
0000
0100
0000
0000
0100
0000
0000
0000
0100
0000
,
0000
0110
0000
0000
0000
1000
0001
1000
,
0001
0100
0000
0001
0000
0100
0000
0020
,
0000
0130
0001
0100
0001
1000
0000
0010
,
0000
0100
0000
0002
0000
0103
0010
0100
,
0010
1000
0000
0001
0000
0100
0000
0002
,
0000
1003
0100
1000
0100
0010
0000
0001
,
0000
1000
0000
0002
0000
0013
0001
0010
,
0001
0100
0000
0010
0000
1000
0000
0002
,
0000
1003
0010
1000
0010
0100
0000
0010
,
0000
0100
0000
0002
0000
1003
0001
1000
,
0001
0100
0000
0001
0000
1000
0000
0200
,
0000
0310
0001
0010
0001
0100
0000
0010
,
0000
1000
0000
0002
0000
0103
0010
0100
,
0010
1000
0000
0001
0000
0100
0000
0002
,
0000
0013
0001
0010
0001
1000
0000
0010
,
0000
0100
0000
0002
0000
1003
0010
0100
,
0001
1000
0000
0010
0000
0100
0000
0002
,
0000
0013
0100
1000
0100
0010
0000
0001
,
0000
0100
0000
0110
0000
0000
0000
0000
,
1001
0000
0001
0010
0100
1000
0010
0100
,
0001
1000
0010
0100
0010
0000
0000
0000
,
0000
0000
1000
0001
1000
0001
1000
0001
,
0100
0000
0010
0000
1000
0000
0001
0010
,
0001
1000
0100
1000
0001
0000
0100
0000
,
0010
1000
0001
1000
,
0001
0000
1000
0010
1000
0001
0100
0001
,
1000
0100
1000
0001
0100
0000
0000
0000
,
0000
0000
0010
0100
0010
0100
0010
1000
,
0100
0000
0010
0000
0001
0000
0010
0100
,
1000
0001
1000
0001
0100
0000
0010
0000
,
1000
0000
0001
1000
0001
0100
0010
1000
,
0010
0000
0100
0000
0001
0000
1000
0010
,
0100
0001
1000
0010
1000
0000
0001
0000
,
0100
0000
0001
0010
0001
1000
0010
1000
,
0001
0010
0100
1000
0100
0010
0001
1000
,
0010
1000
0010
1000
0100
0010
0100
0010
,
0100
0010
0001
0000
1000
0010
1000
0001
,
0100
0001
1000
0001
1000
0010
0100
0010
,
0100
0001
1000
0001
0100
0001
0010
0001
,
1000
0000
1001
0000
0000
0001
1000
0001
,
1000
0010
0000
0000
0000
0000
0000
0000
,
0000
0100
0001
0100
0001
1000
0000
0000
,
0000
0000
0000
0000
0000
0010
0100
0010
,
0100
0001
0000
0000
0000
0000
0000
0000
,
0000
1000
0001
1000
0001
0010
0000
0000
,
0000
0000
0000
0000
0000
0100
0010
0100
,
0010
0001
0000
0000
0000
0000
0000
0000
,
0000
0100
0010
0100
0010
1000
0000
0000
,
0000
0000
0000
0000
0000
0001
0100
0001
,
0100
0010
0000
0000
0000
0000
0000
0000
,
0000
1000
0001
1000
0001
0100
0000
0000
,
0000
0000
0000
0000
0000
0001
1000
0001
,
1000
0100
0000
0000
0000
0000
0000
0000
,
0000
0010
0001
0010
0001
1000
0000
0000
,
0000
0000
0000
0000
0000
0010
1000
0010
,
1000
0001
0000
0000
0000
0000
0000
0000
,
0000
0000
0100
0010
0100
0001
1000
0000
,
0000
0000
0000
0000
0000
0000
0001
1000
,
0001
1000
0010
0000
0000
0000
0000
0000
,
0000
0000
0000
1000
0001
0100
0010
0100
,
0000
0000
0000
0000
0000
0000
0001
1000
,
0001
0000
0000
0000
1000
0000
0000
0000
0001
0000
0000
0000
1000
0000
0000
0000
0000
0000
0000
0000
0000
0000
0000
0000
1000
0000
0000
0000
0000
0000
0000
0000
0000
0000
0000
0000
0000
0000
0000
0010
0000
0000
0000
0000
0000
0000
0000
0000
,
0000
0000
0000
0010
0000
0000
0000
0000
0000
0000
0000
0000
0100
0000
0000
0010
0000
0000
0100
0000
0000
0010
0000
0000
0100
0000
0010
0000
0000
0000
0000
0000
0000
0000
0000
0000
0000
0000
0000
0010
0000
0000
0000
0000
0000
0000
0000
0000
,
0000
0010
0000
0000
0000
0100
0000
0000
0000
0000
0000
0000
0001
0000
0000
0000
,
0000
1001
0000
0000
0000
0001
0000
0000
0000
0100
0000
0000
0000
0010
0000
0000
,
0000
0000
0000
0000
0000
0000
0000
0000
0000
0110
0000
0000
0000
0100
0000
0000
,
0000
0010
0000
0000
0000
1000
0000
0000
0000
0000
0000
0000
0000
0000
0000
0000
,
0000
1001
0000
0000
0000
0001
0000
0000
0000
1000
0000
0000
0000
0010
0000
0000
,
0000
0000
0000
0000
0000
0000
0000
0000
0000
0101
0000
0000
0000
1010
0000
0000
,
0000
1100
0000
0000
0000
0011
0000
0000
0000
0110
0000
0000
0000
1001
0000
0000
,
0220
0000
0330
0202
,
0000
0303
2002
0000
,
3003
2200
0000
3300
,
0220
0000
0330
0002
,
0000
0000
0000
0000
0000
0000
0000
0000
0000
0000
0000
0000
0000
0000
0000
0000
0000
0000
0000
0000
0000
0000
0000
0000
0000
0000
0000
0000
0000
0000
0000
0000
1000
0003
0000
0000
0000
0000
0000
0000
0000
0000
0000
0000
0000
0000
0000
0000
;

//---------------dance-single - Copied from Copied f----------------
#NOTEDATA:;
#CHARTNAME:Copied from Copied f;
#STEPSTYPE:dance-single;
#DESCRIPTION:Copied from Copied f;
#CHARTSTYLE:;
#DIFFICULTY:Medium;
#METER:12;
#RADARVALUES:0.522051,0.555640,0.190964,0.234365,0.125863,372.000000,22.000000,27.000000,0.000000,0.000000,0.000000,0.000000,0.000000,0.522051,0.555640,0.190964,0.234365,0.125863,372.000000,22.000000,27.000000,0.000000,0.000000,0.000000,0.000000,0.000000;
#CREDIT:Copied from Copied f;
#NOTES:
0000
0000
0000
0000
0000
0000
0000
1001
0000
0000
0000
0000
0000
0000
0000
0000
0000
0000
0000
0000
0000
0000
0000
0000
,
0000
0000
0000
0000
0000
0000
0001
0100
,
1000
0000
0000
0000
0000
0000
1000
0000
0000
0100
0000
0000
0001
0000
0000
0000
0000
0000
0001
0000
0000
0010
0000
0100
,
0000
0000
0000
1000
0000
0000
0000
0000
0000
0000
0001
0000
0000
0000
0000
0000
0000
0000
0000
0000
0000
0000
0000
0000
0000
0000
0000
0000
0000
0000
0000
0000
0000
0000
0000
0000
0000
0000
0000
0000
0000
0000
0000
0000
0000
0000
0000
0000
,
0000
1000
0000
0001
0000
1000
0000
0000
,
0000
0000
0000
0010
0000
0100
0000
0001
,
0000
0100
0000
0000
0000
0000
0000
0010
,
0000
1000
0000
0010
0000
1000
0000
0000
,
0000
0000
0000
0001
0000
0100
0000
0001
,
0000
1000
0000
0000
0000
0000
0000
0001
,
0000
1000
0000
0010
0000
0200
0000
0300
,
0000
0000
0000
0001
0000
1000
0000
0010
,
0000
0200
0000
0300
0000
0000
0000
0001
,
0000
1000
0000
0010
0000
1000
0000
0001
,
0000
0001
0000
1000
0000
1000
0000
0010
,
0000
0010
0000
0100
0000
0100
0000
0001
,
0000
0001
0000
0200
0000
0310
0000
0010
,
0100
0001
0000
0001
0000
1000
0010
1000
,
0000
1000
0000
0010
0100
0001
0000
0001
,
0000
0100
0010
0100
0000
0100
0000
0010
,
1000
0001
0000
0001
0000
1000
0010
0000
,
2002
0000
0000
0000
,
0000
0000
0000
0000
,
0003
3010
0000
0010
0000
1000
0010
1000
,
0000
0001
0000
0001
0000
0100
0010
0100
,
0000
0010
0000
0010
0000
1000
0001
0010
,
0000
0100
0000
0100
0000
1000
0001
0100
,
0000
0001
0000
0001
0000
1000
0010
0100
,
0000
0010
0000
0010
0000
0100
0010
1000
,
0000
0001
0000
0001
0000
0010
0100
0010
,
0000
0001
1000
0001
0010
0100
0000
0000
,
2002
0000
0000
0000
,
3003
0110
0000
0000
0000
0000
0000
0001
,
1000
0010
0000
1000
0000
0010
0000
0200
,
0000
0300
0000
0010
1000
0001
0000
0100
,
0000
0010
0000
2000
0000
3000
0000
0010
,
0100
0001
0000
1000
0000
0010
0000
2000
,
0000
3000
0000
0001
0010
0100
0000
1000
,
0000
0001
0000
2000
0000
3000
0000
0100
,
1000
0010
0000
0100
0000
0001
0000
2000
,
0000
3000
0000
0001
0100
0010
0000
0100
,
0000
0010
0000
2000
0000
3000
0000
0001
,
1000
0010
0000
1000
0000
0001
0000
0020
,
0000
0030
0000
0100
1000
0010
0000
0100
,
0000
0001
0000
2000
0000
3000
0000
0010
,
0100
0001
0000
1000
0000
0010
0000
2000
,
0000
3000
0000
0100
1000
0001
0000
0100
,
0000
0010
0000
2000
0000
3000
0000
0010
,
1000
0001
0000
0100
0000
0010
0000
2000
,
0000
3000
0000
0001
0010
0001
0000
1000
,
0000
0010
0000
0110
0000
0000
0000
0000
,
1001
0000
0001
0010
0100
0000
1000
0010
,
0100
0000
0001
0100
0010
0000
0000
0000
,
0000
0000
1000
0001
0100
0000
0001
1000
,
0010
0000
0100
0000
0001
0000
1000
0010
,
1000
0000
0001
0100
0001
0000
0100
0000
,
0010
1000
0001
1000
,
0001
0000
1000
0010
1000
0000
0001
0100
,
0001
0000
1000
0001
0100
0000
0000
0000
,
0000
0000
0010
0100
0010
0100
0010
0100
,
0001
0000
0000
0000
0000
0000
1000
0001
,
1000
0001
1000
0001
0100
0000
0000
0000
,
0000
0000
0010
1000
0010
1000
0010
1000
,
0001
0000
0000
0000
0000
0000
1000
0100
,
1000
0100
1000
0100
0010
0000
0000
0000
,
0000
0000
0001
0100
0002
0000
1000
0000
,
0103
0000
0001
1000
0200
0000
0010
0000
,
1300
0000
0010
1000
0010
0000
0100
0001
,
0100
0001
0100
0000
0010
1000
0001
0000
,
0100
0001
1000
0000
0001
1000
0001
0000
,
0100
0010
1000
0000
0001
0100
0010
0000
,
1000
0000
1001
0000
0000
0000
0000
0001
,
1000
0010
0000
0100
0000
0010
0000
0110
,
0000
0000
0000
0000
0000
0000
0000
1000
,
0000
0001
0000
1001
0000
0000
0000
0000
,
0000
0000
0000
0001
0000
1000
0000
1010
,
0000
0000
0000
0000
0000
0000
0000
0010
,
0000
0100
0000
0101
0000
0000
0000
0000
,
0000
0000
0000
0001
0000
0100
0000
0110
,
0000
0000
0000
0000
0000
0000
0000
0010
,
0000
1000
0000
1001
0000
0000
0000
0000
,
0000
0000
0000
0001
0000
0100
0000
0101
,
0000
0000
0000
0000
0000
0000
0000
0001
,
0000
1000
0000
1100
0000
0000
0000
0000
,
0000
0000
0000
0100
0000
0010
0000
1001
,
0000
0000
0000
0000
0000
0000
0000
1000
,
0000
0010
0000
0110
0000
0000
0000
0000
,
0000
0000
0000
0100
0000
0010
0000
0101
,
0000
0000
0000
0000
,
0001
0100
0110
0000
,
0000
0000
0000
0000
0000
1000
0000
0010
,
0000
0110
0000
0000
0000
0000
0000
0000
,
0000
1000
0000
0001
0000
1001
0000
0000
,
1000
0010
1000
0010
0000
0000
0000
0000
0000
0000
0000
0000
,
0000
0000
0000
0000
0000
0000
0000
0000
0000
0000
0000
0000
0100
0000
0000
0000
0000
0000
0010
0000
0000
0000
0000
0000
1000
0000
0001
0000
0000
0000
0000
0000
0000
0000
0000
0000
0000
0000
0000
0010
0000
0000
0000
0000
0000
0000
0000
0000
,
0000
0001
0000
0000
0000
0100
0000
0000
0000
0000
0000
0000
0010
0000
0000
0000
,
0000
1000
0000
0000
0000
0001
0000
0000
0000
0100
0000
0000
0000
0010
0000
0000
,
0000
0000
0000
0000
0000
0000
0000
0000
0000
0010
0000
0000
0000
0100
0000
0000
,
0000
0001
0000
0000
0000
1000
0000
0000
0000
0000
0000
0000
0000
0000
0000
0000
,
0000
0001
0000
0000
0000
1000
0000
0000
0000
0010
0000
0000
0000
0100
0000
0000
,
0000
0000
0000
0000
0000
0000
0000
0000
0000
0001
0000
0000
0000
0001
0000
0000
,
0000
1000
0000
0000
0000
1000
0000
0000
0000
0010
0000
0000
0000
0010
0000
0000
,
0220
0000
0330
0002
,
0000
0003
2000
0000
,
3000
0200
0000
0300
,
0020
0000
0030
0002
,
0000
0000
0000
0000
0000
0000
0000
0000
0000
0000
0000
0000
0000
0000
0000
0000
0000
0000
0000
0000
0000
0000
0000
0000
0000
0000
0000
0000
0000
0000
0000
0000
0010
0003
0000
0000
0000
0000
0000
0000
0000
0000
0000
0000
0000
0000
0000
0000
;

//---------------dance-single - Copied from Copied f----------------
#NOTEDATA:;
#CHARTNAME:Copied from Copied f;
#STEPSTYPE:dance-single;
#DESCRIPTION:Copied from Copied f;
#CHARTSTYLE:;
#DIFFICULTY:Easy;
#METER:8;
#RADARVALUES:0.384408,0.416730,0.104162,0.086802,0.069441,288.000000,12.000000,10.000000,0.000000,0.000000,0.000000,0.000000,0.000000,0.384408,0.416730,0.104162,0.086802,0.069441,288.000000,12.000000,10.000000,0.000000,0.000000,0.000000,0.000000,0.000000;
#CREDIT:Copied from Copied f;
#NOTES:
0000
0000
0000
0000
0000
0000
0000
0010
0000
0000
0000
0000
0000
0000
0000
0000
0000
0000
0000
0000
0000
0000
0000
0000
,
0000
0000
0000
0001
,
0001
1000
1000
0001
,
0000
0000
0000
0100
0000
0000
0000
0000
0000
0000
0100
0000
0000
0000
0000
0000
0000
0000
0000
0000
0000
0000
0000
0000
0000
0000
0000
0000
0000
0000
0000
0000
0000
0000
0000
0000
0000
0000
0000
0000
0000
0000
0000
0000
0000
0000
0000
0000
,
0000
0001
0000
0001
0000
0001
0000
0000
,
0000
0000
0000
0100
0000
0100
0000
0010
,
0000
0010
0000
0000
0000
0000
0000
1000
,
0000
1000
0000
0001
0000
0001
0000
0000
,
0000
0000
0000
0100
0000
0100
0000
0010
,
0000
0010
0000
0000
0000
0000
0000
1000
,
0000
1000
0000
0010
0000
0010
0000
0000
,
0000
0000
0000
0100
0000
0100
0000
0001
,
0000
0001
0000
0000
0000
0000
0000
1000
,
0000
0001
0000
1000
0000
1001
0000
0000
,
0000
0000
0000
0110
0000
0000
0000
0000
,
0000
1001
0000
0000
0000
0000
0000
0110
,
0000
0000
0000
0000
0000
1001
0000
0001
,
0000
0001
0000
0001
0000
0100
0000
0100
,
0000
0100
0000
0010
0000
0010
0000
0010
,
0000
1000
0000
1000
0000
1000
0000
0100
,
0000
0100
0000
0100
0000
0010
0001
1000
,
2002
0000
0000
0000
,
0000
0000
0000
0000
,
0003
3010
0000
0100
0000
0010
0000
0000
,
0000
1000
0000
0001
0000
1000
0000
0000
,
0000
0001
0000
0100
0000
0001
0000
0000
,
0000
1000
0000
0010
0000
1000
0000
0000
,
0000
0001
0000
1000
0000
0001
0000
0000
,
0000
0010
0000
0100
0000
0010
0000
0000
,
0000
0001
0000
1000
0000
0001
0000
0000
,
0000
1000
0000
0010
0000
0100
0000
0000
,
2002
0000
0000
0000
,
3003
0110
0000
0000
0000
0000
0000
0100
,
0000
0010
0000
0100
0000
0010
0000
1000
,
0000
0000
0000
0001
0000
1000
0000
0001
,
0000
1000
0000
0100
0000
0000
0000
0010
,
0000
0001
0000
0010
0000
0001
0000
1000
,
0000
0000
0000
0001
0000
0100
0000
1000
,
0000
0100
0000
0010
0000
0000
0000
0100
,
0000
0010
0000
0100
0000
0010
0000
1000
,
0000
0000
0000
0001
0000
0010
0000
1000
,
0000
0010
0000
0001
0000
0000
0000
1000
,
0000
0010
0000
1000
0000
0010
0000
0100
,
0000
0000
0000
0001
0000
0100
0000
0001
,
0000
0100
0000
0010
0000
0000
0000
0100
,
0000
0001
0000
0100
0000
0001
0000
1000
,
0000
0000
0000
0100
0000
0001
0000
0100
,
0000
1000
0000
0100
0000
0000
0000
0010
,
0000
0001
0000
0010
0000
0100
0000
0010
,
0000
0000
0000
0001
0000
0001
0000
1000
,
0000
1000
0000
1001
0000
0000
0000
0000
,
1001
0001
1000
0001
,
0100
0000
0010
0100
0010
0000
0000
0000
,
0000
0000
1000
0000
0001
0000
1000
0010
,
0100
0000
0000
0010
,
0100
0000
0001
1000
0010
0000
0100
0000
,
0001
1000
0010
0100
,
0001
1000
0010
0100
,
0001
0000
1000
0001
0100
0000
0000
0000
,
0000
0000
0010
0000
0100
0000
0010
0100
,
0001
0000
0000
1000
,
0001
0000
1000
0001
0100
0000
0000
0000
,
0000
0000
0010
0000
1000
0000
0010
1000
,
0001
0000
0000
1000
,
0010
0000
1000
0001
0010
0000
0000
0000
,
0000
0001
0001
0100
,
0100
0010
0010
1000
,
1000
0010
0010
0100
,
0001
1000
0100
0000
0010
0000
0010
0000
,
0001
0001
1000
1000
,
0001
0000
0001
0000
0100
0010
0100
0000
,
0010
1001
0000
0000
,
0000
0000
0000
0100
0000
0010
0000
0100
,
0000
0000
0000
0000
0000
0000
0000
0001
,
0000
1000
0000
0001
0000
0000
0000
0000
,
0000
0000
0000
0100
0000
0010
0000
1000
,
0000
0000
0000
0000
0000
0000
0000
0010
,
0000
0100
0000
0001
0000
0000
0000
0000
,
0000
0000
0000
1000
0000
0001
0000
0010
,
0000
0000
0000
0000
0000
0000
0000
0100
,
0000
1000
0000
0001
0000
0000
0000
0000
,
0000
0000
0000
1000
0000
0010
0000
1000
,
0000
0000
0000
0000
0000
0000
0000
0001
,
0000
0100
0000
0001
0000
0000
0000
0000
,
0000
0000
0000
1000
0000
0100
0000
0001
,
0000
0000
0000
0000
0000
0000
0000
0001
,
0000
0100
0000
1000
0000
0000
0000
0000
,
0000
0000
0000
0010
0000
0100
0000
0001
,
0000
0000
0000
0000
,
0010
0100
1000
0000
,
0000
0000
0000
0000
0000
0001
0000
1000
,
0000
0010
0000
0000
0000
0000
0000
0000
,
0000
0100
0000
0001
0000
1000
0000
0000
,
0010
0010
0000
0000
,
0000
0000
0000
0000
0100
0000
0000
0000
1001
0000
0000
0000
0000
0001
0000
0000
,
0000
1000
0000
0000
0000
0001
0000
0000
0000
0000
0000
0000
0100
0000
0000
0000
,
0000
0001
0000
0000
0000
0000
0000
0000
0000
0000
0000
0000
0000
0100
0000
0000
,
0000
0000
0000
0000
0000
0000
0000
0000
0000
0100
0000
0000
0000
0000
0000
0000
,
0000
0000
0000
0000
0000
0001
0000
0000
0000
0000
0000
0000
0000
0000
0000
0000
,
0000
0001
0000
0000
0000
0000
0000
0000
0000
0000
0000
0000
0000
1000
0000
0000
,
0000
0000
0000
0000
0000
0000
0000
0000
0000
1000
0000
0000
0000
0000
0000
0000
,
0000
0001
0000
0000
0000
0000
0000
0000
0000
0100
0000
0000
0000
0000
0000
0000
,
0020
0000
0030
2000
,
0000
3000
0002
0000
,
0003
0020
0000
0030
,
0200
0000
0300
2000
,
0000
0000
0000
0000
0000
0000
0000
0000
0000
0000
0000
0000
0000
0000
0000
0000
0000
0000
0000
0000
0000
0000
0000
0000
0000
0000
0000
0000
0000
0000
0000
0000
0100
3000
0000
0000
0000
0000
0000
0000
0000
0000
0000
0000
0000
0000
0000
0000
;

//---------------dance-single - Copied from Copied f----------------
#NOTEDATA:;
#CHARTNAME:Copied from Copied f;
#STEPSTYPE:dance-single;
#DESCRIPTION:Copied from Copied f;
#CHARTSTYLE:;
#DIFFICULTY:Beginner;
#METER:4;
#RADARVALUES:0.249245,0.277820,0.034721,0.104162,0.060761,185.000000,4.000000,12.000000,0.000000,0.000000,0.000000,0.000000,0.000000,0.249245,0.277820,0.034721,0.104162,0.060761,185.000000,4.000000,12.000000,0.000000,0.000000,0.000000,0.000000,0.000000;
#CREDIT:Copied from Copied f;
#NOTES:
0000
0000
0000
0000
0000
0000
0000
0100
0000
0000
0000
0000
0000
0000
0000
0000
0000
0000
0000
0000
0000
0000
0000
0000
,
0000
0000
0000
1000
,
0000
0001
0000
1000
,
0000
0000
0000
0000
0000
0010
0000
0000
0000
0000
0000
0000
0000
0000
0000
0000
0000
0000
0000
0000
0000
0000
0000
0000
,
0000
0100
0000
0000
0000
0100
0000
0000
,
0000
0000
0000
0010
0000
0000
0000
0000
,
0000
0100
0000
0000
0000
0000
0000
0001
,
0000
0000
0000
0000
0000
1000
0000
0000
,
0000
0000
0000
0010
0000
0000
0000
0000
,
0000
0100
0000
0000
0000
0000
0000
0001
,
0000
0000
0000
0000
0000
0100
0000
0000
,
0000
0000
0000
0010
0000
0000
0000
0000
,
0000
1000
0000
0000
0000
0000
0000
0001
,
0000
0001
0000
1000
0000
1001
0000
0000
,
0000
0000
0000
0020
0000
0030
0000
0000
,
0000
2000
0000
3000
0000
0000
0000
0002
,
0000
0003
0000
0000
0000
1001
0000
0000
,
0000
0000
0000
1000
0000
0000
0000
0000
,
0000
0001
0000
0000
0000
0000
0000
0100
,
0000
0000
0000
0000
0000
0010
0000
0000
,
0000
0000
0000
1000
0000
0000
2002
0000
,
0000
0000
0000
0000
,
0000
0000
0000
0000
,
3000
0103
0000
0000
0000
0000
0000
0010
,
0000
0000
0000
0000
0000
0100
0000
0000
,
0000
0000
0000
0001
0000
0000
0000
0000
,
0000
1000
0000
0000
0000
0000
0000
0010
,
0000
0000
0000
0000
0000
0100
0000
0000
,
0000
0000
0000
0001
0000
0000
0000
0000
,
0000
1000
0000
0000
0000
0000
0000
0001
,
0000
0000
0000
0000
0000
0010
0000
0000
,
2000
0000
0000
0000
,
3000
0010
0000
0000
0000
0000
0000
0000
,
0000
0000
0000
0100
0000
0100
0000
0100
,
0000
0000
0000
0000
0000
0000
0000
0010
,
0000
0010
0000
0010
0000
0000
0000
0000
,
0000
0000
0000
1000
0000
0001
0000
1000
,
0000
0000
0000
0000
0000
0000
0000
0001
,
0000
1000
0000
0001
0000
0000
0000
0000
,
0000
0000
0000
0100
0000
0010
0000
0100
,
0000
0000
0000
0000
0000
0000
0000
0010
,
0000
0100
0000
0010
0000
0000
0000
0000
,
0000
0000
0000
1000
0000
0001
0000
0100
,
0000
0000
0000
0000
0000
0000
0000
0010
,
0000
1000
0000
0001
0000
0000
0000
0000
,
0000
0000
0000
1000
0000
1000
0000
1000
,
0000
0000
0000
0000
0000
0000
0000
0001
,
0000
0001
0000
0001
0000
0000
0000
0000
,
0000
0000
0000
0100
0000
0100
0000
0100
,
0000
0000
0000
0000
0000
0000
0000
0010
,
0000
0010
0000
0010
0000
0000
0000
0000
,
1001
0000
0000
1000
,
0000
0001
0100
0000
,
0000
0001
1000
0001
,
1000
0000
0000
0001
,
0100
0001
0100
0000
,
0000
0000
0000
0000
,
0000
0000
0000
0010
,
1000
0010
1000
0000
,
0000
0001
0100
0001
,
1000
0000
0000
0010
,
1000
0010
0100
0000
,
0000
0010
0100
0010
,
0100
0000
0000
0010
,
1000
0010
1000
0000
,
0000
1000
0000
0000
,
0001
0000
0000
1000
,
0000
0000
0010
0000
,
0000
0100
0000
0000
,
0010
0000
0000
1000
,
0000
0000
0001
0100
,
0010
0100
0000
0000
,
0000
0000
0000
0010
0000
0010
0000
0010
,
0000
0000
0000
0000
0000
0000
0000
0100
,
0000
0100
0000
0100
0000
0000
0000
0000
,
0000
0000
0000
0001
0000
0001
0000
0001
,
0000
0000
0000
0000
0000
0000
0000
1000
,
0000
1000
0000
1000
0000
0000
0000
0000
,
0000
0000
0000
0001
0000
0100
0000
0001
,
0000
0000
0000
0000
0000
0000
0000
1000
,
0000
0010
0000
1000
0000
0000
0000
0000
,
0000
0000
0000
0001
0000
0001
0000
0001
,
0000
0000
0000
0000
0000
0000
0000
1000
,
0000
1000
0000
1000
0000
0000
0000
0000
,
0000
0000
0000
0010
0000
0010
0000
0010
,
0000
0000
0000
0000
0000
0000
0000
0100
,
0000
0100
0000
0100
0000
0000
0000
0000
,
0000
0000
0000
0001
0000
0001
0000
0001
,
0000
0000
0000
0000
0000
0000
0000
0100
,
0000
0100
0000
0100
0000
0000
0000
0000
,
0000
0000
0000
0000
0000
0010
0000
0010
,
0000
0010
0000
0000
0000
0000
0000
0000
,
0000
1000
0000
1000
0000
1000
0000
0000
,
0100
0000
0000
0000
,
0000
0000
0000
0000
0000
0000
0000
0000
0000
0000
0000
0000
0000
0100
0000
0000
,
0000
0010
0000
0000
0000
0100
0000
0000
0000
0000
0000
0000
0001
0000
0000
0000
,
0000
1000
0000
0000
0000
0000
0000
0000
0000
0000
0000
0000
0000
0010
0000
0000
,
0000
0000
0000
0000
0000
0000
0000
0000
0000
0010
0000
0000
0000
0000
0000
0000
,
0000
0000
0000
0000
0000
1000
0000
0000
0000
0000
0000
0000
0000
0000
0000
0000
,
0000
1000
0000
0000
0000
0000
0000
0000
0000
0000
0000
0000
0000
0001
0000
0000
,
0000
0000
0000
0000
0000
0000
0000
0000
0000
0001
0000
0000
0000
0000
0000
0000
,
0000
0000
0000
0000
0000
0000
0000
0000
0000
0010
0000
0000
0000
0000
0000
0000
,
0020
0000
0030
2000
,
0000
3000
0002
0000
,
0003
0020
0000
0030
,
0200
0000
0300
2000
,
0000
0000
0000
0000
0000
0000
0000
0000
0000
0000
0000
0000
0000
0000
0000
0000
0000
0000
0000
0000
0000
0000
0000
0000
0000
0000
0000
0000
0000
0000
0000
0000
0100
3000
0000
0000
0000
0000
0000
0000
0000
0000
0000
0000
0000
0000
0000
0000
;
