#TITLE:only my railgun;
#SUBTITLE:;
#ARTIST:fripSide;
#TITLETRANSLIT:;
#SUBTITLETRANSLIT:;
#ARTISTTRANSLIT:;
#CREDIT:;
#BANNER:only my railgun.png;
#BACKGROUND:only my railgun-bg.png;
#LYRICSPATH:;
#CDTITLE:./CDTITLES/DanceDanceRevolution X2.png;
#MUSIC:only my railgun.mp3;
#OFFSET:1.632;
#SAMPLESTART:61.460;
#SAMPLELENGTH:15.000;
#SELECTABLE:YES;
#DISPLAYBPM:143.000;
#BPMS:0.000=143.426,4.000=142.990;
#STOPS:;
#BGCHANGES:;

//---------------dance-single - ----------------
#NOTES:
     dance-single:
     :
     Beginner:
     1:
     0.114,0.197,0.020,0.081,0.000:
0000
0000
0000
0000
,
0000
0000
0000
0000
,
0000
0000
0000
0000
,
0000
0000
0000
0000
,
0000
0000
0000
0000
,
0001
0000
0000
0000
,
1000
0000
0000
0000
,
0001
0000
0000
0000
,
0000
0000
0000
0000
,
0001
0000
0000
0000
,
0010
0000
0000
0000
,
1000
1000
1000
0000
,
0001
0001
0001
0000
,
1000
0000
0000
0000
,
0010
0000
0000
0000
,
0002
0000
0003
0000
,
2000
0000
3000
0000
,
0001
0000
1000
0000
,
1001
0000
0000
0000
,
0000
0000
0000
0000
,
0000
0000
0000
0000
,
1000
0000
0000
0000
,
0010
0000
0000
0000
,
0001
0000
0000
0000
,
0100
0000
0000
0000
,
1000
0000
0000
0000
,
0001
0000
0000
0000
,
0100
0000
0000
0000
,
0010
0000
0000
0000
,
0001
0000
0001
0000
,
1000
0000
0000
0000
,
0010
0000
0010
0000
,
0100
0000
0000
0000
,
1000
0000
1000
0000
,
0001
0000
0000
0000
,
0100
0000
0100
0000
,
0010
0000
0000
0000
,
0000
0000
0000
0000
,
0001
0000
0000
0000
,
0010
0000
0000
0000
,
0001
0001
0001
0000
,
0010
0010
0010
0000
,
1000
0000
0000
0000
,
0100
0000
0000
0000
,
2000
0000
3000
0000
,
0200
0000
0300
0000
,
0001
0000
0001
0000
,
1000
0000
1000
0000
,
0001
0001
0001
0000
,
1000
1000
1000
0000
,
0010
0000
0010
0000
,
0100
0000
0100
0000
,
0020
0000
0030
0000
,
0200
0000
0300
0000
,
0001
0000
1000
0000
,
2002
0000
0000
3003
,;

//---------------dance-single - ----------------
#NOTES:
     dance-single:
     :
     Easy:
     4:
     0.199,0.225,0.040,0.151,0.000:
0000
0000
0000
0000
,
0000
0000
0000
0000
,
0000
0000
0000
0000
,
0000
0000
0000
0000
,
0000
0000
0000
0000
,
1000
0000
1000
0000
,
0001
0000
0001
0000
,
1000
0000
0001
0000
,
2002
0000
0000
3003
,
1000
0100
1000
0000
,
0001
0100
0001
0000
,
1000
1000
0001
0001
,
1000
0001
1000
0000
,
0001
0010
0001
0000
,
1000
0010
1000
0000
,
0002
0000
0000
0003
,
2000
0000
0000
3000
,
0010
0010
0100
0100
,
2002
0000
0000
3003
,
0000
0000
0000
0000
,
0000
0000
0000
0000
,
0002
0000
0003
0000
,
0020
0000
0030
0000
,
2000
0000
3000
0000
,
0100
0000
0100
0100
,
0001
0000
0100
0000
,
1000
0000
0100
0000
,
0001
0000
0010
0000
,
1000
0000
0001
0000
,
1000
1000
0001
0000
,
0010
0010
0100
0000
,
0001
0001
1000
0000
,
0100
0100
0010
0000
,
0001
1000
0100
0000
,
0010
0001
0100
0000
,
0010
1000
0100
0000
,
0010
0100
0010
0000
,
1001
0000
0000
0000
,
1000
0010
1000
0000
,
0001
0010
0001
0000
,
1000
1000
0001
0001
,
1000
0001
1000
0000
,
0001
0100
0001
0000
,
1000
0100
1000
0000
,
0002
0000
0000
0003
,
0200
0000
0000
0300
,
1000
0100
1000
0000
,
0001
0100
0001
0000
,
1000
1000
0001
0001
,
1000
0001
1000
0000
,
0001
0010
0001
0000
,
1000
0010
1000
0000
,
0002
0000
0000
0003
,
2000
0000
0000
3000
,
0010
0010
0100
0100
,
2002
0000
0000
3003
,;

//---------------dance-single - ----------------
#NOTES:
     dance-single:
     :
     Medium:
     6:
     0.324,0.372,0.151,0.323,0.000:
0000
0000
0000
0000
,
0000
0000
0000
0000
,
0000
0000
0000
0000
,
0000
0000
0000
0000
,
0000
0000
0000
0000
,
0001
0100
1000
0000
,
1000
0100
0001
0000
,
0001
0010
1000
0100
,
2002
0000
0000
3003
,
0002
0010
2003
0010
,
3002
0100
2003
3100
,
0010
0101
0010
1100
,
0001
1000
1001
0000
,
2000
0010
3002
0010
,
2003
0100
3002
0100
,
2003
0000
0100
3100
,
0002
0010
1000
0103
,
0010
0010
0100
0100
,
2002
0000
0000
3003
,
0001
0010
0100
1000
,
0000
0000
0000
0000
,
2000
0000
0000
3000
,
0200
0000
0000
0300
,
0002
0000
0000
0003
,
0020
0000
0100
0130
,
1000
0100
1000
0010
,
0001
0100
0001
0010
,
1000
0100
0001
0100
,
0010
0100
0110
0000
,
0001
0000
0001
0000
1000
1000
0100
0000
,
0010
0000
0010
0000
0001
0001
0100
0000
,
0010
0000
0010
0000
0100
0100
0001
0000
,
0010
0100
1100
0000
,
1000
0000
0001
0000
0010
0001
0010
0000
,
0100
0000
1000
0000
0010
1000
0010
0000
,
0100
0000
0001
0000
1000
0001
1000
0000
,
0100
0010
0100
0000
,
1001
0000
0000
0000
,
2000
0010
3002
0010
,
2003
0100
3002
0103
,
0010
1100
0010
0101
,
1000
0001
1001
0000
,
0002
0010
2003
0010
,
3002
0100
2003
3100
,
0002
0000
0100
0103
,
2000
0010
0001
3100
,
1000
0000
1000
0000
0001
0100
0001
0000
,
0010
0000
0010
0000
0100
1000
0100
0000
,
0001
0101
1000
1100
,
0100
0010
0110
0000
,
1000
0000
0010
0000
0100
0001
0100
0000
,
0001
0000
0010
0000
0100
1000
0100
0000
,
2000
0000
0100
3000
,
0002
0000
0100
0003
,
0100
0100
0010
0010
,
2002
0000
0000
3003
,
1000
0010
0100
0001
,;

//---------------dance-single - ----------------
#NOTES:
     dance-single:
     :
     Hard:
     9:
     0.412,0.459,0.171,0.272,0.005:
0000
0000
0000
0000
,
0000
0000
0000
0000
,
0000
0000
0000
0000
,
0000
0000
0000
0000
,
0000
0000
0000
0000
,
0002
0010
1000
0103
,
0020
1000
0100
0031
,
2000
0100
0001
3010
,
0220
0000
0000
0330
,
0001
0010
0100
0000
1000
0010
0100
0000
,
0001
1000
0100
0000
1000
0001
0010
0000
,
2100
3010
0102
0013
,
0001
0010
0100
0010
0001
0000
1000
0000
,
0010
0100
1000
0000
0010
0100
0001
0000
,
1000
0100
0001
0000
1000
0010
0001
0000
,
2000
0000
3010
0000
0100
0001
0100
0000
,
0002
0000
0013
0000
0100
1000
0100
0000
,
1000
0010
0100
0000
0001
0010
0100
0000
,
2002
0000
0000
3003
,
0001
0100
0010
1000
0010
0100
0001
1000
,
0000
0000
0000
0000
,
2000
0000
0000
3000
,
0020
0000
0000
0030
,
0002
0000
0000
0003
,
0200
0000
0010
0310
,
1000
0000
0010
0000
1000
0001
0100
0000
,
0001
0000
0010
0000
0001
1000
0100
0000
,
1000
0010
0100
0000
0001
0010
0100
0000
,
0100
1000
0001
0100
0010
0000
0110
0000
,
0001
0000
0002
0000
1003
0100
0010
0000
,
0100
0000
0200
0000
1300
0001
0100
0000
,
0010
0000
0020
0000
0130
0001
0010
0000
,
0001
0000
0002
0000
1003
0100
0010
0000
,
1000
0000
0101
0000
0010
0100
0010
0000
,
0010
0000
0101
0000
1000
0100
1000
0000
,
0010
0000
0110
0000
1000
0001
1000
0000
,
0010
0001
0100
0001
0010
0000
0100
0000
,
1001
0000
0000
0000
,
1000
0010
0100
0000
0001
0010
0100
0000
,
1000
0001
0100
0000
0001
1000
0010
0000
,
0102
0013
2100
3010
,
1000
0010
0100
0010
1000
0000
0001
0000
,
0010
0100
0001
0000
0010
0100
1000
0000
,
0001
0100
1000
0000
0001
0010
1000
0000
,
0002
0010
1000
0103
,
2000
0010
0001
3100
,
0001
0010
0100
0010
0001
1000
0100
0000
,
1000
0010
0100
0010
1000
0001
0100
0000
,
1100
1010
0101
0011
,
0001
1000
0010
0100
0001
0000
1000
0000
,
0010
0100
1000
0000
0010
0100
0001
0000
,
0010
0001
0100
0000
0010
1000
0100
0000
,
2000
0000
3010
0000
0100
0001
0100
0000
,
0002
0000
0013
0000
0100
1000
0100
0000
,
1000
0010
0100
0000
0001
0010
0100
0000
,
2002
0000
0000
3003
,
0001
0000
0000
0000
0100
0000
0000
0000
0010
0000
0000
1000
0000
0000
1001
0000
;

//---------------dance-single - ----------------
#NOTES:
     dance-single:
     :
     Challenge:
     7:
     0.291,0.372,0.202,0.141,0.000:
0000
0000
0000
0000
,
0000
0000
0000
0000
,
0000
0000
0000
0000
,
0000
0000
0000
0000
,
0000
0000
0000
0000
,
1000
0100
1000
0100
,
0001
0100
0001
0100
,
0010
0100
0010
0100
,
2002
0000
0000
3003
,
0010
MMMM
0100
0000
0010
MMMM
0100
0000
,
0001
MMMM
0100
0000
1000
MMMM
0100
0000
,
1010
0101
0011
1100
,
0001
1000
1001
MMMM
,
0010
MMMM
0100
0000
0010
MMMM
0100
0000
,
1000
MMMM
0100
0000
0001
MMMM
0100
0000
,
0002
0000
0010
0013
,
2000
0010
0001
3100
,
0010
MMMM
0100
MMMM
,
2002
0000
0000
3003
,
1000
0100
0010
0001
,
MMMM
MMMM
MMMM
MMMM
,
0002
0000
0003
MMMM
,
0020
0000
0030
MMMM
,
2000
0000
3000
MMMM
,
0200
0000
0010
0310
,
0001
MMMM
0001
0100
,
1000
MMMM
1000
0100
,
0001
MMMM
1000
MMMM
,
0100
0010
0110
MMMM
,
1000
0000
1000
0000
0001
MMMM
0010
0000
,
0100
0000
0100
0000
0001
MMMM
0010
0000
,
0100
0000
0100
0000
0010
MMMM
0001
0000
,
0100
0010
0001
0100
,
0001
0000
1000
0000
0100
MMMM
0100
0000
,
0010
0000
0001
0000
0100
MMMM
0100
0000
,
0010
0000
1000
0000
0001
MMMM
0001
0000
,
0010
0100
1000
0010
,
1001
0000
0000
MMMM
,
0010
MMMM
0100
0000
0010
MMMM
0100
0000
,
1000
MMMM
0100
0000
0001
MMMM
0100
0000
,
0011
1100
1010
0101
,
1000
0001
1001
MMMM
,
0010
MMMM
0100
0000
0010
MMMM
0100
0000
,
0001
MMMM
0100
0000
1000
MMMM
0100
0000
,
1000
0010
0100
0001
,
0001
0010
0100
1000
,
0010
MMMM
0100
0000
0010
MMMM
0100
0000
,
0001
MMMM
0100
0000
1000
MMMM
0100
0000
,
1010
0101
0011
1100
,
0001
1000
1001
MMMM
,
0010
MMMM
0100
0000
0010
MMMM
0100
0000
,
1000
MMMM
0100
0000
0001
MMMM
0100
0000
,
2000
0000
0010
3010
,
0002
0010
1000
0103
,
0010
MMMM
0100
MMMM
,
2002
0000
0000
3003
,
1000
0100
0010
0001
,;

//---------------dance-double - ----------------
#NOTES:
     dance-double:
     :
     Easy:
     5:
     0.246,0.258,0.061,0.212,0.000:
00000000
00000000
00000000
00000000
,
00000000
00000000
00000000
00000000
,
00000000
00000000
00000000
00000000
,
00000000
00000000
00000000
00000000
,
00000000
00000000
00000000
00000000
,
10000000
00000000
10000000
00000000
,
01000000
00000000
01000000
00000000
,
00010000
00000000
00001000
00000000
,
00022000
00000000
00000000
00033000
,
00000010
00000001
00000100
00000000
,
00000010
00001000
00000100
00000000
,
00000010
00010000
00001000
00100000
,
00010000
10000000
01000000
00000000
,
00100000
10000000
01000000
00000000
,
00100000
00010000
01000000
00000000
,
00002000
00000000
00103000
00000000
,
00020000
00000000
00030010
00000000
,
00001000
00000100
00000001
00001000
,
00002002
00000000
00000000
00003003
,
00000001
00000010
00000100
00001000
,
00000000
00000000
00000000
00000000
,
00000020
00000000
00000000
00000030
,
00000200
00000000
00000000
00000300
,
00002000
00000000
00000000
00003000
,
00020000
00000000
00001000
00031000
,
00100000
10000000
00100000
01000000
,
00100000
10000000
01000000
00010000
,
00001000
00000010
00000001
00000100
,
00000010
00000100
00000110
00000000
,
00000002
00000000
00001000
00000103
,
00002000
00000000
00010000
00013000
,
00200000
00000000
01000000
01300000
,
10000000
00100000
01000000
00010000
,
00100000
00010000
01000000
00000000
,
00001000
00010000
00000010
00000000
,
00001000
00000001
00000100
00001000
,
00010000
00001000
00010000
00000000
,
00022000
00000000
00000000
00033000
,
00100000
10000000
01000000
00000000
,
00100000
00010000
01000000
00000000
,
00100000
00001000
00010000
00000010
,
00001000
00000001
00000100
00000000
,
00000010
00000001
00000100
00000000
,
00000010
00001000
00000100
00000000
,
00020000
00000000
00030010
00000000
,
00002000
00000000
00103000
00000000
,
00010000
00100000
10000000
01000000
,
00010000
00001000
00000100
00000001
,
00000010
00000010
00000100
00000100
,
00000010
00000100
00000110
00000000
,
00000010
00000001
00000100
00001000
,
00010000
01000000
10000000
00100000
,
02000000
00000000
00000000
03000000
,
00200000
00000000
00000000
00300000
,
00100000
00100000
00010000
00001000
,
00022000
00000000
00000000
00033000
,
00001000
00000100
00000001
00000010
,;

//---------------dance-double - ----------------
#NOTES:
     dance-double:
     :
     Medium:
     8:
     0.393,0.516,0.222,0.363,0.005:
00000000
00000000
00000000
00000000
,
00000000
00000000
00000000
00000000
,
00000000
00000000
00000000
00000000
,
00000000
00000000
00000000
00000000
,
00000000
00000000
00000000
00000000
,
00000001
00000100
00000001
00000100
,
00001000
00010000
00001000
00010000
,
01000000
10000000
01000000
10000000
,
20020000
00000000
00000000
30030000
,
00100000
10000000
00100000
00000000
01000000
00010000
01000000
00000000
,
00001000
00010000
00001000
00000000
00000100
00000001
00000100
00000000
,
00000021
00000130
00001020
00000130
,
00001000
00010000
00011000
00000000
,
00000010
00000001
00000010
00000000
00000100
00001000
00000100
00000000
,
00010000
00001000
00010000
00000000
01000000
10000000
01000000
00000000
,
00020000
01000000
10000000
00100000
,
00032000
00000100
00000001
00003010
,
00010000
00000000
00100000
00000000
01000000
10000000
01000000
00000000
,
20020000
00000000
00000000
30030000
,
10000000
00000000
01000000
00000000
00100000
00010000
00100000
01000000
,
00000000
00000000
00000000
00000000
,
00020000
00000000
00000000
00030000
,
00002000
00000000
00000000
00003000
,
00000020
00000000
00000000
00000030
,
00000002
00000000
00001000
00001003
,
00000010
00000000
00000100
00000000
00001000
00010000
00001000
00000000
,
00100000
00000000
00010000
00000000
10000000
00010000
01000000
00000000
,
00100000
10000000
01000000
00000000
00100000
00010000
01000000
00000000
,
00100000
00010000
00001000
00010000
,
00002000
00100000
00023000
00100000
,
00032000
00000010
00023000
00000010
,
00032000
00100000
00023000
00100000
,
00032000
00000010
00023000
00030010
,
00011000
00000000
00201000
00000000
00310000
00100000
00010000
00000000
,
00011000
00000000
00010020
00000000
00001030
00000010
00001000
00000000
,
00011000
00000000
02001000
00000000
03010000
01000000
00010000
00000000
,
00011000
00000000
00010200
00000000
00001300
00000100
00001000
00000000
,
00000202
00000000
00000000
00000303
,
00000010
00000001
00000010
00000000
00000100
00001000
00000100
00000000
,
00010000
00001000
00010000
00000000
01000000
10000000
01000000
00000000
,
10200000
01300000
00210000
01300000
,
00010000
00001000
00011000
00000000
,
00100000
10000000
00100000
00000000
01000000
00010000
01000000
00000000
,
00001000
00010000
00001000
00000000
00000100
00000001
00000100
00000000
,
00002000
00000100
00000001
00000010
,
00023000
01000000
10000000
00130000
,
01000000
10000000
00100000
00000000
00100000
00010000
00001000
00000000
,
00001000
00000010
00000001
00000000
00000001
00001000
00000100
00000000
,
00000021
00000130
00001020
00000130
,
00001000
00010000
00011000
00000000
,
00100000
00010000
01000000
00000000
00100000
10000000
01000000
00000000
,
00010000
00001000
00010000
00000000
00001000
00000100
00000001
00000000
,
00002000
00000100
00000001
00000010
,
00023000
01000000
10000000
00130000
,
00001000
00001000
00010000
00001000
,
00022000
00000000
00000000
00033000
,
00000100
00000000
00000000
00000000
00000001
00000000
00000000
00000000
00001000
00000000
00000000
00000001
00000000
00000000
00001001
00000000
,;

//---------------dance-double - ----------------
#NOTES:
     dance-double:
     :
     Hard:
     13:
     0.533,0.602,0.242,0.161,0.166:
00000000
00000000
00000000
00000000
,
00000000
00000000
00000000
00000000
,
00000000
00000000
00000000
00000000
,
00000000
00000000
00000000
00000000
,
00000000
00000000
00000000
00000000
,
00010000
00000000
00100000
00000000
01000000
10000000
00100000
00000000
,
00010000
00000000
00001000
00000000
00000010
00001000
00010000
00000000
,
00010000
00001000
00000100
00000000
00000100
00000001
00001000
00000000
,
00000220
00000000
00000000
00000330
,
00000001
00000000
00000010
00000001
00000010
00000000
00000100
00000000
00001000
00000000
00000010
00000100
00000010
00000000
00000100
00000000
,
00001000
00000000
00010000
00001000
00010000
00000000
01000000
00000000
10000000
00000000
00100000
00000000
01000000
00000000
00100000
00000000
,
10100000
01010000
00011000
00001010
,
00000110
00000000
00000000
00000100
00000010
00000000
00000001
00000000
00000100
00000000
00000010
00000000
00001000
00000000
00000000
00000000
,
00000001
00000000
00000100
00000010
00000100
00000000
00000010
00000000
00001000
00000000
00000100
00000010
00000100
00000000
00010000
00000000
,
00001000
00000000
00100000
00010000
00100000
00000000
00010000
00000000
10000000
00000000
00100000
00000000
01000000
00000000
00010000
00000000
,
20000000
01000000
00010000
30100000
,
00120000
00031000
00000210
00000301
,
00001000
00000000
00000100
00000010
00000100
00000000
00001000
00000000
00000001
00000000
00000100
00000010
00000100
00000000
00000001
00000000
,
00000010
00000100
00010000
00001000
00100000
00010000
01000000
00100000
,
10000000
01000000
00010000
00001000
00000010
00000001
00001000
00000100
,
00000000
00000000
00000000
00000000
,
00000002
00000000
00000000
00000003
,
00002000
00000000
00000000
00003000
,
00000200
00000000
00000000
00000300
,
00000010
00000000
00001010
00011000
,
00100000
00000000
00000000
00100000
00010000
00000000
00000000
00010000
10000000
00000000
00100000
00000000
01000000
00000000
00000000
00000000
,
00100000
00000000
00000000
00100000
10000000
00000000
00000000
10000000
01000000
00000000
00010000
00000000
00001000
00000000
00000000
00000000
,
01000000
00000000
00000000
01000000
00001000
00000000
00000000
00000000
00000100
00000000
00000000
00000100
00001000
00000000
00000000
00000000
,
00000100
00000001
00000010
00000100
00000010
00000001
00000100
00000000
,
00000002
00000000
00000103
00001000
00010000
01000000
10000000
00000000
,
00200000
00000000
10300000
01000000
00100000
00001000
01000000
00000000
,
00200000
00000000
00310000
00001000
00000010
00000100
00001000
00000000
,
00000020
00000000
00000130
00001000
00010000
00000010
00001000
00000000
,
00000001
00000010
00000100
00000010
00001000
00010000
01000000
00000000
,
10000000
00010000
01000000
00100000
01000000
00001000
00010000
00000000
,
00000010
00001000
00000010
00000100
00000001
00000010
00000100
00000000
,
00001000
00000001
00000100
00001000
00010000
00100000
10000000
00000000
,
00010000
00000000
00000000
10000000
00000000
00000000
10010000
00000000
00000000
00000000
00000000
00000000
00000000
00000000
00000000
00000000
,
10000000
00000000
00100000
10000000
00100000
00000000
01000000
00000000
00010000
00000000
00100000
01000000
00100000
00000000
01000000
00000000
,
00010000
00000000
00001000
00010000
00001000
00000000
00000100
00000000
00000001
00000000
00000010
00000000
00000100
00000000
00000010
00000000
,
00000011
00001100
00011000
00110000
,
01100000
00000000
00000000
01000000
00100000
00000000
10000000
00000000
01000000
00000000
00100000
00000000
00010000
00000000
00000000
00000000
,
10000000
00000000
01000000
00100000
01000000
00000000
00100000
00000000
00010000
00000000
01000000
00100000
01000000
00000000
00001000
00000000
,
00010000
00000000
00000010
00001000
00000010
00000000
00001000
00000000
00000001
00000000
00000010
00000000
00000100
00000000
00001000
00000000
,
00000002
00000100
00001000
00000013
,
00001000
00010000
00100000
00010000
00001000
00010000
01000000
00000000
,
10000000
00000000
00010000
00100000
00010000
00000000
01000000
00000000
00100000
00000000
10000000
00010000
10000000
00000000
01000000
00000000
,
00010000
00000000
00001000
00000010
00001000
00000000
00010000
00000000
00000100
00000000
00001000
00000000
00000010
00000000
00000100
00000000
,
00000011
00001100
00011000
00110000
,
01100000
00000000
00000000
01000000
00100000
00000000
10000000
00000000
01000000
00000000
00100000
00000000
00010000
00000000
00000000
00000000
,
10000000
00000000
00100000
01000000
00100000
00000000
10000000
00000000
01000000
00000000
00100000
00010000
00100000
00000000
00001000
00000000
,
00010000
00000000
00000010
00001000
00000010
00000000
00000100
00000000
00000001
00000000
00000010
00000000
00000100
00000000
00001000
00000000
,
00000002
00000100
00001000
00000013
,
00002010
00013000
02100000
13000000
,
00010000
00000000
01000000
00100000
01000000
00000000
00010000
00000000
10000000
00000000
01000000
00100000
01000000
00000000
10000000
00000000
,
00100000
01000000
00001000
00010000
00000010
00001000
00000100
00000010
,
00000001
00000000
00000100
00000000
00001000
00000000
00010000
00000000
00100000
00000000
00000000
10000000
00000000
00000000
11000000
00000000
,;

//---------------dance-double - ----------------
#NOTES:
     dance-double:
     :
     Challenge:
     8:
     0.279,0.372,0.131,0.303,0.000:
00000000
00000000
00000000
00000000
,
00000000
00000000
00000000
00000000
,
00000000
00000000
00000000
00000000
,
00000000
00000000
00000000
00000000
,
00000000
00000000
00000000
00000000
,
10000000
01000000
10000000
01000000
,
00010000
00001000
00010000
00001000
,
00000100
00000001
00000100
00000001
,
00002002
00000000
00000000
00003003
,
00000010
MMMMMMMM
00000100
00000000
00000010
MMMMMMMM
00000100
00000000
,
00001000
MMMMMMMM
00001000
00000000
00010000
MMMMMMMM
00010000
00000000
,
00210000
01300000
10200000
01300000
,
10000000
00010000
10010000
MMMMMMMM
,
00100000
MMMMMMMM
01000000
00000000
00100000
MMMMMMMM
01000000
00000000
,
00010000
MMMMMMMM
00010000
00000000
00001000
MMMMMMMM
00001000
00000000
,
00000200
00000000
00000001
00000301
,
00000010
00000001
00001000
00000010
,
00000100
MMMMMMMM
00000010
MMMMMMMM
,
00002002
00000000
00000000
00003003
,
00000001
00000100
00000010
00001000
,
MMMMMMMM
MMMMMMMM
MMMMMMMM
MMMMMMMM
,
00002000
00000000
00003000
MMMMMMMM
,
00020000
00000000
00030000
MMMMMMMM
,
00200000
00000000
00300000
MMMMMMMM
,
20000000
00000000
00010000
30010000
,
00100000
MMMMMMMM
00010000
00001000
,
00000010
MMMMMMMM
00000001
00000100
,
00000010
MMMMMMMM
00000001
MMMMMMMM
,
00000010
00001000
00010000
MMMMMMMM
,
00020000
00000000
00130000
MMMMMMMM
,
00200000
00000000
10300000
MMMMMMMM
,
20000000
00000000
31000000
MMMMMMMM
,
02000000
00000000
03010000
MMMMMMMM
,
00002000
00000000
00003010
MMMMMMMM
,
00000020
00000000
00000031
MMMMMMMM
,
00000002
00000000
00000103
MMMMMMMM
,
00000200
00000000
00001300
MMMMMMMM
,
00022000
00000000
00000000
00033000
,
00100000
MMMMMMMM
01000000
00000000
00100000
MMMMMMMM
01000000
00000000
,
00010000
MMMMMMMM
00010000
00000000
00001000
MMMMMMMM
00001000
00000000
,
00001020
00000130
00000021
00000130
,
00000001
00001000
00001001
MMMMMMMM
,
00000010
MMMMMMMM
00000100
00000000
00000010
MMMMMMMM
00000100
00000000
,
00001000
MMMMMMMM
00001000
00000000
00010000
MMMMMMMM
00010000
00000000
,
02000000
00000000
10000000
13000000
,
00020000
01000000
10000000
00130000
,
00100000
MMMMMMMM
01000000
00000000
00100000
MMMMMMMM
01000000
00000000
,
00010000
MMMMMMMM
00010000
00000000
00001000
MMMMMMMM
00001000
00000000
,
00001020
00000130
00000021
00000130
,
00000001
00001000
00001001
MMMMMMMM
,
00000010
MMMMMMMM
00000100
00000000
00000010
MMMMMMMM
00000100
00000000
,
00001000
MMMMMMMM
00001000
00000000
00010000
MMMMMMMM
00010000
00000000
,
02000000
00000000
00100000
03100000
,
10000000
01000000
00100000
00010000
,
00001000
MMMMMMMM
00010000
MMMMMMMM
,
00022000
00000000
00000000
00033000
,
00001000
00000010
00000001
00001000
,;

//---------------dance-single - Copied from----------------
#NOTES:
     dance-single:
     Copied from:
     Edit:
     14:
     0.758,0.863,0.403,0.524,0.499: // measure 1
0000
0000
0000
0000
,  // measure 2
0000
0000
0000
0000
,  // measure 3
0000
0000
0000
0000
,  // measure 4
0000
0000
0000
0000
,  // measure 5
0000
0000
0000
0000
,  // measure 6
0001
0000
0010
0000
0100
0000
1000
0100
1000
0000
0100
0000
0010
0000
0001
0010
,  // measure 7
0001
0000
0100
0000
1000
0000
0100
0010
0100
0000
0010
0000
1000
0000
0001
0000
,  // measure 8
0010
0100
1000
0100
0010
0001
1000
0010
0100
0001
1000
0010
0100
0001
1000
0010
,  // measure 9
0200
0000
0000
0020
0300
1030
0010
0100
,  // measure 10
0101
0000
0001
0020
0000
0000
0130
0000
1100
0000
1000
0200
0000
0000
0310
0000
,  // measure 11
0011
0000
0001
2000
0000
0000
3010
0000
1000
0000
0001
0000
0010
0000
0100
0000
,  // measure 12
2000
3020
0230
0302
,  // measure 13
1003
0000
0000
1010
0000
0000
0101
0000
0100
0000
0001
0000
1000
0000
0001
0000
,  // measure 14
0010
0000
0100
1000
0000
0000
0100
0000
0010
0000
0001
0100
0000
0000
0010
0000
,  // measure 15
1000
0000
0100
0010
0000
0000
0001
0000
1000
0000
0010
0000
0001
0000
0010
0000
,  // measure 16
1000
0000
0010
0100
0001
1000
0010
0000
0100
0010
1000
0001
0100
0000
0010
0000
,  // measure 17
2010
3200
0320
0032
,  // measure 18
1003
0000
0010
0100
0000
0000
0001
0000
0010
0000
0100
0000
1000
0000
0100
0000
,  // measure 19
0010
0000
0001
1000
0000
0000
0010
0000
1000
0100
0010
0001
0010
0000
0100
0000
,  // measure 20
1000
0100
0010
0001
0010
0000
0100
0000
1000
0000
0010
0000
0100
0000
2002
0000
,  // measure 21
3003
0001
0010
1000
0001
0100
1000
0010
,  // measure 22
2000
0000
0000
0000
3001
1000
0100
0010
,  // measure 23
0002
0000
0000
0000
0013
0100
1000
0100
,  // measure 24
0020
0000
0000
0000
0031
0010
1000
0010
,  // measure 25
0001
0100
1000
0100
0220
0330
2020
3030
,  // measure 26
1001
0000
1000
0001
0010
0000
0100
0000
1000
0000
0001
0000
0100
0000
1000
0000
,  // measure 27
0100
0000
0010
1000
0001
0000
0010
0000
0100
0000
0100
0000
1000
0000
1000
0000
,  // measure 28
1002
0000
0203
0000
0310
1000
0100
0010
,  // measure 29
0002
0000
0000
1003
2020
0000
0000
0030
,  // measure 30
3001
0000
1000
0001
0100
0000
0010
0000
1000
0100
0010
0001
0100
0000
0001
0000
,  // measure 31
1000
0100
0010
0001
1000
0000
0010
0000
0100
0001
0010
0100
1000
0000
0010
0000
,  // measure 32
0100
0000
0001
0000
1000
0000
0100
0000
0010
0001
0000
0010
0000
0000
0100
0000
,  // measure 33
1100
0000
0000
1010
0000
0000
0101
0000
1001
0000
0000
0000
0020
0000
0000
0000
,  // measure 34
1030
0000
0001
1000
0000
0010
0100
0000
0001
0000
1000
0000
0100
0000
1000
0000
,  // measure 35
2010
0000
0000
0000
3002
0000
0000
0000
0013
0001
0100
0001
0010
0000
0100
0000
,  // measure 36
1000
0010
0100
0010
1000
0000
1001
0000
0001
0010
0100
1000
0100
0000
0010
0000
,  // measure 37
0001
0010
0100
1000
0010
0100
0001
0010
0100
1000
0010
0100
0001
0010
0100
1000
,  // measure 38
1001
0000
0000
1010
0000
0000
0101
0000
0000
0000
0001
0000
0100
0000
0010
0000
,  // measure 39
1010
0000
1000
0200
0000
0000
0310
0000
0011
0000
0001
0020
0000
0000
0130
0000
,  // measure 40
1100
0000
1000
0002
0000
0000
0103
0000
0001
0000
1000
0000
0100
0010
0100
0010
,  // measure 41
0002
0000
0000
0000
0203
0000
0000
0000
0310
1000
0010
1000
0002
0000
0000
0000
,  // measure 42
1003
0000
0000
0101
0000
0000
1001
0000
0001
0000
1000
0000
0001
0000
1000
0000
,  // measure 43
0100
0000
0010
0001
0000
0000
0010
0000
0100
0000
1000
0010
0000
0000
0100
0000
,  // measure 44
0001
0000
0010
0100
0000
0000
1000
0000
0001
0000
0100
0000
1000
0000
0100
0000
,  // measure 45
0001
0000
0100
0010
1000
0001
0100
0000
0010
1000
0001
0100
0010
0000
1000
0000
,  // measure 46
0001
1000
0001
0010
0100
1000
0010
0100
0001
1000
0010
1000
0001
0010
0100
1000
,  // measure 47
0001
0000
1000
0200
0000
0000
0310
0000
0011
0000
0001
0020
0000
0000
0130
0000
,  // measure 48
1100
0000
1000
0002
0000
0000
0103
0000
0001
0000
1000
0000
0100
0000
0010
0000
,  // measure 49
0002
0203
0320
2030
,  // measure 50
3001
0000
0000
0101
0000
0000
1010
0000
1000
0000
0100
0000
1000
0000
0001
0000
,  // measure 51
0011
0000
0010
0002
0000
0000
1003
0000
1001
0000
0001
0200
0000
0000
0310
0000
,  // measure 52
1010
0000
1000
0200
0000
0000
0310
0000
0011
0000
0001
0000
1000
0000
0100
0000
,  // measure 53
1001
0000
0100
0010
1000
0001
0100
0000
0010
0100
0001
1000
0010
0000
0100
0000
,  // measure 54
0002
2003
3020
0230
,  // measure 55
0301
0000
1000
0010
0100
0000
0001
0000
0010
0000
0100
1000
0010
0000
0100
0000
,  // measure 56
0001
0000
1000
0100
0010
0000
0001
0000
0100
0010
1000
0100
0010
0000
0110
0000
,  // measure 57
0100
1000
0001
0100
0010
0000
1010
0000
1001
0000
0000
1010
0000
0000
0220
0000
,  // measure 58
0000
0000
0000
0000
,  // measure 59
0000
0000
0000
0000
,  // measure 60
0330
0000
0000
0000
;
