#VERSION:0.81;
#TITLE:eXtridia;
#SUBTITLE:;
#ARTIST:unatraXNego_tiator;
#TITLETRANSLIT:;
#SUBTITLETRANSLIT:;
#ARTISTTRANSLIT:;
#GENRE:;
#ORIGIN:;
#CREDIT:;
#BANNER:;
#BACKGROUND:;
#PREVIEWVID:;
#JACKET:eXtridia-jacket.png;
#CDIMAGE:;
#DISCIMAGE:;
#LYRICSPATH:;
#CDTITLE:;
#MUSIC:eXtridia.mp3;
#OFFSET:-0.600000;
#SAMPLESTART:104.180031;
#SAMPLELENGTH:12.000000;
#SELECTABLE:YES;
#BPMS:0.000=135.980;
#STOPS:;
#DELAYS:;
#WARPS:;
#TIMESIGNATURES:0.000=4=4;
#TICKCOUNTS:0.000=4;
#COMBOS:0.000=1;
#SPEEDS:0.000=1.000=0.000=0;
#SCROLLS:0.000=1.000;
#FAKES:;
#LABELS:0.000=Song Start;
#BGCHANGES:;
#KEYSOUNDS:;
#ATTACKS:
;

//---------------dance-single - ----------------
#NOTEDATA:;
#CHARTNAME:;
#STEPSTYPE:dance-single;
#DESCRIPTION:;
#CHARTSTYLE:;
#DIFFICULTY:Hard;
#METER:17;
#RADARVALUES:0.973134,0.955255,0.269309,0.110892,1.000000,812.000000,34.000000,14.000000,0.000000,0.000000,0.000000,0.000000,0.000000,0.973134,0.955255,0.269309,0.110892,1.000000,812.000000,34.000000,14.000000,0.000000,0.000000,0.000000,0.000000,0.000000;
#CREDIT:;
#NOTES:
0000
0000
0000
0000
,
1000
0001
1000
0100
0010
0001
0010
0100
1000
0001
0010
0100
0010
0001
1000
0001
,
1000
0010
0100
0000
0100
0000
0100
0000
0001
0100
0001
1000
0010
0100
0001
0010
,
0100
0010
0001
1000
0100
0010
0100
1000
0001
0100
1000
0100
0001
0010
1000
0010
,
0001
0100
0001
0100
0010
1000
0010
1000
0001
0010
0001
1000
0100
1000
0010
0100
,
1000
0100
0001
0000
0001
0000
0001
0000
1000
0001
0010
0100
0010
0001
1000
0100
,
1000
0010
0100
0010
1000
0001
0100
0001
0010
0100
1000
0001
0010
0100
1000
0000
,
1010
0000
1010
0000
0000
0000
1001
0000
1001
0000
0000
0000
0101
0000
0000
0101
,
0000
0000
1010
0000
1000
0010
0100
0001
0200
0000
0000
0000
0000
0000
0000
0000
,
0000
0000
0000
0000
0000
0000
0000
0000
0000
0000
0000
0000
0000
0000
0000
0000
0000
0000
0301
0010
0100
1000
0100
0010
,
0001
1000
0001
1000
0000
0010
0100
0001
0100
0010
0000
0010
0100
0000
0010
0100
,
0000
0001
1000
0001
1000
0100
0010
0000
0001
0010
0001
1000
0000
1000
0001
0100
,
0001
0010
0000
0100
1000
0100
1000
0010
0100
0001
0100
0010
1000
0100
1000
0100
,
0010
0001
0010
0100
0000
0100
1000
0100
1000
0001
0000
0001
0200
0000
0000
0000
,
0310
1000
0001
1000
0001
0100
0010
1000
0100
0010
0100
0010
0001
1000
0001
1000
,
0010
1000
0010
1000
0001
0100
0001
0100
0010
1000
0010
0100
0001
0010
0100
1000
,
0001
0000
0000
1000
0010
0100
0101
0000
0000
1000
0001
1000
0000
0010
1000
0000
,
0001
0100
0000
0000
0100
0010
1000
0000
0001
0000
0010
0000
0001
0000
0100
0000
,
0001
0010
0100
1000
0001
0100
0010
0010
,
2000
0000
0000
0000
0000
0000
0001
0000
3000
0001
1000
0010
0000
0100
0010
0000
,
1000
0001
0000
0000
1000
0001
1000
0100
0010
0001
0010
0100
1000
0001
0010
0100
,
1000
0001
0001
0100
0100
0010
0010
1000
,
0002
0000
0000
0000
0000
0000
0100
0000
0003
1000
0010
1000
0000
0001
0100
0000
,
0010
1000
0000
0000
0100
0000
0010
0000
0001
0000
1000
0000
0010
0000
0100
0000
,
0100
0001
0010
0100
0001
0100
1000
0001
,
1000
0010
1000
0001
0100
0001
0010
0100
1000
0100
0001
0100
1000
0010
0001
0010
,
1000
0010
1000
0001
0100
0001
1000
0100
1000
0010
0100
0010
0100
0001
1000
0001
,
1000
0100
0010
0001
1000
0100
0010
0001
0010
0100
1000
0001
0010
0100
1000
0001
,
0100
0000
0000
0010
0000
0000
0100
0000
0000
0001
0000
0000
1000
0000
0010
0000
0100
0000
0001
0000
0010
0000
0100
0000
1000
0000
0000
0000
0000
0000
0000
0000
0000
0001
0000
0000
0010
0000
0000
0001
0000
0000
1000
0000
0000
0100
0000
0000
,
1000
0000
0000
0100
0000
0000
0010
0000
0000
0001
0000
0000
0010
0000
0000
0100
0000
0000
1000
0000
0000
0010
0000
0000
0100
0000
0010
0000
1000
0000
0001
0000
1000
0000
0100
0000
0010
0000
0001
0000
1000
0000
0001
0000
0000
0010
0000
0000
,
0100
0000
0000
1000
0000
0000
0001
0000
0000
0010
0000
0000
0001
0000
1000
0000
0100
0000
0010
0000
0001
0000
0100
0000
0010
0000
0000
1000
0000
0000
0100
0000
0000
0010
0000
0000
0100
0000
0000
1000
0000
0000
0001
0000
0000
0010
0000
0000
,
0100
0000
0000
0010
0000
0000
0001
0000
0000
0100
0000
0000
0001
0000
0010
0000
0100
0000
1000
0000
0000
0100
0000
0000
0001
0000
0000
0100
0000
0000
1000
0000
0000
0010
0000
0000
0100
0000
0000
0010
0000
0000
1000
0000
0000
0100
0000
0000
,
1000
0001
0010
0001
0010
0100
1000
0010
0100
0001
0010
0100
0010
0001
1000
0100
,
0010
0000
0000
0001
0000
0000
1000
0000
0000
0010
0000
0000
0001
0000
0000
0010
0000
0000
1000
0000
0000
0100
0000
0000
1000
0000
0000
0001
0000
0000
0100
0000
0010
0000
0100
0000
0010
0000
0000
0000
0000
0000
0000
0000
0000
1000
0000
0000
,
0010
1000
0001
0100
0001
1000
0100
1000
0001
0010
0001
1000
0100
1000
0001
0010
,
0001
0000
0000
1000
0000
0000
0100
0000
0000
1000
0000
0000
0001
0000
0000
0100
0000
0000
0001
0000
0000
1000
0000
0000
0001
0000
0010
0000
0100
0000
1000
0000
0001
0000
0010
0000
0100
0000
1000
0000
0001
0000
0010
0000
0100
0000
1000
0000
,
0001
0000
0010
0000
0100
0000
1000
0000
0001
0000
0010
0000
0100
0000
1000
0000
0001
0000
0100
0000
0000
0000
0000
0000
0000
0000
0000
0100
0000
0000
0000
0000
0000
0100
0000
0000
0001
0000
1000
0000
0001
0000
1000
0000
0000
0010
0000
0000
,
1000
0010
0000
0100
0001
0100
0001
1000
0000
0010
0000
0100
0010
1000
0010
0100
,
0001
1000
0001
1000
0001
1000
0010
0100
0010
0100
0000
0000
2002
0000
0000
0003
0000
0000
0010
0000
0000
3010
0000
0000
,
0000
1000
0001
0100
0010
0020
0000
0000
,
2030
0000
0000
0000
3000
0001
0000
0100
0000
0010
0000
0000
0000
0000
0000
0010
0000
0000
1000
0000
0000
0100
0000
0000
,
0010
0002
0000
0003
0101
0000
0010
2000
,
0000
3001
0010
0001
1000
0200
0000
1300
,
0100
0010
0001
1000
0100
0001
0100
1000
,
0001
0000
0002
0000
0000
0000
0000
0000
0103
0001
1000
0001
0010
0100
1000
0000
,
1010
0000
1001
0000
0010
0000
0100
0010
0000
0010
1000
0000
1000
0100
0000
0000
,
0100
0010
0001
1000
0001
0100
0010
0000
0110
0000
0101
0000
0001
0000
0000
1000
,
0010
1000
0001
0000
0000
0100
0000
0000
1000
0100
0001
0100
1000
0001
0010
0000
,
1010
0000
1000
0001
0100
0000
0100
0010
0000
1010
0000
1100
0000
0110
0000
0011
,
0000
0001
0010
1000
0001
0100
1000
0100
0010
0100
0010
0001
1000
0001
1000
0010
,
0100
0001
1000
0000
1001
0000
0001
0000
0100
0010
0100
0001
0000
0001
1000
0000
,
1100
0000
0011
0000
1100
0000
0000
0010
0000
0000
0001
0000
0000
0100
0000
0000
,
0001
0100
0001
1000
0010
1000
0010
0000
0110
0000
0101
0000
2000
0000
0000
3001
,
0100
0001
0100
0000
0000
0010
0000
0000
0001
0010
1000
0010
0001
1000
0100
0000
,
0101
0000
0001
1000
0010
0000
0010
0100
0000
0101
0000
0011
0000
0110
0000
1100
,
0000
0000
0000
1000
0000
0000
0100
0000
0000
0001
0000
0000
1000
0000
0000
0010
0000
0000
0001
0000
0000
0010
0000
0000
0100
0000
0000
0010
0000
0000
0100
0000
0000
1000
0000
0000
0001
0000
1000
0000
0001
0000
0100
0000
0010
0000
0100
0000
,
0010
0000
1000
0000
0001
0000
1000
0000
0000
0000
0000
0000
0000
0000
0000
0000
0000
0000
0000
0000
0000
0000
0010
0000
0000
0000
0000
0000
0000
0000
1000
0000
0000
0001
0000
0000
0100
0000
0000
0001
0000
0000
1000
0000
0000
0100
0000
0000
,
1000
0000
0000
0010
0000
0000
0100
0000
0000
0010
0000
0000
1000
0000
0100
0000
1000
0000
0100
0000
0010
0000
0100
0000
0010
0000
0001
0000
0010
0000
0001
0000
0000
0000
0000
0000
0000
0000
0000
1000
0000
0000
0000
0000
0000
0000
0000
0000
,
0001
1000
0001
0010
0100
1000
0100
0010
0001
1000
0100
0010
0100
1000
0001
1000
,
0010
0100
0010
0000
1010
0000
0101
0000
1000
0010
1000
0001
0100
0010
1000
0100
,
0010
0100
1000
0001
0010
0100
0010
0001
1000
0010
0001
0010
1000
0100
0001
0100
,
1000
0010
1000
0010
0100
0001
0100
0001
1000
0100
1000
0001
0010
0001
0100
0010
,
0001
0010
1000
0000
1100
0000
0011
0000
0001
1000
0100
0010
0100
1000
0001
0010
,
0001
0100
0010
0100
0001
1000
0010
1000
0100
0010
0001
1000
0100
0010
0001
0100
,
0001
1000
0010
0001
1000
0100
0001
0010
0100
0001
0100
1000
0010
0001
1000
0100
,
0010
1000
0100
0010
0001
0010
0200
0000
0000
0000
0000
0000
0000
0000
0000
0000
,
0000
0000
0000
0000
1300
0010
1000
0001
0100
0001
0010
0100
0010
0100
1000
0001
,
0001
0000
0000
0000
;

//---------------dance-single - ----------------
#NOTEDATA:;
#CHARTNAME:;
#STEPSTYPE:dance-single;
#DESCRIPTION:;
#CHARTSTYLE:;
#DIFFICULTY:Medium;
#METER:13;
#RADARVALUES:0.628011,0.583767,0.095050,0.229705,0.510895,514.000000,12.000000,29.000000,0.000000,0.000000,0.000000,0.000000,0.000000,0.628011,0.583767,0.095050,0.229705,0.510895,514.000000,12.000000,29.000000,0.000000,0.000000,0.000000,0.000000,0.000000;
#CREDIT:;
#NOTES:
0000
0000
0000
0000
,
1000
0001
1000
0100
0010
0001
1000
0010
,
1000
0001
0001
0001
0100
0010
1000
0100
,
0010
0100
1000
0001
0100
0010
1000
0100
,
1000
0001
0010
0001
0010
0100
1000
0100
,
0010
0100
0100
0100
1000
0001
0100
0010
,
0100
0000
0001
0000
2000
0000
0000
3002
0000
0000
0203
0000
0000
0310
0000
0000
,
1001
0000
1001
0000
0000
0000
0110
0000
0110
0000
0000
0000
1010
0000
0000
0110
,
0000
0000
1001
0000
0000
0000
0010
0100
0020
0000
0000
0000
0000
0000
0000
0000
,
0000
0000
0000
0000
,
1030
0000
1000
0001
0000
0000
0100
0000
0100
0010
0000
0000
0010
0000
0010
0100
,
0000
0000
0001
0000
0001
1000
0000
0000
0100
0000
0100
0010
0000
0000
0001
0000
,
0001
1000
0000
0000
0001
0000
0000
0010
0000
0000
0100
0000
0000
1000
0000
0000
,
0001
0000
0001
0010
0000
0000
0100
0000
1000
0010
0000
1000
0002
0000
0000
0000
,
1003
0010
0000
0010
1000
0000
1000
0100
0000
0100
0010
0000
0010
0001
0000
0001
,
0100
0000
0100
0010
0000
0010
1000
0000
1000
0001
0000
0001
1000
0000
0010
0100
,
0010
0000
0000
0100
0000
0000
0110
0000
0000
0010
1000
0001
0000
1000
0010
0000
,
0100
0001
0000
0000
1000
0000
0000
0000
0001
0000
0100
0000
0010
0000
0100
0000
,
0001
0010
0001
1000
0100
1000
0001
0100
,
0020
0000
0000
0000
0000
0000
0130
0000
0000
0001
1000
0001
0000
1000
0100
0000
,
0010
0001
0000
0000
1000
0000
0000
0000
0100
0000
0010
0001
0010
0000
0100
0000
,
1000
0001
1000
0100
1000
0001
0100
0001
,
0200
0000
0000
0000
0000
0000
0310
0000
0000
1000
0001
1000
0000
0001
0010
0000
,
0100
1000
0000
0000
0100
0000
0010
0000
0001
0000
1000
0000
0001
0000
1000
0000
,
0100
1000
0001
0100
0001
0100
0010
1000
,
0001
0100
0001
0100
0001
0000
1000
0100
1000
0100
1000
0000
0001
1000
0001
1000
,
0001
0000
0100
0010
0100
0010
0100
0000
0001
0000
0010
0000
0100
0000
1000
0010
,
1000
0000
0010
0000
1000
0000
0001
0000
1000
0010
1000
0000
0010
0000
1000
0000
,
0001
1000
0001
1000
0001
0000
0100
0000
0010
0000
0000
1000
0000
1000
0001
0000
,
0001
0100
0000
0100
0010
0000
0010
2000
0000
0000
3002
0000
0000
0023
0000
0000
,
0130
0000
1000
0000
0001
0000
1000
0000
0010
0000
0100
0001
0100
0000
0001
0000
,
0100
0000
0001
1000
0001
0000
1000
0000
0001
0000
0100
0010
0100
0000
0001
0000
,
1000
0000
0010
1000
0010
0000
1000
0000
0100
0000
0010
0001
0010
0000
0100
0000
,
1000
0000
0001
1000
0001
0000
1000
0000
0010
0000
0100
0010
1000
0000
0000
1000
,
0001
0000
0001
0100
0000
0100
0010
0000
0010
1000
0000
1000
0001
0000
0001
0010
,
0000
0010
0100
0000
0100
1000
0000
1000
0001
0100
0000
0010
1000
0000
0100
0010
,
0000
0001
1000
0000
0010
1000
0001
0000
0000
0100
0000
0100
0001
0000
1000
0000
,
0010
1000
0010
0000
0100
0000
0001
0100
0000
0010
0000
0000
1000
0001
1000
0000
,
0002
0000
1003
0000
2010
0000
0001
3001
,
0000
0100
0010
0100
0001
2000
0000
0000
,
3002
0000
0000
0203
0000
0000
0320
0000
,
0000
1030
0000
0000
1001
0000
0000
0002
,
0000
0000
0023
0000
0000
0230
0000
1300
,
0001
1000
0010
0100
0001
0010
0100
1000
,
0010
0200
0000
0000
0310
1000
0001
0100
,
0010
0000
0010
0000
0010
0000
0000
1000
0000
0000
0001
0000
0000
1000
0000
0000
,
0100
0000
0010
0000
0001
0000
0010
0000
0100
0000
0100
0000
0100
0000
0000
1000
,
0000
0000
0001
0000
0000
0010
0000
0000
0100
0000
1000
0000
0001
0000
0100
0000
,
0110
0000
0010
0000
1000
0000
0001
0000
0000
0100
0000
0100
0000
0001
0000
0001
,
0000
1000
0010
0000
0100
0001
0000
1000
0010
0000
0100
0001
0000
1000
0010
0000
,
0100
0010
0200
0000
0001
0000
0301
0000
0100
0000
0001
0000
1000
0000
0010
0000
,
0100
0000
0100
0000
0100
0000
0000
0001
0000
0000
1000
0000
0000
0001
0000
0000
,
0010
0000
0100
0000
1000
0000
0100
0000
0010
0000
0010
0000
0010
0000
0000
0001
,
0000
0000
1000
0000
0000
0100
0000
0000
0010
0000
0001
0000
1000
0000
0010
0000
,
0110
0000
0100
0000
0001
0000
1000
0000
0000
0010
0000
0010
0000
1000
0000
1000
,
0000
0001
0100
0000
0010
1000
0000
0001
0100
0000
0010
1000
0000
0001
0100
0000
,
0010
0100
0020
0000
0000
0000
0000
0000
0130
0000
0001
0100
0001
0100
0010
0000
,
1000
0010
1000
0010
0200
0000
0000
0302
0000
0000
1003
0000
0000
0000
0000
0000
,
0001
1000
0001
0010
0100
1000
0001
0100
,
0001
1000
1000
1000
0010
0100
0001
0010
,
0100
0010
0001
1000
0010
0100
0001
0010
,
0001
1000
0100
1000
0100
0010
0001
0010
,
0100
0010
0010
0010
0001
1000
0010
0100
,
0010
0000
1000
0000
0002
0000
0000
2003
0000
0000
3020
0000
0000
0230
0000
0000
,
0301
1000
0000
0010
1000
0000
0100
0010
0000
0001
0010
0000
0100
1000
0000
0010
,
0100
0000
0001
1000
0001
1000
0020
0000
0000
0000
0000
0000
0000
0000
0000
0000
,
0000
0000
0000
0000
1030
0000
0001
0000
1000
0000
0010
0000
0100
0000
0001
1000
,
0001
0000
0000
0000
;

//---------------dance-single - ----------------
#NOTEDATA:;
#CHARTNAME:;
#STEPSTYPE:dance-single;
#DESCRIPTION:;
#CHARTSTYLE:;
#DIFFICULTY:Easy;
#METER:5;
#RADARVALUES:0.382464,0.504162,0.015842,0.261388,0.201982,303.000000,2.000000,33.000000,0.000000,0.000000,0.000000,0.000000,0.000000,0.382464,0.504162,0.015842,0.261388,0.201982,303.000000,2.000000,33.000000,0.000000,0.000000,0.000000,0.000000,0.000000;
#CREDIT:;
#NOTES:
0000
0000
0000
0000
,
0001
0000
0000
0010
0000
0000
0001
0000
,
0000
1000
1000
1000
0010
0000
0000
0010
,
0000
0000
0001
0000
0000
0100
0000
0000
,
0001
0000
0000
1000
0000
0000
0001
0000
,
0000
0010
0010
0010
0001
0000
0000
0100
,
0000
0000
0000
0000
0001
0000
0000
1000
0000
0000
0010
0000
0000
0100
0000
0000
,
0200
0000
0301
0000
0000
0000
0002
0000
1003
0000
0000
0000
1000
0000
0000
0001
,
0000
0100
0000
0010
2000
0000
0000
0000
,
0000
0000
0000
0000
,
3001
0000
0000
0001
0000
0000
0010
0000
0000
0010
0000
0000
0100
0000
0000
0100
,
0000
0000
1000
0000
0000
1000
0000
0000
0100
0000
0000
0100
0000
0000
0010
0000
,
0000
0010
0000
0000
0001
0000
0000
0100
0000
0000
0010
0000
0000
0001
0000
0000
,
1000
0000
0000
0100
0000
0000
0010
0000
0000
0001
0000
0000
2000
0000
0000
0000
,
3002
0000
0000
0000
0003
0000
2000
0000
0000
0000
0000
0000
0020
3000
0000
0000
,
0000
0230
0000
0000
0302
0000
0000
1003
,
0000
0000
0000
0010
0000
0000
0110
0000
0000
0100
0000
0000
0010
0000
0000
0100
,
0000
0100
0000
0000
1000
0001
0000
0100
,
0010
0000
1000
0001
0000
0100
0001
0000
,
0200
0000
0000
0310
0000
0001
0000
0010
,
0000
0000
0001
0000
0010
1000
0010
0000
,
0001
1000
0000
0001
0100
0000
0010
1000
,
0020
0000
0000
0130
0000
1000
0000
0100
,
0000
0000
0010
0001
0000
0001
1000
0000
,
1000
0001
0000
0100
0001
0000
1000
0010
,
1000
1000
1000
0001
0001
0001
1000
1000
,
1000
0010
0010
0010
1000
0000
1000
0001
,
0000
0100
0000
0010
1000
0000
0000
0001
,
1000
0000
0001
0000
1000
0000
0010
0000
0100
0000
0000
0002
0000
0000
2000
0003
,
0000
3020
0000
0000
0230
0000
0000
0302
0000
0000
2003
0000
0000
3200
0000
0000
,
0310
0001
1000
0001
0000
1000
0010
0000
,
0010
1000
0000
0001
1000
0000
0010
1000
,
0001
0000
0100
0001
0010
0000
1000
0010
,
0001
0000
1000
0000
0000
0000
0001
0000
0000
0000
0010
0000
0001
0000
0000
0001
,
1000
0000
0000
1000
0000
0000
0100
0000
0000
0100
0000
0000
0010
0000
0000
0010
,
0000
0000
0001
0000
0000
0001
0000
0000
2000
0000
0000
0010
0000
0000
0001
0000
,
0000
0010
0000
0000
0001
0000
3000
0000
0000
0010
0000
0000
1000
0000
0001
0000
,
0000
0000
0100
0000
0010
0000
0000
0000
0000
0100
0000
0000
0000
0000
0001
0000
,
2000
0000
3001
0000
0020
0000
0100
0130
,
0000
0000
1000
0000
0000
0002
0000
0000
,
2003
0000
0000
3020
0000
0000
0230
0000
,
0000
0301
0000
0000
1001
0000
0000
2000
,
0000
0000
3200
0000
0000
0320
0000
0000
,
1030
0000
0000
0010
0000
0000
0100
0000
,
0000
0020
0000
0000
0130
0000
0000
0010
,
0100
0000
0100
0000
0100
0000
0000
0001
0000
0000
1000
0000
0000
0001
0000
0000
,
0010
0000
0000
0000
0000
0000
0100
0000
0010
0000
0010
0000
0010
0000
0000
0001
,
0000
0000
1000
0000
0000
0100
0000
0000
0010
0000
0001
0000
0000
0000
0010
0000
,
0100
0000
0000
0000
0001
0000
1000
0000
0000
0010
0000
0010
0000
1000
0000
1000
,
0000
0001
0010
0000
0100
0010
0000
0100
,
0010
1000
1000
1000
0010
0000
0000
0100
,
0010
0000
0010
0000
0010
0000
0000
1000
0000
0000
0001
0000
0000
1000
0000
0000
,
0100
0000
0000
0000
0000
0000
0010
0000
0100
0000
0100
0000
0100
0000
0000
1000
,
0000
0000
0001
0000
0000
0010
0000
0000
0100
0000
1000
0000
0000
0000
0100
0000
,
0010
0000
0000
0000
1000
0000
0001
0000
0000
0100
0000
0100
0000
0001
0000
0001
,
0000
0010
0100
0000
0010
0100
0000
1000
,
0010
2000
0000
0000
3002
0000
0000
0203
,
0000
0000
0310
0100
0100
0010
0000
0000
,
1000
0000
0000
0100
0000
0000
1000
0000
,
0000
0001
0001
0001
0100
0000
0000
0100
,
0000
0000
1000
0000
0000
0010
0000
0000
,
1000
0000
0000
0001
0000
0000
1000
0000
,
0000
0100
0100
0100
1000
0000
0000
0010
,
0000
0000
0000
0000
1000
0000
0000
0001
0000
0000
0100
0000
0000
0010
0000
0000
,
0100
0000
0000
0001
0000
0000
1000
0000
0000
0010
0000
0000
1000
0000
0000
0001
,
0000
0010
0100
2000
0000
0000
0000
0000
,
0000
0000
0000
0000
3001
0000
0000
0000
0000
0000
0100
0000
0000
0000
0000
0001
,
1000
0000
0000
0000
;

//---------------dance-single - ----------------
#NOTEDATA:;
#CHARTNAME:;
#STEPSTYPE:dance-single;
#DESCRIPTION:;
#CHARTSTYLE:;
#DIFFICULTY:Beginner;
#METER:3;
#RADARVALUES:0.239889,0.238814,0.000000,0.142575,0.000000,194.000000,0.000000,18.000000,0.000000,0.000000,0.000000,0.000000,0.000000,0.239889,0.238814,0.000000,0.142575,0.000000,194.000000,0.000000,18.000000,0.000000,0.000000,0.000000,0.000000,0.000000;
#CREDIT:;
#NOTES:
// measure 0
0000
0000
0000
0000
,  // measure 1
1000
0000
0000
0100
0000
0000
1000
0000
,  // measure 2
0000
0001
0000
0001
0100
0000
0000
0100
,  // measure 3
0000
0000
1000
0000
0000
0010
0000
0000
,  // measure 4
1000
0000
0000
0001
0000
0000
1000
0000
,  // measure 5
0000
0100
0000
0100
1000
0000
0000
0010
,  // measure 6
0000
0000
1000
0000
0000
0100
0000
0000
,  // measure 7
0010
0010
0000
1000
1000
0000
0001
0000
,  // measure 8
0000
0010
0000
0000
0002
0000
0000
0000
,  // measure 9
0000
0000
0000
0000
,  // measure 10
1003
0000
0000
0100
0000
0000
0010
0000
,  // measure 11
0000
0001
0000
0000
0010
0000
0000
0100
,  // measure 12
0000
0000
1000
0000
0000
0100
0000
0000
,  // measure 13
0001
0000
0000
0100
0000
0000
0001
0000
,  // measure 14
1000
0000
0000
0001
0000
0000
0100
0000
,  // measure 15
0000
0010
0000
0000
1000
0000
0000
0001
,  // measure 16
0000
0000
0000
0010
0000
0000
0100
0000
,  // measure 17
0000
0010
0000
0000
0001
1000
0000
0000
,  // measure 18
0100
0000
0001
1000
0000
0000
1000
0000
,  // measure 19
0020
0000
0000
0130
0000
0000
0000
0100
,  // measure 20
0000
1000
0100
0000
,  // measure 21
1000
0000
0000
1000
0010
0000
0000
0000
,  // measure 22
0200
0000
0000
0310
0000
0000
0000
0010
,  // measure 23
0000
0000
0100
0000
0000
1000
0000
0000
,  // measure 24
0001
0000
0000
0010
0000
0000
0001
0000
,  // measure 25
0000
0000
0001
0000
0000
1000
0000
0001
,  // measure 26
0000
0000
0100
0000
0000
0000
0001
1000
,  // measure 27
0000
0010
0000
0100
0000
0000
0000
1000
,  // measure 28
0000
0000
0000
0100
0010
0000
0000
0002
,  // measure 29
0000
0003
0000
0000
2000
0000
0000
0000
3000
0000
0002
0000
0000
0003
0000
0000
,  // measure 30
0100
0001
0000
0100
,  // measure 31
0100
0000
0001
0100
,  // measure 32
1000
0010
0100
0001
,  // measure 33
1000
0000
0000
0000
0000
0100
1000
0000
,  // measure 34
0001
0000
0000
0010
0000
0000
0100
0000
,  // measure 35
0000
1000
0000
0000
0002
0000
0000
1000
,  // measure 36
0000
0000
1000
0003
0000
0000
0001
1000
,  // measure 37
0000
0010
0000
0000
0000
0000
0000
1000
,  // measure 38
0002
0000
1003
0000
0100
0000
0010
0001
,  // measure 39
0000
0000
0001
0000
0000
1000
0000
0000
,  // measure 40
0001
0000
0000
0200
0000
0000
0320
0000
,  // measure 41
0000
1030
0000
0000
1000
0000
0000
0002
,  // measure 42
0000
0000
0103
0000
0000
0200
0000
0000
,  // measure 43
0310
0000
0000
0100
0000
0000
0001
0000
,  // measure 44
0000
0200
0000
0000
0310
0000
0000
0100
,  // measure 45
0010
0000
0010
0000
0000
0001
0000
0000
,  // measure 46
0100
0000
0000
0010
0100
0000
0100
0000
,  // measure 47
0000
0001
0000
0000
0100
1000
0000
0000
,  // measure 48
0010
0000
1000
0002
0000
0000
0000
0000
,  // measure 49
0003
1000
0100
0000
0010
0100
0000
0010
,  // measure 50
0000
0000
0000
0001
0100
0000
0000
0010
,  // measure 51
0100
0000
0100
0000
0000
1000
0000
0000
,  // measure 52
0010
0000
0000
0100
0010
0000
0010
0000
,  // measure 53
0000
1000
0000
0000
0010
0001
0000
0000
,  // measure 54
0100
0000
0001
2000
0000
0000
0000
0000
,  // measure 55
3000
0100
0010
0000
0000
0010
0000
0000
,  // measure 56
0000
0002
0000
0000
2003
0000
0000
3010
,  // measure 57
0000
0100
0010
0000
,  // measure 58
0001
0000
0000
0010
0000
0000
0001
0000
,  // measure 59
0000
1000
0000
1000
0010
0000
0000
0010
,  // measure 60
0000
0000
0001
0000
0000
0100
0000
0000
,  // measure 61
0001
0000
0000
1000
0000
0000
0001
0000
,  // measure 62
0000
0010
0000
0010
0001
0000
0000
0100
,  // measure 63
0000
0000
0001
0000
0000
0010
0000
0000
,  // measure 64
1000
0000
0000
0001
0000
0000
0001
0000
,  // measure 65
0000
0100
0000
0002
0000
0000
0000
0000
,  // measure 66
0000
0000
1003
0000
0000
0010
0000
0000
,  // measure 67
0001
0000
0000
0000
;
