#TITLE:continew;
#SUBTITLE:;
#ARTIST:Verdammt;
#TITLETRANSLIT:;
#SUBTITLETRANSLIT:;
#ARTISTTRANSLIT:;
#GENRE:;
#CREDIT:;
#BANNER:continew-bn.png;
#BACKGROUND:continew-bg.png;
#LYRICSPATH:;
#CDTITLE:;
#MUSIC:continew.mp3;
#OFFSET:0.000000;
#SAMPLESTART:100.000000;
#SAMPLELENGTH:12.000000;
#SELECTABLE:YES;
#BPMS:0.000000=160.000000
,2.000000=128.000000
,44.000000=112.000000
,47.000000=96.000000
,50.000000=160.000000
,185.000000=64.000000
,188.000000=80.000000
,191.000000=96.000000
,194.000000=112.000000
,197.000000=128.000000
,200.000000=144.000000
,203.000000=160.000000
,206.000000=176.000000
,209.000000=192.000000
,212.000000=208.000000
,216.000000=224.000000
,219.000000=240.000000
,221.000000=244.000000
,224.000000=248.000000
,227.000000=251.999985
,230.000000=255.000000
,233.000000=256.000000
,246.750000=220.000000
,308.000000=139.000000
;
#STOPS:
;
#BGCHANGES:;
#KEYSOUNDS:;
#ATTACKS:;

//---------------dance-single - ----------------
#NOTES:
     dance-single:
     :
     Hard:
     16:
     0.877000,0.964938,0.366011,0.424240,0.549016,643.000000,44.000000,51.000000,0.000000,0.000000,0.000000,0.877000,0.964938,0.366011,0.424240,0.549016,643.000000,44.000000,51.000000,0.000000,0.000000,0.000000:
0000
0000
0000
0000
0001
1000
0010
0100
,
0010
1000
0100
0010
0001
0010
0100
0001
,
0100
1000
0100
0010
0001
0010
0100
1000
,
0001
0100
0001
0010
0100
1000
0010
1000
,
0001
0100
1000
0100
0010
1000
0001
0100
,
0001
0000
0000
1000
0000
0000
0010
0000
0000
0100
0000
0000
0001
0000
0010
0000
0100
0000
1000
0000
0000
0010
0000
0000
,
0100
0000
0010
0000
1000
0000
0001
0000
1001
0000
0100
0000
0010
0000
1000
0001
,
1000
0000
0010
0000
1000
0000
0001
0000
0010
0000
0100
0000
1000
0001
1000
0001
,
0200
0000
0000
0000
0310
0000
0010
0000
0100
0000
0001
1000
0001
0000
0100
0000
,
0010
0000
1000
0010
0100
0001
1000
0000
1001
0000
0100
0000
0001
0000
1000
0100
,
1000
0000
0010
0000
0100
0000
0001
0010
0001
0000
0100
0000
0001
0000
0100
0000
,
0010
1000
0100
0010
0001
1000
0100
0010
,
0100
1000
0001
0100
0120
0000
0000
0000
,
1030
0001
1000
0001
1000
0000
0010
0000
0100
0000
0010
0000
0001
0000
1000
0000
,
0100
0010
1000
0001
1000
0001
0101
0000
,
1000
0000
0010
0000
1000
0000
0001
0000
0100
0000
0001
0000
1000
0001
1000
0001
,
0100
0010
0100
0010
1000
0000
0001
0000
0010
0000
0100
0000
1000
0000
0010
0000
,
0220
0330
1000
0010
1000
0100
0010
0100
,
1000
0000
0000
0000
0000
0000
0001
0000
0000
0000
0000
0000
0100
0000
0000
0000
1000
0000
0000
0000
0100
0000
0000
0000
0001
0000
0000
0010
0000
0000
0001
0000
0000
0100
0000
0000
0010
0000
0000
1000
0000
0000
0010
0000
0000
1000
0000
0000
,
0001
0100
0001
0100
0010
0000
0010
0000
1000
0000
0001
0000
0100
0001
0100
0000
,
0110
0000
0010
1000
0001
0000
1001
0000
1000
0000
0001
0000
0011
0000
0010
0000
,
0001
0000
1000
0100
1000
0010
0100
0000
0001
1000
0001
0010
0100
0000
1000
0001
,
1000
0100
0010
0000
0011
0000
0001
0000
0100
0010
0100
0001
0010
0000
0110
0000
,
0100
0000
0000
1000
0000
0000
0001
0000
0000
1000
0000
0000
0100
0000
0000
0100
0000
0000
0010
0000
0000
0001
0000
0000
1000
0000
0010
0000
1000
0000
0001
0000
0000
0100
0000
0000
0001
0000
0000
0000
0000
0000
1000
0000
0000
0010
0000
0000
,
1000
0000
0001
0000
1000
0000
0001
0000
0000
0100
0000
0000
0010
0000
0000
1000
0000
0000
0001
0000
0010
0000
0001
0000
0000
0000
0100
0000
0000
0000
0010
0000
1000
0000
0010
0000
2000
0000
0000
0000
0000
0000
0000
0000
0000
0000
0000
0000
,
3002
0000
0000
0000
0203
0000
0010
0000
0310
0000
1000
0000
0010
0000
1000
0001
,
0100
0100
0001
0100
0010
1000
0010
1000
,
0001
0000
0100
0001
0010
0000
0010
0000
0001
0010
0100
0010
0001
1000
0010
0100
,
1000
0100
0010
1000
0001
0000
0100
0000
0010
0000
1000
0001
0100
0000
0100
0000
,
0010
0000
0100
0001
1000
0000
1000
0000
0001
0000
1000
0100
0010
0000
0010
0000
,
0100
0000
0010
0001
0100
0000
0100
0000
0010
0000
1000
0100
0010
0100
1000
0000
,
0001
1000
1002
0000
2003
0000
3020
0000
,
0230
0000
0000
0000
0301
0000
0001
0000
1000
0000
0001
1000
0100
0000
0010
0000
,
0001
0000
0100
0000
1000
0000
0100
0000
0001
1000
0010
0000
1000
0010
0100
0000
,
0001
0010
0100
0000
1000
0000
0010
0000
0001
0000
0010
0000
1000
0000
0100
0000
,
0010
0000
0100
0000
1000
0000
0001
0000
0010
0000
0100
1000
0001
0000
0100
0000
,
0001
0000
0010
0000
0100
0000
1000
0000
0001
0010
0100
1000
0010
0100
0010
1000
,
0010
0100
0001
1000
0001
0000
0100
0000
0010
0000
1000
0001
0100
0000
0010
0000
,
0001
0000
1000
0100
0001
0000
1000
0000
0100
0000
0010
0000
0100
0000
0010
0000
,
0001
1000
0001
0100
0010
1000
0001
0100
,
0010
0100
0102
0000
1003
0010
1000
0001
,
2010
0000
3001
0010
0100
0010
0002
1000
,
2003
0010
3020
0100
0230
0001
0302
1000
,
2003
0001
0002
0000
0000
0000
0000
0000
,
0000
0000
0000
0000
0000
0000
0000
3000
,
0203
0000
0010
0000
0000
0000
0000
0002
0000
0000
0000
0000
0000
0000
0000
0000
,
0000
0000
0003
0000
0301
0000
1000
0000
1001
0000
0001
0100
1000
0100
0001
0000
,
1001
0000
0000
1000
0000
0000
0001
0000
0000
1000
0000
0000
0100
0000
0000
0000
0000
0000
0100
0000
0000
0000
0000
0000
0010
0000
0000
0001
0010
0000
0100
0000
0000
0010
0000
0000
0002
0000
0000
0000
0000
0000
2003
0000
0000
0000
0000
0000
,
3001
0000
0000
0000
0100
0000
0001
0000
1000
0000
0001
0000
0100
0000
0000
0000
0001
1000
0100
0000
0010
0000
0001
0000
2000
0000
0000
0000
3002
0000
0000
0000
,
0023
0000
0230
0000
2300
0000
3001
0000
1001
0000
1000
0010
0100
0001
0010
0000
,
0110
0000
0100
1000
0001
0000
0100
0000
0100
0000
0010
0000
1010
0000
1000
0000
,
0001
0000
0100
0010
0100
0000
0001
0000
0011
0000
0010
0100
0010
0100
1000
0000
,
0001
0000
0100
0000
0001
0000
1000
0000
0010
0000
0100
0001
1000
0001
0100
0000
,
0010
0000
0010
0000
1000
0000
1000
0000
0001
1000
0001
0000
0100
0000
0001
0000
,
1000
0010
1000
0000
0001
0000
0010
0000
0100
1000
0001
0000
0100
0001
1000
0000
,
0100
1000
0001
0000
0100
0010
0100
0000
0000
0000
1001
0000
0000
0000
0001
0000
,
1000
0000
0010
0000
1000
0010
1000
0000
0001
0100
0001
0000
2002
0000
3003
0000
,
0022
0033
2200
3300
0220
0330
0022
0033
,
0202
0303
2002
0000
0000
0000
3003
0020
,
0000
0000
0000
0000
0000
0000
1030
0000
0000
0001
0000
0000
1000
0000
0000
0001
0000
0000
1000
0000
0000
0000
0000
0000
0000
0000
0000
0000
0000
0000
0001
0000
0000
0000
0100
0000
0000
0000
0001
0000
0000
0000
0100
0000
0000
0000
0000
0000
,
0010
0000
0000
0000
0100
0000
0010
0000
1000
0000
0001
1000
0001
0000
1000
0000
,
0010
0100
0000
0001
1000
0000
0000
0000
,
0000
0000
0000
0000
,
0000
0000
0220
0000
,
0000
0330
1001
0000
0110
0000
1010
0000
,
0101
0100
0001
0010
0100
1000
1010
0000
,
0101
0000
0000
0000
0011
0000
0000
0000
1100
0000
1000
0000
0010
0000
0100
0001
,
1000
0000
0010
0000
0100
0000
0001
0010
0100
0000
1000
0000
0100
0000
0010
0001
,
0010
0000
0100
0000
1000
0000
0010
1000
0001
0000
0100
0000
0001
0000
1000
0100
,
1000
0000
0001
0100
0001
0000
1000
0001
0000
0000
0001
1000
0000
0000
1000
0010
,
0000
0100
0010
0000
0101
0000
1010
0000
,
1001
0001
0010
0100
1000
0010
0110
0000
,
1010
0000
1100
0000
0011
0001
1000
0001
,
0010
0000
0100
0000
1000
0000
0001
0100
0001
0000
0100
0000
1000
0000
0100
0000
,
0010
0000
0100
0000
0001
0000
0100
0000
0010
0000
0100
0001
0000
0000
0001
0010
,
0000
0000
0010
1000
0000
0000
1000
0100
0000
0000
0100
0001
0000
0000
0001
1000
,
0000
0000
0000
0000
,
0220
0000
0000
0000
0000
0000
0000
0000
0000
0030
0000
0002
0000
0000
0300
0000
,
0000
0000
0000
0000
0000
0000
0000
2000
0000
0000
0000
0000
0000
0000
0000
0000
,
0000
0003
0000
0020
0000
0000
3000
0000
0000
0000
0000
0000
0000
0000
0000
0100
,
0130
0000
0000
0000
;

//---------------dance-single - ----------------
#NOTES:
     dance-single:
     :
     Medium:
     13:
     0.619129,0.964938,0.149732,0.490787,0.058229,444.000000,18.000000,59.000000,0.000000,0.000000,0.000000,0.619129,0.964938,0.149732,0.490787,0.058229,444.000000,18.000000,59.000000,0.000000,0.000000,0.000000:
0000
0000
0000
0000
0001
1000
0001
0100
,
0010
0100
0010
0000
0000
1000
0001
1000
,
0100
0000
0010
0001
0010
0001
1000
0010
,
1000
0010
0100
0001
0100
0000
0010
0100
,
0001
0100
0010
0000
1000
0001
1000
0100
,
0010
0000
0000
0000
0000
0000
0001
0000
0000
0010
0000
0000
0001
0000
1000
0000
0001
0000
1000
0000
0000
0010
0000
0000
,
0100
0010
1000
0001
0200
0000
0000
0301
,
0020
0000
0032
0000
1003
0010
1000
0010
,
0200
0000
0000
0301
1000
0001
2000
0000
,
3010
0000
0100
0010
2002
3003
0001
1000
,
0001
1000
2200
3300
0100
0010
0001
0100
,
0001
0001
0100
0100
0010
0010
1000
0001
,
0100
0010
0100
0001
2000
0000
0000
0000
,
3001
1000
0001
0000
0100
0010
0100
0000
,
0001
0000
1000
0000
0001
0100
0110
0000
,
0100
0001
1000
0000
0010
0000
0100
0001
,
0100
0010
1000
0000
0001
0000
1000
0010
,
0220
0330
1000
0001
1000
0000
0010
0000
,
1000
0000
0000
0001
0000
0000
1000
0000
0100
0000
1000
0000
0100
0000
0000
0000
0000
0000
0010
0000
0000
0001
0000
0000
,
1000
0001
1000
0000
0001
0100
0010
1000
,
2002
3003
0001
0010
0100
1000
2200
3300
,
0100
1000
0100
0010
0001
0001
1000
1000
,
0010
0010
0110
0000
0100
0001
1000
0010
,
1010
0000
1000
0001
0200
0310
0010
1000
,
0002
1003
2000
3100
0020
0031
0002
0000
,
2003
0000
3002
0000
1003
0000
0010
0100
,
0010
0000
1000
0001
1000
0010
0100
0000
,
0001
0100
0001
1000
0100
0000
0010
0001
,
1000
0001
1000
0000
0010
0100
0010
0000
,
1000
0000
0001
1000
0001
0000
0100
0000
,
0010
1000
0010
0100
0001
0000
1000
0001
,
0010
0001
1001
0000
2000
0000
3200
0000
,
0320
0000
0031
0001
0100
0010
1000
0000
,
0100
0000
0010
0000
0001
0010
0001
1000
,
0001
0010
0001
0000
1000
0000
0001
0000
,
0100
0010
0100
0001
1000
0000
0100
0000
,
0010
0000
0001
0010
0001
1000
0001
1000
,
0100
0010
0001
0000
1000
0000
0001
0000
,
0100
0010
1000
0000
0001
0100
0010
1000
,
0100
1000
0001
0100
0010
1000
0001
0100
,
0010
1000
0020
0000
0130
0001
1000
0001
,
0200
0000
0301
0010
0100
1000
0100
0010
,
0001
0010
0100
1000
0100
0010
0001
0010
,
0100
2000
0002
0000
0000
0000
0000
0000
,
0000
0000
0000
0000
0000
0000
0000
3003
,
0200
0000
0000
0000
,
0000
0000
0000
0000
0310
0000
0010
0000
0100
0000
0001
1000
0001
0000
0100
0000
,
0100
0000
0010
1000
0010
0000
1000
0000
0001
0000
1000
0010
1000
0000
0100
0000
,
0100
0000
0010
0001
0010
0000
0100
0000
1000
0000
0001
0000
2000
0000
3020
0000
,
0230
0000
0302
0000
1003
0000
0010
0000
0010
0000
1000
0010
1000
0000
0001
0000
,
0100
0000
0001
1000
0001
0000
0100
0000
0010
0000
1000
0000
0001
0000
1000
0000
,
0001
0100
0010
0100
0001
1000
0100
0010
,
0001
0100
0001
0000
1000
0000
0010
0000
,
1000
0010
1000
0000
0001
1000
0100
0100
,
0010
0001
0010
0010
0100
1000
0001
1000
,
0100
0010
0001
1000
0000
1000
0000
0001
,
1000
0000
2002
3003
2002
3003
0220
0330
,
0220
0330
2020
3030
2020
3030
0202
0303
,
0202
0303
0020
0000
0000
0000
0000
0000
,
0030
0000
0000
0000
,
0000
0000
0000
0000
,
0000
0000
0000
0100
0100
0000
0000
0000
,
0000
0000
0000
0000
,
0000
0000
0000
0000
,
0000
0001
1000
0001
,
0100
0010
0100
0010
0100
0001
1000
0000
,
0001
0000
0010
0000
0100
1000
0100
1000
,
0100
1000
0001
0000
0100
0010
0000
0010
,
1000
0000
0001
0000
1000
0000
0001
1000
,
0001
0100
0010
0100
0020
0000
2030
0000
,
3002
0103
0001
1000
,
0001
1000
0001
1000
0001
1000
0100
0000
,
0010
0000
0100
0000
0010
0001
0010
0001
,
0010
0001
1000
0000
0001
0100
0001
0000
,
1000
0010
1000
0000
0001
0000
1000
0010
,
1000
0001
0100
0001
1000
0010
1000
0001
,
0100
0000
0000
0000
,
2001
0000
0000
0000
0000
0000
0000
0000
0000
0000
0000
0200
0000
0000
3000
0000
,
0000
0000
0000
0000
0000
0000
0000
0020
0000
0000
0000
0000
0000
0000
0000
0000
,
0000
0300
0000
0002
0000
0000
0030
0000
0000
0000
0000
0000
0000
0000
0000
1000
,
1003
0000
0000
0000
;

//---------------dance-single - ----------------
#NOTES:
     dance-single:
     :
     Easy:
     6:
     0.380271,0.432558,0.033274,0.307782,0.012478,279.000000,4.000000,37.000000,0.000000,0.000000,0.000000,0.380271,0.432558,0.033274,0.307782,0.012478,279.000000,4.000000,37.000000,0.000000,0.000000,0.000000:
0000
0000
0001
1000
,
0001
0000
0010
0000
0000
0001
0100
0000
,
0010
0010
0010
1000
,
1000
0000
1000
0001
0100
0000
0010
0000
,
0001
1000
0010
0000
0100
0000
0010
1000
,
0100
0010
0002
1003
,
0010
1000
0002
0000
,
0203
0000
0320
0000
1030
0000
0001
0100
,
0020
0000
1030
0002
,
0003
0000
1000
0010
0200
0000
0000
0301
,
0010
0100
2000
0000
3100
0000
0010
0000
,
0001
0000
0000
0010
0000
0000
0100
0000
,
0000
1000
0000
0001
0002
0000
0000
0000
,
1003
0100
0010
0001
,
1000
0010
0100
0101
,
0001
1000
0010
1000
,
0001
0010
0001
1000
,
1010
0010
1000
0001
,
1000
0200
0310
0001
,
1000
0001
1000
0000
0001
0000
0010
0001
,
0010
0000
0100
0000
1000
0100
1000
0000
,
0100
0010
0002
2003
,
3002
0003
1001
0000
0010
0000
1000
0000
,
1100
0000
0100
0000
0010
0000
0001
1000
,
0002
0003
0100
0010
0100
0001
1000
0000
,
0002
2003
3010
0010
,
0100
0000
0001
0000
1000
0010
1000
0000
,
0001
0000
0100
0010
0100
0000
0001
0000
,
0010
0100
0010
0000
0001
0000
1000
0000
,
0100
0000
1000
0001
1000
0000
0020
0000
,
0000
0000
0130
0001
0100
0000
0010
0000
,
0010
0100
0002
2003
,
3002
0000
0003
1000
0010
0000
0010
0000
,
0100
0010
1000
0001
,
0100
0010
1000
0200
,
0320
0032
2003
3020
,
0030
0200
0301
1000
,
0001
0100
0010
0100
,
0010
0100
0010
0000
0001
0000
1000
0000
,
0100
1000
0100
0000
0010
0000
0001
0000
,
0010
0001
0020
0000
0130
0000
1000
0001
,
2000
3001
0100
0010
,
1000
0100
0010
0001
,
1000
0002
0000
0000
,
0000
0000
0000
0000
,
2003
0000
0000
0000
,
0000
3000
0001
0000
0100
0000
0001
1000
,
1000
0100
0010
0001
,
0100
0000
0010
0000
1000
0000
0001
1000
,
0001
0100
0100
0000
0010
0000
1000
0000
,
0100
1000
0001
0100
,
0001
1000
0010
1000
,
0001
1000
0100
0010
,
0100
1000
0001
0010
,
0001
1000
0001
1000
,
0010
0000
0200
0000
0000
0010
0000
0310
,
0100
0001
0001
1000
,
1000
0010
0010
0100
,
0100
0020
0000
0000
,
0030
0000
0000
0000
,
0000
0000
0000
0000
,
0000
0000
0100
0000
,
0000
0000
0000
0000
,
0000
0000
0000
0000
,
0000
0001
0000
1000
,
0000
0001
0001
0100
,
0000
0010
0000
1000
,
1000
0100
0000
0010
,
0001
0000
1000
0100
,
0000
0000
0020
0032
,
2003
3010
0000
0100
,
0000
0001
0001
1000
,
0000
0100
0000
0010
,
0010
0001
0000
0001
,
0010
0000
0100
0100
,
1000
1000
0001
0001
,
0100
0000
0000
0000
,
0020
0000
0000
0000
0000
0000
0000
0000
0030
0000
0000
1000
0000
0000
0000
0000
,
0000
0000
0000
0000
0000
0000
0000
0001
0000
0000
0000
0000
0000
0000
0000
0000
,
0000
0000
0000
0200
0000
0000
0000
0000
0000
0000
0000
0000
0000
0000
0000
0000
,
0310
0000
0000
0000
;

//---------------dance-single - ----------------
#NOTES:
     dance-single:
     :
     Beginner:
     3:
     0.257871,0.366011,0.008318,0.224598,0.000000,189.000000,1.000000,27.000000,0.000000,0.000000,0.000000,0.257871,0.366011,0.008318,0.224598,0.000000,189.000000,1.000000,27.000000,0.000000,0.000000,0.000000:
// measure 0
0000
0000
0001
0000
,  // measure 1
1000
0000
0000
0010
,  // measure 2
0010
0000
1000
0001
,  // measure 3
0000
0000
0100
0100
0100
0000
0001
0000
,  // measure 4
0000
0010
0000
0100
,  // measure 5
1000
0000
0002
1003
,  // measure 6
0000
0001
0200
0000
,  // measure 7
0302
0023
0230
2300
,  // measure 8
3002
0000
1003
2000
,  // measure 9
3000
0001
0200
0000
,  // measure 10
0310
0010
0100
0100
,  // measure 11
0001
0000
0000
1000
0000
0000
0001
0000
,  // measure 12
0000
0010
0000
0000
0200
0000
0000
0000
,  // measure 13
1300
1000
0000
0001
,  // measure 14
0001
0000
0100
0100
,  // measure 15
0000
0001
0001
0000
,  // measure 16
1000
0001
0000
0100
,  // measure 17
0010
0000
1000
0100
,  // measure 18
0000
0010
0001
1000
,  // measure 19
0001
1000
0000
0100
,  // measure 20
0100
0000
0010
0010
,  // measure 21
0000
0001
0200
0320
,  // measure 22
2030
3001
0010
0000
,  // measure 23
0002
0013
0200
1300
,  // measure 24
2000
3010
0100
0100
,  // measure 25
0200
0000
0302
0000
0003
0000
0000
1000
,  // measure 26
0010
0000
0000
0000
0000
0100
0001
0000
,  // measure 27
0000
0000
0000
0100
0010
0000
1000
0000
,  // measure 28
0000
0001
0010
0000
1000
0000
0001
0000
,  // measure 29
0100
0000
0000
0001
1000
0000
0002
0000
,  // measure 30
0000
0103
0100
0000
,  // measure 31
0000
0010
0010
1000
,  // measure 32
2000
3000
0001
0100
,  // measure 33
0000
0010
1000
0000
,  // measure 34
0001
0000
0100
0001
,  // measure 35
0001
1000
1000
0000
,  // measure 36
0000
0001
1000
0001
,  // measure 37
0000
0010
0100
0010
,  // measure 38
0100
0000
1000
0001
,  // measure 39
0000
0010
0100
0000
,  // measure 40
0100
0200
0300
0001
,  // measure 41
0002
0003
0100
0100
,  // measure 42
0000
0001
0000
1000
,  // measure 43
0000
2000
0000
0000
,  // measure 44
0000
0000
0000
0000
,  // measure 45
3002
0000
0000
0000
,  // measure 46
0000
0003
0100
0000
0100
0000
0010
0000
,  // measure 47
1000
0001
0100
1000
,  // measure 48
0010
0100
0001
1000
,  // measure 49
0001
0010
0100
0000
,  // measure 50
1000
0000
0001
0000
,  // measure 51
1000
0000
0001
0000
,  // measure 52
1000
0001
0000
0100
,  // measure 53
0000
0001
0000
1000
,  // measure 54
0000
0100
0000
0010
,  // measure 55
0000
0000
0002
0000
0000
0103
0000
0000
,  // measure 56
0010
0010
0000
1000
,  // measure 57
1000
0000
0001
0001
,  // measure 58
0000
2000
0000
0000
,  // measure 59
3000
0000
0000
0000
,  // measure 60
0000
0000
0000
0000
,  // measure 61
0000
0000
0000
0000
,  // measure 62
0000
0000
0000
0000
,  // measure 63
0000
0000
0000
0000
,  // measure 64
0000
1000
0000
0001
,  // measure 65
0000
1000
0000
0010
,  // measure 66
0000
0100
0000
0001
,  // measure 67
0000
0010
0000
0100
,  // measure 68
0000
0000
0001
0000
,  // measure 69
0000
0000
1000
1000
,  // measure 70
0001
0000
0000
0010
,  // measure 71
0000
1000
0000
0001
,  // measure 72
0000
0010
0000
0100
,  // measure 73
0000
1000
0000
1000
,  // measure 74
0100
0000
0010
0010
,  // measure 75
0001
0001
1000
1000
,  // measure 76
0010
0000
0000
0000
,  // measure 77
0200
0000
0000
0000
,  // measure 78
0000
0000
0000
0000
,  // measure 79
0000
0000
0000
0000
0000
0000
0000
0300
,  // measure 80
0110
0000
0000
0000
;
