#TITLE:bass 2 bass [Tracy vs. Astronomical Remix];
#SUBTITLE:;
#ARTIST:Tracy vs. Astronomica;
#TITLETRANSLIT:;
#SUBTITLETRANSLIT:;
#ARTISTTRANSLIT:;
#GENRE:;
#CREDIT:;
#BANNER:;
#BACKGROUND:;
#LYRICSPATH:;
#CDTITLE:;
#MUSIC:bass 2 bass [Tracy vs. Astronomical Remix].mp3;
#OFFSET:-0.730000;
#SAMPLESTART:41.926994;
#SAMPLELENGTH:12.000000;
#SELECTABLE:YES;
#BPMS:0.000000=155.029999
;
#STOPS:20.500000=0.120000,
21.500000=0.100000,
28.000000=0.160000
;
#BGCHANGES:-0.000=05 RageDDRII.avi=1.000=1=0=1===CrossFade==,
99999=-nosongbg-=1.000=0=0=0 // don't automatically add -songbackground-
;
#KEYSOUNDS:;
#ATTACKS:;

//---------------dance-single - ----------------
#NOTES:
     dance-single:
     :
     Hard:
     14:
     0.738267,0.992640,0.153501,0.144973,0.550046,606.000000,588.000000,18.000000,17.000000,0.000000,0.000000,0.738267,0.992640,0.153501,0.144973,0.550046,606.000000,588.000000,18.000000,17.000000,0.000000,0.000000:
0000
0000
0000
0000
0000
0000
0010
1000
,
0010
0100
0000
0001
0010
0100
1000
0010
,
0100
0001
0100
0000
0010
0000
0100
0001
,
0100
0010
0000
1000
0001
1000
0001
0100
,
0010
0100
0000
0101
0000
0001
1000
0010
,
1000
1002
0000
0203
0000
0010
0010
0310
,
1000
0001
0000
0000
0000
1000
1000
0001
,
0200
0010
0010
0310
0000
1000
0001
1000
,
0010
0000
1000
0000
0001
0100
0010
1000
0001
0100
0001
0100
0010
1000
0010
1000
,
0000
0001
0000
0100
0000
0010
0100
0010
0100
0001
0000
0100
0000
0001
0100
0000
,
0100
0001
1000
0000
1001
0000
0000
0000
1000
0000
0001
0000
0100
0000
0001
0000
,
0000
0100
0010
1000
0010
1000
0001
0100
,
0020
0000
1030
0000
0001
0010
0100
1000
,
0000
0010
0100
0010
1000
0001
1000
0100
,
0000
1100
0000
1000
0010
0100
0001
0100
,
0000
0010
0100
0001
1000
0100
1000
0001
,
0200
0000
0000
0000
0301
0010
0100
0010
0001
0000
1000
0000
0010
0000
1000
0000
,
0000
0000
0001
0000
0010
0000
0100
0000
1000
0010
1000
0010
0100
0000
0110
0000
,
0010
0100
0010
0100
0001
0000
1000
0000
0010
0000
1000
0000
0010
0000
0100
0000
,
0000
0010
0100
0001
0100
0001
1000
0010
,
0200
0000
0301
0000
1000
0100
0010
0001
,
0000
0100
0010
0100
0001
1000
0001
0010
,
0000
0011
0000
0001
0100
0010
1000
0010
,
0000
0100
0010
1000
0010
0010
1000
0001
,
0100
0000
0000
0000
0001
0100
0010
1000
0001
0100
0001
0100
0010
1000
0010
1000
,
0000
0001
0000
0100
0000
0010
0100
0010
0100
0001
0000
0100
0000
0001
0100
0000
,
0100
0001
1000
0000
1001
0000
0000
0000
0100
0000
0010
0000
1000
0001
1000
0001
,
0100
0000
0100
0000
0010
1000
0010
1000
0001
0000
0100
0001
0100
0000
0010
1000
,
0010
0000
0100
0001
0100
0010
1000
0010
1000
0000
0001
1000
0001
0000
0100
0010
,
0100
0000
0010
1000
0010
1000
0001
0100
0001
0000
1000
0010
1000
0000
0001
0100
,
0001
0100
0110
0000
1001
0001
0100
0100
,
0010
0000
0010
0000
1000
0000
1000
0000
0001
0100
0001
0100
0010
1000
0010
1000
,
0001
0100
0010
1000
0100
0010
0100
1000
0002
0000
0000
0000
0100
0000
0000
0000
,
1000
0103
2000
0001
,
0100
0000
0000
0000
3001
0000
0000
0000
1001
0000
1000
0001
0100
0010
1000
0010
,
0100
0000
0010
1000
0000
0000
0100
0000
0100
0000
0010
0001
1000
0001
1000
0000
,
0010
0100
0001
0100
0010
1000
0010
1000
0100
0000
0010
0001
0000
0001
1000
0000
,
0000
0000
0010
1000
0010
0000
0100
0000
0001
0000
0100
0010
0000
0100
0001
0000
,
1000
0010
1000
0000
0101
0000
0000
0000
0001
0010
0100
0010
0001
1000
0000
0010
,
1000
0000
0100
0010
0000
0001
0100
0000
0010
1000
0001
0000
0100
0001
1000
0000
,
0010
0100
0010
0000
1000
0000
0000
0000
0001
1000
0010
1000
0010
0000
0100
0000
,
0001
0000
1000
0000
0010
0000
0100
0000
0001
1000
0001
1000
0001
0000
0100
0000
,
0010
1000
0010
0100
0001
0010
0100
1000
0002
0000
0000
0000
0000
0000
0000
0000
,
0000
0000
1003
0001
,
0100
0000
0000
0000
0110
0000
0000
0000
1000
0000
0000
0001
0000
0000
1000
0000
,
0000
0010
0000
0000
0010
0000
0000
0000
0100
0000
0000
0001
0000
0000
0100
0000
,
0000
0010
0000
0000
1000
0000
0010
0000
1000
0000
0000
0001
0000
0000
1000
0000
,
0000
0100
0000
0000
0010
0000
0000
0000
0001
0000
0000
0010
0000
0000
0100
0000
,
0000
1000
0000
0000
0001
0000
1000
0000
1001
0000
0100
0000
0010
0000
0100
0000
,
0001
1000
0010
1000
0001
0100
0001
0010
,
0100
0000
1000
0000
0001
0000
0100
0000
0001
1000
0001
0100
0010
1000
0100
1000
,
0001
0010
0001
1000
0010
0100
0001
0010
0100
1000
0010
0100
0001
0100
0010
1000
,
0010
0100
0010
0100
0010
0100
0010
0000
1000
0000
0001
0000
1000
0000
0010
0000
,
0000
0010
0100
0001
1000
0010
1000
0001
,
0200
0000
0000
0000
0301
1000
0010
1000
,
0000
0010
0100
0001
0100
0001
1000
0010
,
0200
0000
0301
0000
1000
0100
0010
0001
,
0000
0100
0010
0100
0001
1000
0001
0010
,
0000
0011
0000
0001
0100
0010
1000
0010
,
0000
0100
0010
1000
0001
0010
0001
1000
,
0020
0000
0000
0000
1030
0100
0010
0100
1000
0000
0001
0000
0100
0000
0001
0000
,
0000
0000
1000
0000
0100
0000
0010
0000
0001
0100
0001
0100
0010
0000
0110
0000
,
0100
0010
0100
0010
1000
0000
0001
0000
0100
0000
0001
0000
0100
0000
0010
0000
,
0000
0100
0010
1000
0010
1000
0001
0100
,
0020
0000
1030
0000
0001
0010
0100
1000
,
0000
0010
0100
0010
1000
0001
1000
0100
,
0000
1100
0000
1000
0010
0100
0001
0100
,
0000
0010
0100
0001
0100
0100
0001
1000
,
0010
0000
0100
0000
0001
1000
0001
1000
0100
0000
0010
0000
0001
0000
1000
0000
,
1000
0000
0010
0000
0010
0000
0100
0000
0001
1000
0100
1000
0010
0100
0001
0010
,
0001
1000
0100
1000
0010
0100
0001
0000
2002
0000
0000
0000
0000
0000
0000
0000
,
0000
3003
0001
0001
1000
1000
0010
0100
,
0220
0000
0000
0330
;

//---------------dance-single - ----------------
#NOTES:
     dance-single:
     :
     Medium:
     12:
     0.520198,0.558360,0.085278,0.187612,0.000000,427.000000,417.000000,10.000000,22.000000,0.000000,0.000000,0.520198,0.558360,0.085278,0.187612,0.000000,427.000000,417.000000,10.000000,22.000000,0.000000,0.000000:
0000
0000
0000
0001
,
1000
0000
0100
0010
,
0001
1000
0010
0100
,
0001
0000
1000
0001
,
1000
0000
0010
0000
0000
0000
1000
0010
,
1000
0020
0000
0130
0000
0001
0010
0100
,
1000
0001
0000
0000
0000
1000
0001
1000
,
0100
0010
0001
0010
0000
0100
1000
0001
,
1000
0010
0100
0010
1000
0001
1000
0010
,
1000
0001
0100
0010
0100
0001
0010
0100
,
1000
0001
1001
0000
1000
0010
1000
0100
,
0000
0010
0001
0100
0001
0010
0100
1000
,
0002
0000
1003
0000
0010
0100
0001
1000
,
0000
0010
0100
0001
0100
0010
1000
0001
,
0000
0101
0000
0100
0010
1000
0100
1000
,
0000
0001
0100
0001
1000
0010
0100
0010
,
2000
0000
3002
0000
1003
0001
0010
0100
,
0000
1000
0010
0100
0010
0100
0100
0001
,
1000
1000
0001
0100
0010
0100
0001
1000
,
0000
0001
0010
0001
1000
0010
0100
0010
,
2000
0000
3001
0000
1000
0100
1000
0001
,
0000
0100
0001
0010
0001
0010
0100
1000
,
0000
1100
0000
0010
0100
0001
0100
0001
,
0000
1000
0100
0010
0001
1000
0001
1000
,
0010
0000
0100
0001
1000
0001
1000
0010
,
0100
0001
0010
0001
1000
0100
1000
0010
,
0100
0010
0110
0000
0100
0001
1000
0000
,
0100
0000
0010
0000
0001
0010
0100
0000
,
1000
0000
0010
0000
1000
0001
0100
0000
,
0010
0000
1000
0000
0001
1000
0100
0000
,
0010
0000
0011
0000
0001
1000
0001
1000
,
0100
0010
0100
0010
0001
0100
0001
0100
,
0001
1000
0010
1000
0002
0000
0000
0000
,
0000
0000
2003
0000
,
0000
0000
3010
0100
,
0001
1000
0001
0000
0100
0100
0010
0000
,
1000
1000
0001
0000
0100
0010
1000
0001
,
0000
0010
0010
0000
0001
0000
1000
0000
,
0010
0100
0001
0000
0100
0000
0010
0000
,
1000
0100
1000
0000
0001
0000
0100
0000
,
0001
1000
0100
0000
0020
0000
0032
0000
,
2003
0000
3020
0000
0130
0001
0100
0010
,
1000
0010
0100
0001
2000
0000
0000
0000
,
0000
0000
0010
0010
,
3010
0000
0101
0000
0001
0000
0000
1000
,
0000
0000
0010
0000
0100
0000
0000
0001
,
0000
0000
0010
0000
0100
0000
0000
1000
,
0000
0000
0010
0000
0100
0000
0000
0010
,
0000
0000
1000
0000
0001
1000
0100
1000
,
0010
0100
0010
1000
0100
1000
0001
0010
,
0001
1000
0100
1000
0001
0100
0020
0000
,
1030
1000
0001
0001
0100
0010
1000
0001
,
0010
0100
0010
0001
1000
0001
1000
0010
,
0000
0010
0100
0001
1000
0010
1000
0001
,
0200
0000
0000
0000
0301
0100
0001
0010
,
0000
0100
1000
0010
1000
0100
0010
0001
,
2000
0000
3001
0000
0100
0010
1000
0001
,
0000
0100
0010
1000
0010
0100
0001
1000
,
0000
1010
0000
0010
0100
0001
0010
0001
,
0000
1000
0010
1000
0001
0100
0010
0100
,
0002
0000
2003
0000
3001
1000
0100
0010
,
0000
0001
0100
0010
0100
0010
0010
1000
,
0001
0001
1000
0010
0100
0010
1000
0001
,
0000
1000
0100
1000
0001
0100
0010
0100
,
0002
0000
1003
0000
0001
0010
0001
1000
,
0000
0010
1000
0100
1000
0100
0010
0001
,
0000
0011
0000
0100
0010
1000
0010
1000
,
0000
0001
0010
0100
1000
0001
1000
0001
,
0100
0000
0010
1000
0001
1000
0001
0100
,
0010
1000
0100
0010
0001
0010
0100
1000
,
0010
0100
0010
0100
2002
0000
0000
0000
,
0000
3003
0000
0000
0000
0000
0001
1000
,
0220
0000
0000
0330
;

//---------------dance-single - ----------------
#NOTES:
     dance-single:
     :
     Easy:
     4:
     0.275327,0.310200,0.051167,0.170557,0.000000,226.000000,220.000000,6.000000,20.000000,0.000000,0.000000,0.275327,0.310200,0.051167,0.170557,0.000000,226.000000,220.000000,6.000000,20.000000,0.000000,0.000000:
0000
0000
0000
0001
,
0000
0000
1000
0001
,
1000
0001
0000
0010
,
0000
0000
0001
1000
,
0001
0000
0000
0001
,
0100
0100
0000
0000
0000
1000
0000
0001
,
0000
0010
0000
0000
0000
0001
0000
1000
,
1000
0001
0000
1000
,
0001
0100
0010
1000
,
0001
0100
0010
0100
,
0001
1001
0001
0001
,
0000
1000
1000
0010
,
2000
3000
0001
1000
,
0000
0010
0100
0001
,
0000
0000
0100
0010
,
0000
1000
0001
0010
,
0200
0300
1000
0001
,
0000
0100
0010
1000
,
0001
1000
0100
1000
,
0000
0100
0001
0010
,
0002
0003
0100
0001
,
0000
1000
1000
0010
,
0000
0000
0010
0100
,
0000
0010
1000
0001
,
0100
0010
1000
0001
,
0010
0100
1000
0001
,
0010
0110
1000
0001
,
0010
0100
1000
0010
,
0001
0100
0001
0010
,
0100
0001
1000
0010
,
0100
1001
1000
1000
,
0010
0010
1000
1000
,
0001
0001
2000
0000
,
0000
0000
3002
0000
,
0000
0000
0103
0010
,
1000
1000
0010
0100
,
0001
1000
0010
0001
,
0000
0100
1000
0001
,
0100
1000
0010
0100
,
0001
0001
1000
0010
,
1000
0010
0200
2300
,
3002
0203
0310
0010
,
0001
0010
0002
0000
,
0000
0000
0100
0100
,
0103
1010
1000
0000
,
0000
0000
0001
0000
,
0000
0000
0010
0000
,
0000
0000
1000
0000
,
0000
0000
1000
1000
,
0100
0100
0010
0010
,
0001
0001
0100
0010
,
2000
3002
0003
0100
,
0010
0100
0001
1000
,
0000
0010
0100
0001
,
2000
0000
3001
1000
,
0000
0001
0001
0100
,
0002
0003
0010
0001
,
0000
0100
0010
1000
,
0000
0000
0010
0100
,
0000
0100
0001
0100
,
2000
3000
0001
0010
,
0000
0010
0001
0100
,
1000
0001
0010
0001
,
0000
0010
1000
0100
,
2000
3000
0001
0100
,
0000
0001
0001
0100
,
0000
0000
0100
0100
,
0000
0100
0001
0001
,
0010
0100
1000
1000
,
0100
0010
1000
0010
,
0100
0100
2002
0000
,
0000
3003
0000
0000
0000
0000
1000
0000
,
0220
0000
0000
0330
;

//---------------dance-single - ----------------
#NOTES:
     dance-single:
     :
     Beginner:
     2:
     0.162029,0.186120,0.000000,0.068223,0.000000,133.000000,133.000000,0.000000,8.000000,0.000000,0.000000,0.162029,0.186120,0.000000,0.068223,0.000000,133.000000,133.000000,0.000000,8.000000,0.000000,0.000000:
// measure 0
0000
0000
0000
0001
,  // measure 1
0000
0000
1000
0000
,  // measure 2
1000
0000
0000
0010
,  // measure 3
0000
0000
0001
0000
,  // measure 4
0001
0000
0000
0001
,  // measure 5
0000
0100
0000
0000
0000
1000
0000
0000
,  // measure 6
0000
0010
0000
0000
0000
0001
0000
0000
,  // measure 7
1000
0001
0000
1000
,  // measure 8
0000
0100
0000
1000
,  // measure 9
0000
0100
0000
0100
,  // measure 10
0001
1000
0001
0000
,  // measure 11
0000
1000
0000
0010
,  // measure 12
1000
0000
0001
0000
,  // measure 13
0000
0010
0000
0001
,  // measure 14
0000
0000
0100
0000
,  // measure 15
0000
1000
0000
0010
,  // measure 16
0100
0000
1000
0000
,  // measure 17
0000
0100
0000
1000
,  // measure 18
0000
0001
0000
1000
,  // measure 19
0000
0100
0000
0010
,  // measure 20
0001
0000
0100
0000
,  // measure 21
0000
1000
0000
0010
,  // measure 22
0000
0000
0010
0000
,  // measure 23
0000
0010
0000
0001
,  // measure 24
0000
0010
0000
0001
,  // measure 25
0000
0100
0000
0001
,  // measure 26
0000
0100
0000
0001
,  // measure 27
0000
0100
0000
0010
,  // measure 28
0000
0100
0000
0010
,  // measure 29
0000
0001
0000
0010
,  // measure 30
0000
0001
1000
0000
,  // measure 31
0010
0000
1000
0000
,  // measure 32
0001
0000
0200
0000
,  // measure 33
0000
0000
0320
0000
,  // measure 34
0000
0000
0130
0000
,  // measure 35
1000
0000
0010
0000
,  // measure 36
0001
0000
0010
0000
,  // measure 37
0000
0100
0000
0001
,  // measure 38
0000
1000
0000
0100
,  // measure 39
0000
0001
0000
0010
,  // measure 40
0000
0010
0000
1000
,  // measure 41
0000
0100
0000
0010
,  // measure 42
0000
1000
0002
0000
,  // measure 43
0000
0000
0100
0000
,  // measure 44
0103
0000
0010
0000
,  // measure 45
0000
0000
0001
0000
,  // measure 46
0000
0000
0010
0000
,  // measure 47
0000
0000
1000
0000
,  // measure 48
0000
0000
1000
0000
,  // measure 49
0100
0000
0010
0000
,  // measure 50
0001
0000
0100
0000
,  // measure 51
0200
0302
0003
0100
,  // measure 52
0000
0100
0000
1000
,  // measure 53
0000
0010
0000
0001
,  // measure 54
2000
0000
3001
0000
,  // measure 55
0000
0001
0000
0100
,  // measure 56
0001
0000
0010
0000
,  // measure 57
0000
0100
0000
1000
,  // measure 58
0000
0000
0010
0000
,  // measure 59
0000
0100
0000
0100
,  // measure 60
1000
0000
0001
0000
,  // measure 61
0000
0010
0000
0100
,  // measure 62
0000
0001
0000
0001
,  // measure 63
0000
0010
0000
0100
,  // measure 64
1000
0000
0001
0000
,  // measure 65
0000
0001
0000
0100
,  // measure 66
0000
0000
0100
0000
,  // measure 67
0000
0100
0000
0001
,  // measure 68
0000
0100
0000
1000
,  // measure 69
0000
0010
0000
0010
,  // measure 70
0000
0100
0002
0000
,  // measure 71
0000
0003
0000
0000
0000
0000
0100
0000
,  // measure 72
0200
0000
0000
0300
;
