#TITLE:aleatrik;
#SUBTITLE:;
#ARTIST:nc ft. NRGFactory;
#TITLETRANSLIT:;
#SUBTITLETRANSLIT:;
#ARTISTTRANSLIT:;
#GENRE:;
#CREDIT:;
#BANNER:;
#BACKGROUND:;
#LYRICSPATH:;
#CDTITLE:;
#MUSIC:aleatrik.mp3;
#OFFSET:0.800000;
#SAMPLESTART:70.439850;
#SAMPLELENGTH:12.000000;
#SELECTABLE:YES;
#BPMS:0.000000=138.009995
;
#STOPS:164.000000=0.120000,
164.250000=0.120000,
164.500000=0.120000,
164.750000=0.120000,
166.000000=0.220000
;
#BGCHANGES:;
#KEYSOUNDS:;
#ATTACKS:;

//---------------dance-single - ----------------
#NOTES:
     dance-single:
     :
     Hard:
     15:
     0.719391,0.884503,0.211176,0.048733,0.800032,620.000000,594.000000,26.000000,6.000000,0.000000,0.000000,0.719391,0.884503,0.211176,0.048733,0.800032,620.000000,594.000000,26.000000,6.000000,0.000000,0.000000:
// measure 0
0000
0000
0000
0000
,  // measure 1
0000
0000
0000
0000
,  // measure 2
1000
0000
0010
0000
0100
0000
0001
0010
,  // measure 3
0100
0000
1000
0000
0010
0000
0100
0010
,  // measure 4
1000
0000
0010
0000
0100
0000
0001
0010
,  // measure 5
0100
0000
1000
0000
0010
0000
0100
0010
,  // measure 6
1000
0000
0001
0000
1000
0000
0010
1000
,  // measure 7
0100
0000
0010
0000
0001
0000
1000
0010
,  // measure 8
1000
0000
0100
0000
0010
0000
0001
0010
,  // measure 9
0100
0000
0000
0000
0000
0000
0100
0000
0000
0000
0000
0000
1000
0000
0000
0000
0000
0000
0000
0000
0001
0000
1000
0000
0010
0000
0000
0100
0000
0000
0010
0000
0000
0100
0000
0000
0010
0000
0000
0100
0000
0000
0010
0000
0000
0100
0000
0000
,  // measure 10
1001
0000
0000
0000
1000
0000
0000
0010
0000
1000
0001
0000
0100
0000
0010
0000
,  // measure 11
1000
0000
0000
0000
0100
0000
0000
0010
0000
0001
1000
0000
0100
0000
0010
0000
,  // measure 12
0001
0000
0000
0000
0010
0000
0000
0100
0000
1000
0010
0000
0100
0000
0001
0000
,  // measure 13
0010
0000
0000
0000
0100
0000
0000
1000
0000
0001
0010
0000
0100
0000
1000
0000
,  // measure 14
1001
1010
0101
1010
,  // measure 15
0110
1001
0011
1100
,  // measure 16
1000
0010
1000
0001
0100
0010
0100
0001
,  // measure 17
1000
0000
0000
0001
0000
0000
1000
0000
0000
0001
0000
0000
0100
0000
0000
0010
0000
0000
0100
0000
0000
0010
0000
0000
1000
0000
0100
0000
0010
0000
0001
0000
0010
0000
0100
0000
1000
0000
0000
0001
0000
0000
0010
0000
0000
0001
0000
0000
,  // measure 18
1000
0000
0000
0000
0001
0000
0000
1000
0000
0000
0010
0000
0100
0000
0001
0000
,  // measure 19
1000
0000
0000
0000
0001
0000
0000
1000
0000
0100
0000
0000
0010
0000
0001
0000
,  // measure 20
1000
0000
0000
0000
0010
0000
0000
0100
0000
0000
0001
0000
1000
0000
0100
0000
,  // measure 21
1000
0000
0000
0000
0001
0000
0000
1000
0000
0010
0000
0000
0100
0000
0001
0000
,  // measure 22
0100
0000
0000
0000
0010
0000
0000
1000
0000
0000
0001
0000
0010
0000
0100
0000
,  // measure 23
1000
0000
0000
0000
0100
0000
0000
0010
0000
0001
0000
0000
1000
0000
0010
0000
,  // measure 24
1000
0000
0000
0000
0001
0000
0000
0010
0000
0000
0100
0000
1000
0000
0001
0000
,  // measure 25
1000
0000
0000
0000
0010
0000
0000
0100
0000
0001
0000
0000
1000
0000
0001
0000
,  // measure 26
1001
0000
1000
0010
0000
1000
0001
0100
0001
0000
0100
0000
0001
1000
0001
1000
,  // measure 27
0100
0000
0010
0001
0000
0001
0010
0100
1000
0000
0010
0000
0100
0010
1000
0010
,  // measure 28
0100
0000
0010
0100
0000
0100
0001
1000
0001
0000
0100
0000
0010
0100
1000
0100
,  // measure 29
0010
0000
1000
0001
0000
0001
0010
0100
0010
0000
0001
0000
1000
0010
1000
0010
,  // measure 30
0100
0000
0010
1000
0000
1000
0100
1000
0001
0000
0010
0000
0001
0100
0001
0100
,  // measure 31
0010
0000
1000
0010
0000
0010
0100
0001
0100
0000
0010
0000
1000
0100
1000
0100
,  // measure 32
0010
0000
0001
0010
0000
0010
0100
1000
0100
0000
0010
0000
0001
1000
0001
1000
,  // measure 33
0010
0000
0100
0010
0000
0010
1000
0010
0100
0000
0001
0000
1000
0010
1000
0010
,  // measure 34
0100
0000
0000
0000
0010
0000
0000
0000
0100
0000
0000
0000
0001
0000
1000
0010
,  // measure 35
1000
0000
0000
0000
0001
0000
0000
0000
1000
0000
0000
0000
0100
0000
0010
0001
,  // measure 36
0010
0000
0000
0000
0100
0000
0000
0000
1000
0000
0000
0000
0001
0000
0100
0010
,  // measure 37
0100
0010
1000
0100
,  // measure 38
0010
0001
1000
0001
1000
0010
0100
0010
,  // measure 39
0100
0010
1000
0100
0010
0001
1000
0100
,  // measure 40
0010
0000
0000
0001
0000
0000
0010
0000
0000
0100
0000
0000
1000
0000
0000
0010
0000
0000
0100
0000
0000
0001
0000
0000
0010
0000
0001
0000
0010
0000
0100
0000
0000
1000
0000
0000
0001
0000
1000
0000
0001
0000
0100
0000
0000
0010
0000
0000
,  // measure 41
2000
0000
3020
0000
0230
0000
0302
0000
1003
0000
0010
0000
0100
0000
0010
0000
0200
0300
0000
0000
1001
0000
0000
0000
1000
0000
0001
0000
0000
0000
0001
0000
,  // measure 42
1000
0010
1000
0000
0010
0000
1000
0001
1000
0001
0010
0000
0100
1000
0000
1000
,  // measure 43
0100
0010
0001
0000
0100
0000
0010
0100
0001
0100
0010
0000
0100
0010
0000
0010
,  // measure 44
1000
0001
1000
0000
0010
0000
0100
0010
0001
0010
0100
0000
0001
1000
0000
1000
,  // measure 45
0100
0010
0100
0000
1000
0000
0001
0100
0001
0100
0010
0000
0100
0001
0000
0001
,  // measure 46
0010
0001
1000
0000
0100
0000
1000
0010
1000
0010
0100
0000
0001
0100
0000
0100
,  // measure 47
0010
1000
0010
0000
0100
0000
0001
0010
0001
0010
0100
0000
1000
0100
0000
0100
,  // measure 48
0010
0001
0010
0000
0100
0000
1000
0001
1000
0001
0100
0000
0010
0100
0000
0100
,  // measure 49
0001
0100
0010
0000
1000
0000
0001
0100
0001
0100
0010
0000
1000
0010
0000
1000
,  // measure 50
0001
0100
0001
0000
0101
0000
0100
0001
1000
0001
0100
0000
0010
1000
0000
0001
,  // measure 51
0010
0100
1000
0000
1010
0000
0010
0100
0001
0100
0010
0000
1000
0001
0000
0100
,  // measure 52
0001
1000
0001
0000
0101
0000
0100
0010
0001
0010
0100
0000
0001
1000
0000
0001
,  // measure 53
0010
0100
0010
0000
0011
0000
0001
0100
0001
0100
0010
0000
1000
0100
0000
1000
,  // measure 54
0100
1000
0001
0000
0011
0000
0010
0100
1000
0010
0100
0000
0001
1000
0000
0010
,  // measure 55
0100
0001
0100
0000
0110
0000
0010
1000
0001
1000
0100
0000
0010
0001
0000
0010
,  // measure 56
0100
0000
0000
1000
0000
0000
0100
0000
0000
0000
0000
0000
0110
0000
0000
0000
0000
0000
0010
0000
0000
0001
0000
0000
1000
0000
0000
0001
0000
0000
1000
0000
0000
0000
0000
0000
0010
0000
1000
0000
0010
0000
0100
0000
0000
0010
0000
0000
,  // measure 57
1000
0010
0100
0001
0100
0000
0001
0100
1000
0100
0010
1000
0001
0000
0101
0000
,  // measure 58
0100
0000
0001
0010
0100
0000
1100
0000
1000
0000
0010
0100
0001
0000
1001
0000
,  // measure 59
1000
0000
0001
0010
1000
0000
1010
0000
0010
0000
0001
0100
1000
0000
1100
0000
,  // measure 60
0100
0000
0001
1000
0100
0000
0110
0000
0010
0000
0001
0010
0100
0000
1100
0000
,  // measure 61
1000
0000
0010
1000
0001
0000
0101
0000
0000
0000
0100
0000
0000
0000
0001
0000
,  // measure 62
0000
0000
1000
0000
0000
0000
0001
0010
0100
1000
0010
0000
0000
0000
0100
0000
,  // measure 63
0000
0000
0001
0000
0000
0000
1000
0010
0100
0001
0010
0000
0100
0000
1000
0000
,  // measure 64
0010
0000
0000
0000
0000
0000
0100
0000
0000
0000
0000
0000
0001
0000
0000
0000
0000
0000
1000
0000
0000
0000
0000
0000
0010
0000
0000
0000
0000
0000
0100
0000
0001
0000
0100
0000
0010
0000
0000
1000
0000
0000
0010
0000
0000
0100
0000
0000
,  // measure 65
0001
0000
0000
1000
0000
0000
0001
0000
0100
0000
0001
0000
1000
0000
0000
0010
0000
0000
0100
0000
0000
0001
0000
0000
0100
0000
0000
0010
0000
0000
2000
0000
0000
0000
0000
0000
0000
0000
0000
0000
0000
0000
0000
0000
0000
0000
0000
0000
,  // measure 66
3000
0000
0000
0000
;

//---------------dance-single - ----------------
#NOTES:
     dance-single:
     :
     Medium:
     12:
     0.509375,0.589669,0.097466,0.048733,0.239604,439.000000,427.000000,12.000000,6.000000,0.000000,0.000000,0.509375,0.589669,0.097466,0.048733,0.239604,439.000000,427.000000,12.000000,6.000000,0.000000,0.000000:
0000
0000
0000
0000
,
0000
0000
0000
0000
,
0100
0000
0001
0000
0010
0000
0100
1000
,
0100
0000
1000
0000
0001
0000
0100
0001
,
0010
0000
0100
0000
1000
0000
0010
0100
,
0001
0000
0100
0000
0010
0000
1000
0010
,
0100
0000
0001
0000
1000
0000
0001
1000
,
0100
0000
0010
0000
0001
0000
1000
0010
,
0100
0000
0001
0000
0010
0000
0100
1000
,
0001
0000
1000
0000
0010
0100
0010
0100
,
1001
0000
1000
0000
0001
0000
1000
0010
,
0100
0000
0001
0000
0010
0000
0100
0010
,
0001
0000
1000
0000
0010
0000
1000
0001
,
0100
0000
0010
0000
1000
0000
0001
1000
,
1001
1000
0001
0010
,
0100
1000
0001
0100
,
1000
0010
1000
0000
0001
0100
0001
0000
,
1000
0001
0100
0010
1000
0001
0100
0010
,
0100
0000
0000
0000
0001
0000
0000
0100
0000
0000
0001
0000
0100
0000
0001
0000
,
1000
0000
0000
0000
0010
0000
0000
1000
0000
0000
0000
0000
0010
0000
1000
0000
,
0001
0000
0000
0000
0010
0000
0000
0100
0000
0000
1000
0000
0100
0000
0010
0000
,
0001
0000
0000
0000
0010
0000
0000
0100
0000
0000
0000
0000
1000
0000
0010
0000
,
0100
0000
0000
0000
0010
0000
0000
1000
0000
0000
0100
0000
0010
0000
0100
0000
,
1000
0000
0000
0000
0001
0000
0000
0100
0000
0000
0000
0000
0010
0000
1000
0000
,
0001
0000
0000
0000
0100
0000
0000
0010
0000
0000
1000
0000
0001
0000
1000
0000
,
0100
0000
0000
0000
0010
0000
0000
0001
0000
0000
0000
0000
1000
0000
0001
0000
,
1001
0000
0100
0010
0000
0000
1000
0000
0001
0000
0100
0000
0010
0000
1000
0001
,
1000
0000
0010
0100
0000
0000
0001
0000
1000
0000
0100
0000
0010
0000
0001
0010
,
0001
0000
0010
0100
0000
0000
1000
0000
0001
0000
0100
0000
0010
0000
1000
0001
,
1000
0000
0010
1000
0000
0000
0001
0000
0100
0000
0001
0000
1000
0000
0001
1000
,
0001
0000
0100
0010
0000
0000
0010
0000
1000
0000
0010
0000
0100
0000
0001
1000
,
0001
0000
0100
0010
0000
0000
1000
0000
0001
0000
0010
0000
0100
0000
1000
0100
,
1000
0000
0100
0010
0000
0000
0001
0000
1000
0000
0010
0000
0100
0000
0001
1000
,
0001
0000
0100
0001
0000
0000
1000
0000
0010
0000
1000
0000
0001
0000
0100
0010
,
0100
0010
0100
0001
,
1000
0100
1000
0010
,
0100
0010
1000
0100
,
0010
0001
1000
0010
,
0100
0010
0100
0001
0010
0001
0010
0100
,
1000
0100
1000
0100
0010
0001
1000
0001
,
2000
3002
0203
0320
,
1030
0001
1000
0001
0200
0000
0000
0000
0310
0000
1001
0000
0000
0000
0100
0000
,
0001
0000
0100
0000
0010
0000
1000
0001
0000
0100
0010
0000
0000
0000
1000
0000
,
0001
0000
0010
0000
0100
0000
1000
0100
0000
0010
0001
0000
0000
0000
1000
0000
,
0001
0000
0100
0000
0010
0000
1000
0001
0000
0100
0010
0000
0000
0000
1000
0000
,
0010
0000
1000
0000
0001
0000
0010
0100
0000
0100
1000
0000
0000
0000
0010
0000
,
1000
0000
0010
0000
0100
0000
0001
1000
0000
0010
0100
0000
0000
0000
0001
0000
,
1000
0000
0100
0000
0010
0000
0001
0010
0000
0100
1000
0000
0000
0000
0001
0000
,
1000
0000
0010
0000
0100
0000
0001
1000
0000
0010
0100
0000
0000
0000
0001
0000
,
0100
0000
0001
0000
1000
0000
0100
0010
0000
0010
0001
0000
0000
0000
0100
0000
,
0001
0000
0100
0000
0010
0000
1000
0001
0000
0100
0010
0000
0000
0000
1000
0000
,
0001
0000
0010
0000
0100
0000
1000
0100
0000
0010
0001
0000
0000
0000
1000
0000
,
0001
0000
0100
0000
0010
0000
1000
0001
0000
0100
0010
0000
0000
0000
1000
0000
,
0010
0000
1000
0000
0001
0000
0010
0100
0000
0100
1000
0000
0000
0000
0010
0000
,
1000
0000
0010
0000
0100
0000
0001
1000
0000
0010
0100
0000
0000
0000
0001
0000
,
1000
0000
0100
0000
0010
0000
0001
0010
0000
0100
1000
0000
0000
0000
0001
0000
,
1000
0000
0010
0000
0100
0000
0001
1000
0000
0010
0100
0000
0000
0000
0001
0000
,
0100
0000
0001
0000
1000
0000
0100
0010
0000
0100
0010
0000
0001
0000
0101
0000
,
0100
0010
1000
1010
0010
0100
0001
1001
,
1000
0001
0010
0011
0001
1000
0010
0110
,
0100
0001
1000
1100
0100
0010
0001
1001
,
1000
0010
0100
0101
0000
0010
0000
1000
,
0000
0001
0000
0010
0000
0100
0000
1000
,
0000
0010
0000
1000
0001
0100
0010
0100
,
0001
0010
0100
1000
0010
0100
0010
1000
,
0100
0000
0010
0000
0001
0000
0010
0000
0100
1000
0002
0000
0000
0000
0000
0000
,
0003
0000
0000
0000
;

//---------------dance-single - ----------------
#NOTES:
     dance-single:
     :
     Easy:
     4:
     0.341131,0.375244,0.089344,0.064977,0.000000,294.000000,283.000000,11.000000,8.000000,0.000000,0.000000,0.341131,0.375244,0.089344,0.064977,0.000000,294.000000,283.000000,11.000000,8.000000,0.000000,0.000000:
0000
0000
0000
0000
,
0000
0000
0000
0000
,
0001
1000
0100
1000
,
0100
0010
0001
0100
,
0001
0100
0010
1000
,
0001
1000
0100
1000
,
0001
0100
0001
1000
,
0010
1000
0001
0100
,
0001
0010
0100
1000
,
0100
0010
0001
1000
,
1001
0001
0100
0001
,
0100
0010
1000
0100
,
1000
0001
0010
0001
,
0100
0010
0100
0001
,
1001
1000
0100
0010
,
0001
0100
0010
0100
,
0001
1000
0001
0100
,
0010
0000
1000
0000
0001
0000
0100
0100
,
0100
0000
0010
0000
0000
0000
1000
0001
,
0100
0000
0000
0000
0000
0000
0001
0100
,
0010
0000
0000
0000
0000
0000
1000
0001
,
0010
0000
0000
0000
0000
0000
0001
1000
,
0100
0000
0000
0000
0000
0000
0010
0001
,
0100
0000
0000
0000
0000
0000
0010
1000
,
0100
0000
0000
0000
0000
0000
0010
0001
,
0100
0000
0000
0000
0000
0000
0010
0010
,
0010
0000
0100
0000
0001
0000
1000
0001
,
0001
0000
0100
0000
0001
0000
1000
0100
,
0100
0000
0010
0000
0001
0000
0100
0010
,
0010
0000
1000
0000
0001
0000
0010
0100
,
0100
0000
1000
0000
0001
0000
0100
0010
,
0010
0000
1000
0000
0001
0000
0100
0010
,
0010
0000
1000
0000
0100
0000
0010
0001
,
0001
0000
0010
0000
0100
0000
1000
0010
,
0010
0100
0001
1000
,
0010
0100
0001
1000
,
0010
1000
0001
0010
,
0100
1000
0001
0100
,
0010
0100
0010
0000
0100
0001
0100
0000
,
0001
1000
0001
0000
0100
0010
0100
0000
,
0002
2003
3020
0230
,
0302
2003
3020
0000
0130
1001
0000
0010
,
0000
0100
0000
0001
1000
0010
0000
0100
,
0000
0001
0000
1000
0100
0010
0000
0001
,
0000
0100
0000
0001
1000
0010
0000
0100
,
0000
0001
0000
1000
0010
1000
0000
0100
,
0000
0010
0000
0001
0100
0010
0000
1000
,
0000
0001
0000
0100
0010
1000
0000
0100
,
0000
0010
0000
0001
0100
0010
0000
1000
,
0000
0001
0000
0100
0010
1000
0000
0010
,
0000
0100
0000
0001
1000
0010
0000
1000
,
0000
0100
0000
0010
0001
1000
0000
0001
,
0000
0100
0000
0001
1000
0010
0000
0100
,
0000
0001
0000
1000
0001
1000
0000
0100
,
0000
0010
0000
1000
0100
0010
0000
0001
,
0000
0100
0000
0010
0100
0001
0000
1000
,
0000
0100
0000
0010
0001
0100
0000
0010
,
0000
1000
0000
0001
0100
0010
0000
1010
,
0000
0100
0000
0101
0000
0010
0000
1001
,
0000
1000
0000
1100
0000
0001
0000
0110
,
0000
1000
0000
0011
0000
0100
0000
1001
,
0000
0100
0000
1010
0000
0100
0000
0001
,
0000
1000
0000
0100
0000
0010
0000
0001
,
0000
0100
0000
0001
0000
0010
0100
0010
,
0000
0100
0010
0001
0000
0010
0100
0001
,
0000
0100
1000
0100
0000
0020
0000
0000
,
0030
0000
0000
0000
;

//---------------dance-single - ----------------
#NOTES:
     dance-single:
     :
     Beginner:
     3:
     0.177527,0.268031,0.089344,0.073099,0.000000,153.000000,142.000000,11.000000,9.000000,0.000000,0.000000,0.177527,0.268031,0.089344,0.073099,0.000000,153.000000,142.000000,11.000000,9.000000,0.000000,0.000000:
0000
0000
0000
0000
,
0000
0000
0000
0000
,
0001
0000
0100
0000
,
0100
0000
0001
0000
,
0001
0000
0010
0000
,
0001
0000
0100
0000
,
0001
0000
0001
0000
,
0010
0000
0001
0000
,
0001
0000
0100
0000
,
0100
0000
0001
0000
,
1001
0000
0100
0000
,
0100
0000
1000
0000
,
1000
0000
0010
0000
,
0100
0000
0100
0000
,
1001
0000
0100
0000
,
0001
0000
0010
0000
,
0001
0000
0001
0000
,
0010
0000
0001
0200
,
0310
0010
0000
1000
,
0100
0000
0000
0001
,
0010
0000
0000
1000
,
0010
0000
0000
0001
,
0100
0000
0000
0010
,
0100
0000
0000
0010
,
0100
0000
0000
0010
,
0100
0000
0000
0020
,
0130
0000
0001
0000
,
0001
0000
0001
0000
,
0100
0000
0001
0000
,
0010
0000
0010
0000
,
1000
0000
0001
0000
,
0100
0000
0001
0000
,
0010
0000
0100
0000
,
0001
0000
0100
0000
,
0010
0000
0001
0000
,
0010
0000
0001
0000
,
0010
0000
0001
0000
,
0100
0000
0001
0000
,
0010
0010
1000
1000
,
0001
0001
0100
0100
,
0020
2030
3200
0320
,
0032
0000
2003
0000
3000
1001
0000
0000
,
0000
0100
0000
0000
0000
0010
0000
0000
,
0000
0001
0000
0000
0000
0010
0000
0000
,
0000
0100
0000
0000
0000
0010
0000
0000
,
0000
0001
0000
0000
0000
1000
0000
0000
,
0000
0010
0000
0000
0000
0010
0000
0000
,
0000
0001
0000
0000
0000
1000
0000
0000
,
0000
0010
0000
0000
0000
0010
0000
0000
,
0000
0001
0000
0000
0000
1000
0000
0000
,
0000
0100
0000
0000
0000
0010
0000
0000
,
0000
0100
0000
0000
0000
1000
0000
0000
,
0000
0100
0000
0000
0000
0010
0000
0000
,
0000
0001
0000
0000
0000
1000
0000
0000
,
0000
0010
0000
0000
0000
0010
0000
0000
,
0000
0100
0000
0000
0000
0001
0000
0000
,
0000
0100
0000
0000
0000
0100
0000
0000
,
0000
1000
0000
0000
0000
0100
0000
1001
,
0000
0000
0000
0101
0000
0000
0000
1001
,
0000
0000
0000
1100
0000
0000
0000
0110
,
0000
0000
0000
0011
0000
0000
0000
1001
,
0000
0000
0000
1010
0000
0000
0000
0001
,
0000
0000
0000
0100
0000
0000
0000
0001
,
0000
0000
0000
0001
0000
0010
0000
0100
,
0000
1000
0000
0010
0000
0100
0000
0010
,
0000
1000
0000
0001
0000
0200
0000
0000
,
0300
0000
0000
0000
;
