#VERSION:0.83;
#TITLE:Zelophilia;
#SUBTITLE:;
#ARTIST:ぺのれり feat.ぁゅ;
#TITLETRANSLIT:Zelophilia;
#SUBTITLETRANSLIT:;
#ARTISTTRANSLIT:penoreri feat.ayu;
#GENRE:;
#ORIGIN:;
#CREDIT:;
#BANNER:Zelophilian-bn.png;
#BACKGROUND:Zelophilian-bg.png;
#PREVIEWVID:;
#JACKET:Zelophilian-jacket.png;
#CDIMAGE:;
#DISCIMAGE:;
#LYRICSPATH:;
#CDTITLE:;
#MUSIC:Zelophilia.mp3;
#OFFSET:0.780000;
#SAMPLESTART:12.120005;
#SAMPLELENGTH:12.000000;
#SELECTABLE:YES;
#BPMS:0.000=154.970;
#STOPS:;
#DELAYS:;
#WARPS:;
#TIMESIGNATURES:0.000=4=4;
#TICKCOUNTS:0.000=4;
#COMBOS:0.000=1;
#SPEEDS:0.000=1.000=0.000=0;
#SCROLLS:0.000=1.000;
#FAKES:;
#LABELS:0.000=Song Start;
#BGCHANGES:;
#KEYSOUNDS:;
#ATTACKS:
;

//---------------dance-single - ----------------
#NOTEDATA:;
#CHARTNAME:;
#STEPSTYPE:dance-single;
#DESCRIPTION:;
#CHARTSTYLE:;
#DIFFICULTY:Hard;
#METER:17;
#RADARVALUES:0.851497,1.052738,0.377777,0.344197,0.986417,710.000000,665.000000,45.000000,41.000000,0.000000,0.000000,0.000000,0.000000,0.000000,0.851497,1.052738,0.377777,0.344197,0.986417,710.000000,665.000000,45.000000,41.000000,0.000000,0.000000,0.000000,0.000000,0.000000;
#CREDIT:;
#NOTES:
0000
0000
0000
0000
,
0000
0000
0000
0000
0000
0000
0000
0000
0000
0000
0000
0000
1000
0001
1000
0001
,
1000
0010
0000
0010
0000
0000
1000
0000
0010
0100
0001
0100
0001
0000
1000
0010
,
0000
0000
0100
0000
0002
0000
0000
0000
1003
0000
0000
0000
0001
0010
0100
1000
,
0001
0000
1000
0000
0000
0000
0010
0000
0100
0010
1000
0001
0100
0001
1000
0010
,
1000
0001
0100
0000
0010
0000
1000
0000
0001
0010
0001
0100
0010
0100
0001
1000
,
0010
0100
0000
0100
0000
0000
0001
0000
0100
0000
0010
0000
1000
0010
0000
0100
,
0000
0000
0010
0000
1000
0001
1000
0001
1000
0001
1000
0001
0100
0000
0100
0000
,
0010
0000
0010
0000
0100
0001
0100
0010
1000
0001
0010
0100
1000
0001
0100
0000
,
1001
0000
0001
0000
0100
0000
0010
0000
1000
0000
0001
0000
0100
0000
0000
0100
,
0000
0000
0001
0000
1000
0001
0100
0000
0001
0000
1000
0000
0010
0000
0000
0010
,
0000
0000
1000
0000
0100
0010
0001
0000
1000
0000
0001
0000
1000
0000
0000
1000
,
0000
0000
0010
0000
0100
0001
1000
0000
0001
0000
1000
0000
0010
0100
0000
0001
,
0000
1000
0100
0000
0100
0000
0000
2020
3030
0000
0001
0000
0001
0000
0000
0202
,
0303
0000
0100
0000
0100
0000
0000
0220
0330
0000
0010
0000
0010
0000
0000
2002
,
3003
0000
0000
0000
0100
0010
0000
1000
0000
0010
0000
0100
0000
0001
0000
0010
,
0000
0100
0000
1000
0001
1000
0001
0000
0200
0000
0000
0000
0000
0000
0000
0000
,
0000
0000
0000
0301
0010
0100
1000
0010
0100
0010
1000
0001
,
1000
0000
0000
0000
0100
0000
0000
0000
0010
0000
0000
0000
0001
0000
0000
0000
0000
0000
1000
0000
0000
0000
0000
0000
0001
0000
0000
0000
0000
0000
0010
0000
0000
0000
0000
0000
0100
0000
0000
0000
0000
0000
0000
0000
0000
1000
0000
0000
,
0000
0000
0001
0010
0001
0000
0000
0100
0000
0000
0010
0000
1000
0000
0001
0000
,
1000
0001
0200
0000
0310
1000
0001
0100
,
0010
0000
1000
0000
0100
0000
0000
0010
0000
0000
0000
0001
1000
0010
0100
0001
,
0010
0100
1000
0001
1000
0000
0010
0000
0100
0000
0010
0000
1000
0000
0100
0000
,
0010
0001
0000
1000
0000
0000
0001
0000
0010
0000
0100
1000
0100
1000
0001
0100
,
0001
0100
0010
1000
0020
0000
0000
0000
0130
0000
0001
0000
0201
0000
0000
0000
,
0301
0000
0000
0000
0010
0000
0000
0000
0110
0000
0000
0000
0100
0000
0000
0000
1000
0000
0000
0000
0001
0000
0000
0000
1000
0001
0100
0000
0010
0000
0100
0000
,
0010
0100
0010
0000
2000
0000
0002
0000
3003
0000
1000
0010
0100
0001
1000
0010
,
0100
0001
0010
0100
1000
0001
0010
0100
1000
0010
0100
0010
1000
0001
1000
0100
,
0010
0100
1000
0010
0100
0010
1000
0001
0010
0100
0001
0100
1000
0100
0001
1000
,
0010
0001
0100
1000
0100
0010
0100
0001
1000
0010
1000
0001
0100
0001
1000
0010
,
0100
0010
1000
0001
0010
0000
0000
1100
0000
0000
0101
0000
0110
0000
0000
1001
,
0000
0000
0100
0000
0000
0010
1000
0001
0100
0001
0000
0000
0010
0000
0000
0100
,
0000
0000
1000
0000
0001
0000
0100
0001
1000
0001
0010
0100
1000
0010
0100
0010
,
1000
0001
0100
0010
0100
0000
0000
0000
0101
0000
0000
0000
1010
0000
0000
0000
,
0110
0000
0100
0010
1000
0000
1010
0000
0000
0000
0010
0100
0001
0000
0011
0000
,
0000
0000
0010
0100
1000
0000
1001
0000
0000
0000
0200
0000
0000
0000
0301
0000
,
1000
0100
0020
0000
0031
0001
0100
0010
,
1000
0001
1001
0000
0110
0000
0101
0000
,
1010
0000
1000
0000
0001
0000
0010
0100
0000
0000
1000
0010
0100
0000
0001
1000
,
0000
0000
0100
0010
0001
0000
1000
0100
0000
0000
2000
0000
0000
0000
3010
0000
,
0200
0300
0110
0000
0010
1000
0001
0010
,
0100
0000
0010
0000
0001
0000
0000
1000
0000
0000
1002
0000
0000
0000
0103
0000
,
0001
0100
0001
0010
0100
0000
1000
0001
0000
0000
0001
1000
0100
0000
0010
0001
,
0000
0000
0010
0100
1000
0000
0010
0100
0000
0000
0002
0000
0000
0000
1003
0000
,
0010
1000
0001
0200
0000
0310
1001
0001
,
0010
0100
1100
0000
0110
0000
0011
0100
,
1000
0000
0010
1000
0001
0000
1001
0000
0000
0000
1000
0010
0100
0000
0101
0000
,
0000
0000
0001
0010
0100
0000
1100
0000
0000
0000
2000
0000
0000
0000
3001
0000
,
1000
0010
0100
0000
0001
1000
0100
1000
,
0010
0000
0100
0000
0010
0000
0000
1000
0000
0000
0001
0000
0000
0000
1000
0000
,
0001
0000
0000
0000
0200
0000
0000
0010
0000
0000
0010
0000
0000
0001
0000
0000
,
0302
0000
0010
0000
0010
0000
0000
0010
0000
0000
0023
0000
0000
0000
0130
0000
,
1000
0000
0010
0000
0100
0000
0001
0000
1000
0000
0010
0000
0100
0000
0001
0010
,
0000
0000
0100
0000
1000
0000
0010
0000
0100
0010
1000
0100
0010
0001
1000
0010
,
0100
0000
0000
0000
0010
0000
1000
0000
0001
0000
0010
0000
0001
1000
0000
0010
,
1000
0000
0010
0100
0000
0000
0001
0010
0001
1000
0100
1000
0010
0100
0010
1000
,
0100
1000
0001
0010
0001
0010
0100
0000
0100
1000
0000
1000
0010
0000
0010
0100
,
0000
0100
0001
1000
0010
0100
0001
0010
0001
1000
0010
1000
0001
0000
1000
0000
,
0010
0000
0001
0000
0010
0000
0000
1000
0000
0000
0100
0000
0000
0010
0000
0000
,
0001
0000
1000
0000
0010
0100
0010
0000
1000
0000
0001
0000
0100
0010
0000
1000
,
0100
0000
0010
0000
0001
0000
0000
1000
0000
0000
0010
0000
0100
0010
0000
1000
,
0001
1000
0000
0000
0010
0000
0100
0000
0001
0000
1000
0000
0100
0010
0001
0000
,
1000
0000
0000
0010
0000
0000
0000
0000
0000
0100
0000
0000
0000
0000
0000
0000
0000
0000
0010
0000
0000
1000
0000
0000
0001
0000
0100
0000
0001
0000
0100
0000
0000
0000
0000
0000
0010
0000
0000
0000
0000
0000
1000
0000
0000
0001
0000
0000
,
0100
0000
0010
0000
0100
0000
0010
0000
0000
0000
0000
0000
1000
0000
0010
0000
0100
0000
0001
0000
1000
0000
0000
0000
0010
0000
0000
0000
0000
0000
1000
0000
0000
0001
0000
0000
0000
0000
0000
0010
0000
0000
0000
0000
0000
0100
0000
0000
,
1000
0100
0010
0001
0010
0000
0100
1000
0000
0010
1000
0000
0001
0100
0000
0010
,
1000
0000
0000
0000
0000
0000
0100
0000
0000
0010
0000
0000
0000
0000
0000
0001
0000
0000
0010
0000
0000
0000
0100
0000
0000
0000
1000
0000
0000
0000
0010
0000
0000
0000
0000
0000
2002
0000
0000
0000
0000
0000
3003
0000
0000
0000
0000
0000
,
1001
0000
1000
0000
0010
0000
0100
0000
0001
0000
1000
0000
0010
0000
0000
0010
,
0000
0000
1000
0000
0001
1000
0010
0000
1000
0000
0001
0000
0100
0000
0000
0100
,
0000
0000
0001
0000
0010
0100
1000
0000
0001
0000
1000
0000
0001
0000
0000
0001
,
0000
0000
0100
0000
0010
1000
0001
0000
1000
0000
0001
0000
0100
0010
0000
1000
,
0000
0001
0010
0000
0110
0000
0000
0022
0033
0000
1001
0000
0101
0000
0000
2020
,
3030
0000
0110
0000
1001
0000
0000
0220
0330
0000
0101
0000
1100
0000
0000
2002
,
3003
0000
0000
0000
0010
0100
0000
0001
0000
0100
0000
0010
0000
1000
0000
0100
,
0000
0010
0000
0001
1000
0001
1000
0000
0020
0000
0000
0000
0000
0000
0000
0000
,
0000
0000
0000
1030
0100
0010
0001
0100
0010
0100
0001
1000
,
0001
0000
1000
0010
1000
0000
2002
0000
3003
0000
0001
0100
0001
0000
2002
0000
,
3003
0000
0000
0000
;

//---------------dance-single - ----------------
#NOTEDATA:;
#CHARTNAME:;
#STEPSTYPE:dance-single;
#DESCRIPTION:;
#CHARTSTYLE:;
#DIFFICULTY:Medium;
#METER:11;
#RADARVALUES:0.524090,0.542319,0.100740,0.167901,0.113333,437.000000,425.000000,12.000000,20.000000,0.000000,0.000000,0.000000,0.000000,0.000000,0.524090,0.542319,0.100740,0.167901,0.113333,437.000000,425.000000,12.000000,20.000000,0.000000,0.000000,0.000000,0.000000,0.000000;
#CREDIT:;
#NOTES:
// measure 0
0000
0000
0000
0000
,  // measure 1
0000
0000
0000
0000
0000
0000
1000
0001
,  // measure 2
1000
0010
0000
1000
0001
0100
0001
1000
,  // measure 3
0000
0001
0100
0000
0010
0000
0100
0000
,  // measure 4
0001
1000
0000
0010
0100
0001
0010
0001
,  // measure 5
1000
0100
1000
0010
0000
0100
0001
1000
,  // measure 6
0010
1000
0000
0001
0100
0010
1000
0010
,  // measure 7
0000
0100
0001
0010
0001
1000
0100
1000
,  // measure 8
0010
0100
0020
0000
0000
0000
1030
0000
,  // measure 9
1001
0000
0001
0010
0001
0010
0100
0000
,  // measure 10
1000
0000
0010
0100
0001
0100
0010
0000
,  // measure 11
1000
0000
0100
0010
0001
0010
0100
0000
,  // measure 12
1000
0000
0100
1000
0001
1000
0010
0000
,  // measure 13
1000
0000
0000
0000
0100
0000
0000
0100
0000
0000
0000
0000
0010
0000
0000
0010
,  // measure 14
0000
0000
0000
0000
0001
0000
0000
0001
0000
0000
0000
0000
1000
0000
0000
1000
,  // measure 15
0000
0000
0000
0000
0010
0000
0000
0000
0000
0000
0000
0100
0000
0000
0000
0000
,  // measure 16
0000
0001
0000
1000
0000
0000
0000
0000
0020
0000
0000
0000
0000
0000
0000
0000
,  // measure 17
0000
1030
0001
0010
,  // measure 18
0100
0000
1000
0001
1000
0010
0100
0000
,  // measure 19
0000
0001
1000
0000
0000
0010
1000
0000
,  // measure 20
0001
0000
0200
0000
0310
1000
0001
0000
,  // measure 21
1000
0010
0100
0000
0001
0000
1000
0000
,  // measure 22
0010
0000
1000
0001
0100
0000
0001
0010
,  // measure 23
0100
0000
1000
0001
0010
0000
0100
1000
,  // measure 24
0010
0100
0002
0000
1003
0001
0020
0000
,  // measure 25
0130
1000
0002
0000
1003
0001
0100
0000
,  // measure 26
0110
0000
0010
0100
0000
0001
0100
0010
,  // measure 27
0100
0001
1000
0001
0100
0010
0100
0001
,  // measure 28
0010
0100
1000
0010
0100
0010
1000
0100
,  // measure 29
1000
0001
0010
0001
1000
0100
1000
0010
,  // measure 30
0100
0000
0001
0000
0010
0000
0000
0100
0000
0000
1000
0000
0010
0000
0000
0100
,  // measure 31
0000
0000
0001
0000
0000
0000
1000
0000
0010
0000
0000
0000
0100
0000
0000
0010
,  // measure 32
0000
1000
0000
0001
0100
0010
1000
0001
,  // measure 33
1000
0010
0100
0000
1001
0000
0110
0000
,  // measure 34
0101
0010
0100
0001
0000
0010
0100
1000
,  // measure 35
0000
0010
0100
0001
0000
2000
0000
3001
,  // measure 36
1000
0100
0020
0000
0031
1000
0010
1000
,  // measure 37
0001
0010
0110
0000
1100
0000
1001
0000
,  // measure 38
0101
0000
0001
0010
0000
0100
1000
0010
,  // measure 39
0000
0100
0001
0010
0000
0002
0000
1003
,  // measure 40
0010
0000
0101
0000
0010
1000
0001
1000
,  // measure 41
0001
0010
0100
0000
1000
0002
0000
0103
,  // measure 42
0001
1000
0010
1000
0000
0001
0010
0001
,  // measure 43
0000
0100
1000
0100
0000
0020
0000
0031
,  // measure 44
0010
0100
0010
0002
0000
1003
1000
0001
,  // measure 45
0010
0100
2000
0000
3002
0000
0103
0010
,  // measure 46
1000
0010
0100
0001
0000
1000
0100
0010
,  // measure 47
0000
0001
0010
0100
0000
2000
0000
3001
,  // measure 48
0100
0001
0010
0000
0100
1000
0001
1000
,  // measure 49
0010
0000
0100
0000
0010
0000
0000
1000
0000
0000
0001
0000
0000
0000
1000
0000
,  // measure 50
0001
0000
2000
0000
0010
0000
0001
3000
,  // measure 51
0020
0000
1000
0000
0130
0000
1000
0001
,  // measure 52
1000
0010
0100
0000
0001
0000
1000
0000
,  // measure 53
0001
0000
1000
0001
0010
0001
1000
0010
,  // measure 54
1000
0000
0010
1000
0001
0010
0001
0100
,  // measure 55
0010
0100
0000
0001
0010
0100
0010
0001
,  // measure 56
1000
0000
0010
0000
0000
0100
0000
0000
0001
0000
0000
1000
0000
0000
0100
0000
,  // measure 57
0000
0010
0000
0000
0001
0000
0010
0000
0100
0000
1000
0000
0010
0000
0100
0000
,  // measure 58
0001
0000
1000
0000
0001
0000
0000
1000
0000
0000
0100
0000
0000
0010
0000
0000
,  // measure 59
0001
1000
0010
1000
0001
0010
0100
0000
,  // measure 60
1000
0010
0100
0000
0010
1000
0001
0100
,  // measure 61
0001
0000
1000
0010
1000
0001
0100
0001
,  // measure 62
1000
0000
0010
1000
0001
0100
0000
0001
,  // measure 63
0010
0000
0100
1000
0001
0100
0000
0010
,  // measure 64
1000
0000
0000
0000
0001
0000
0000
0010
0000
0000
0100
0000
0000
0010
0000
0000
,  // measure 65
0001
0000
0000
1000
0000
0000
0010
0000
0000
0100
0000
0000
1001
0000
0000
0000
,  // measure 66
1001
0000
1000
0100
1000
0100
0010
0000
,  // measure 67
0001
0000
0100
0010
1000
0010
0100
0000
,  // measure 68
0001
0000
0010
0100
1000
0100
0010
0000
,  // measure 69
0001
0000
0010
0001
1000
0001
0100
0000
,  // measure 70
0001
0000
0000
0000
0010
0000
0000
0010
0000
0000
0000
0000
0100
0000
0000
0100
,  // measure 71
0000
0000
0000
0000
1000
0000
0000
1000
0000
0000
0000
0000
0001
0000
0000
0001
,  // measure 72
0000
0000
0000
0000
0100
0000
0000
0000
0000
0000
0000
0010
0000
0000
0000
0000
,  // measure 73
0000
1000
0000
0001
0000
0000
0000
0000
2000
0000
0000
0000
0000
0000
0000
0000
,  // measure 74
0000
3001
0100
0010
,  // measure 75
0100
0010
1000
0002
0000
0013
0100
2000
,  // measure 76
3000
0000
0000
0000
;

//---------------dance-single - ----------------
#NOTEDATA:;
#CHARTNAME:;
#STEPSTYPE:dance-single;
#DESCRIPTION:;
#CHARTSTYLE:;
#DIFFICULTY:Easy;
#METER:4;
#RADARVALUES:0.332204,0.350335,0.025185,0.117531,0.000000,277.000000,274.000000,3.000000,14.000000,0.000000,0.000000,0.000000,0.000000,0.000000,0.332204,0.350335,0.025185,0.117531,0.000000,277.000000,274.000000,3.000000,14.000000,0.000000,0.000000,0.000000,0.000000,0.000000;
#CREDIT:;
#NOTES:
0000
0000
0000
0000
,
0000
0000
0000
0001
,
0001
0100
0000
0000
1000
0000
1000
0000
,
0000
1000
0010
0000
0100
0000
0010
0000
,
1000
0001
0000
0000
0010
0000
0100
0000
,
0010
0000
0001
0100
0000
0000
1000
0000
,
0100
0001
0000
0000
1000
0000
0001
0000
,
0100
1000
0100
0010
,
0001
0000
0200
0000
0000
0000
0000
0300
,
1001
0010
1000
0010
,
0100
0001
0010
0100
,
1000
0100
0010
0001
,
0100
0010
0100
0001
,
1000
0100
0000
0010
,
0000
0001
0000
1000
,
0000
0010
0000
0000
,
0000
0000
0200
0000
,
0000
0301
1000
0100
,
0010
0001
0100
0010
,
0000
0001
0000
0001
,
1000
0020
0130
1000
,
0001
0010
0100
1000
,
0100
0001
0000
1000
,
0010
0001
0100
0010
,
1000
2000
3001
0002
,
0103
0200
0310
0100
,
0101
0010
0000
0010
,
0010
0001
0010
0010
,
0100
0001
0010
0001
,
0001
0100
0001
0001
,
0010
0000
0100
0000
0000
0001
0100
0000
,
0000
1000
0000
0001
0100
0000
0010
0000
,
0000
0001
0000
1000
0010
0000
0100
0000
,
0001
0010
0100
1000
,
0100
0000
0010
0001
0000
0100
0010
0000
,
0000
0100
0010
0000
0000
0002
0000
0003
,
1000
0200
1300
0100
,
1000
0100
0010
0001
,
0100
0000
1000
0100
0000
0010
0001
0000
,
0000
0010
1000
0000
0000
0010
0000
0100
,
0001
1000
0100
0001
,
1000
0000
0010
0000
0100
0001
0000
0000
,
1000
0000
0100
1000
0000
0001
0100
0000
,
0000
0010
0001
0000
0000
0100
0000
0001
,
1000
0000
0010
0100
0000
0001
1000
0000
,
0100
0020
0032
1003
,
0010
0000
0100
0000
0000
0001
1000
0000
,
0000
0010
0100
0000
0000
0002
0000
1003
,
0010
0100
0010
1000
,
0010
0000
0100
0000
0000
1000
0000
0001
,
1000
0000
0002
0000
0000
0000
0000
0003
,
0200
0000
0300
0001
,
1000
0010
1000
0001
,
1000
0000
0001
0000
0100
0000
0010
0100
,
0010
0100
0001
1000
,
0100
0010
0000
0000
0100
0000
1000
0000
,
0001
0100
1000
0001
,
0100
0000
0010
0000
1000
0000
0001
0100
,
0001
1000
0010
0100
,
1000
0001
0100
0000
1000
0000
0010
0000
,
0001
0100
0010
0000
0100
0000
0001
0000
,
1000
0000
0001
0100
0001
0000
1000
0000
,
0001
0000
0100
0000
0010
0000
0000
1000
,
0100
0000
0010
0000
0001
0000
0000
0100
,
0001
0000
1000
0000
0000
0001
0000
0000
,
1000
0000
0000
0100
0000
0000
0010
0000
,
1001
0001
1000
0100
,
1000
0010
0001
0010
,
1000
0100
0001
0100
,
1000
0100
0001
0010
,
1000
0100
0000
0010
,
0000
0001
0000
1000
,
0000
0010
0000
0000
,
0000
0000
0002
0000
,
0000
1003
0010
0100
,
0010
0100
0001
0000
0000
0100
0000
0010
;

//---------------dance-single - ----------------
#NOTEDATA:;
#CHARTNAME:;
#STEPSTYPE:dance-single;
#DESCRIPTION:;
#CHARTSTYLE:;
#DIFFICULTY:Beginner;
#METER:2;
#RADARVALUES:0.182292,0.222941,0.008395,0.109135,0.000000,152.000000,151.000000,1.000000,13.000000,0.000000,0.000000,0.000000,0.000000,0.000000,0.182292,0.222941,0.008395,0.109135,0.000000,152.000000,151.000000,1.000000,13.000000,0.000000,0.000000,0.000000,0.000000,0.000000;
#CREDIT:;
#NOTES:
0000
0000
0000
0000
,
0000
0000
0000
0001
,
0000
0000
1000
0000
,
0000
0010
0000
0010
,
0000
0000
0010
0000
,
0010
0000
0000
1000
,
0000
0000
1000
0000
,
0100
0000
0100
0000
,
0001
0100
0000
0000
,
1001
0010
0000
0010
,
0000
0001
0000
0100
,
0000
0100
0000
0001
,
0000
0010
0000
0001
,
0000
0100
0000
0010
,
0000
0001
0000
1000
,
0000
0010
0000
0000
,
0000
0000
0020
0000
,
0030
0001
0000
0100
,
0000
0001
0000
0010
,
0000
0001
0000
0001
,
0000
0010
0000
1000
,
0000
0010
0000
1000
,
0000
0001
0000
1000
,
0000
0001
0000
0010
,
0000
2000
3000
0002
,
0003
0200
0310
0000
,
0100
0010
0000
0010
,
0000
0001
0000
0010
,
0000
0001
0000
0001
,
0000
0100
0000
0001
,
0000
0100
0000
0100
,
0000
0000
0100
0010
,
0000
0000
0010
0000
,
0001
0000
0100
0000
,
0100
0000
0010
0000
,
0100
0000
0010
0000
0000
0002
0000
0003
,
1000
0200
0300
0100
,
0000
0100
0000
0001
,
0000
0000
0000
0100
0000
0000
0001
0000
,
0000
1000
0000
0000
,
0001
0000
0100
0000
,
1000
0000
0100
0000
,
1000
0100
0000
0100
,
0000
0001
0000
0000
,
1000
0000
0000
0100
0000
0000
1000
0000
,
0000
0020
0030
2000
,
3010
0000
0000
1000
,
0000
0010
0000
0000
0000
0002
0000
0003
,
0010
0000
0010
0000
,
0010
0000
0000
0000
0000
1000
0000
0001
,
0000
0000
0002
0000
0000
0000
0000
0003
,
2000
3000
0000
0001
,
0000
0010
0000
0001
,
0000
0001
0000
0010
,
0000
0100
0000
1000
,
0000
0010
0000
0000
0100
0000
0000
0000
,
0001
0000
1000
0000
,
0100
0000
1000
0000
,
0001
0000
0010
0000
,
1000
0000
1000
0000
,
0001
0000
0100
0000
,
1000
0000
0001
0000
,
0001
0000
0010
0000
,
0100
0000
0001
0000
,
0001
0000
1000
0000
0000
0001
0000
0000
,
1000
0000
0000
0100
0000
0000
0010
0000
,
0010
0001
0000
0100
,
0000
0010
0000
0010
,
0000
0100
0000
0100
,
0000
0100
0000
0010
,
0000
0100
0000
0010
,
0000
0001
0000
1000
,
0000
0010
0000
0000
,
0000
0000
0002
0000
,
0000
1003
0000
0100
,
0020
0000
1030
0100
0000
0000
0001
0010
;
