#VERSION:0.81;
#TITLE:ZADAMGA;
#SUBTITLE:;
#ARTIST:onoken;
#TITLETRANSLIT:;
#SUBTITLETRANSLIT:;
#ARTISTTRANSLIT:;
#GENRE:;
#ORIGIN:;
#CREDIT:;
#BANNER:ZADAMGA-bn.png;
#BACKGROUND:ZADAMGA-bg.png;
#PREVIEWVID:;
#JACKET:ZADAMGA-jacket.png;
#CDIMAGE:;
#DISCIMAGE:;
#LYRICSPATH:;
#CDTITLE:;
#MUSIC:ZADAMGA.mp3;
#OFFSET:0.000000;
#SAMPLESTART:43.479935;
#SAMPLELENGTH:12.000000;
#SELECTABLE:YES;
#BPMS:0.000=180.000;
#STOPS:;
#DELAYS:;
#WARPS:;
#TIMESIGNATURES:0.000=4=4;
#TICKCOUNTS:0.000=4;
#COMBOS:0.000=1;
#SPEEDS:0.000=1.000=0.000=0;
#SCROLLS:0.000=1.000;
#FAKES:;
#LABELS:0.000=Song Start;
#BGCHANGES:;
#KEYSOUNDS:;
#ATTACKS:
;

//---------------dance-single - ----------------
#NOTEDATA:;
#CHARTNAME:;
#STEPSTYPE:dance-single;
#DESCRIPTION:;
#CHARTSTYLE:;
#DIFFICULTY:Hard;
#METER:14;
#RADARVALUES:0.785005,0.847051,0.319944,0.327942,0.615892,606.000000,40.000000,41.000000,0.000000,0.000000,0.000000,0.000000,0.000000,0.785005,0.847051,0.319944,0.327942,0.615892,606.000000,40.000000,41.000000,0.000000,0.000000,0.000000,0.000000,0.000000;
#CREDIT:;
#NOTES:
0000
0000
0000
0001
,
0100
0010
1000
0001
,
0100
1000
0100
0001
,
0010
0100
0010
0001
,
1000
0100
1000
0010
,
0100
1000
0100
0001
,
1000
0100
0001
0100
,
1000
0010
1000
0001
,
0100
0000
0000
0000
0002
0000
0000
0000
1003
0000
0010
0100
0010
0000
0000
0000
,
1000
0000
0001
0010
0001
0000
0000
0000
0100
0000
0000
0000
0001
0100
0001
0000
,
1000
0010
1000
0000
0001
0000
0010
0000
0100
0000
1000
0000
0000
0000
0001
0010
,
0001
0000
0000
0000
0000
0000
1000
0000
0000
0100
0000
0000
1000
0000
0000
0000
0000
0000
0000
0000
0000
0000
0000
0000
0010
0000
0000
0000
0000
0000
0000
0000
0000
0000
0000
0000
1000
0000
0000
0000
0001
0000
0000
0000
1000
0000
0000
0000
,
0001
0000
1000
0000
0001
0000
1000
0000
0000
0020
0000
0000
0000
0000
0000
1030
0000
0000
0001
0000
0000
0000
0000
0000
,
1000
0000
0001
1000
0002
0000
0000
0000
0103
0000
0000
0000
0010
1000
0010
0000
,
1000
0001
1000
0000
0010
0000
1000
0000
0001
0000
0010
0000
0000
0000
0001
0100
,
0001
0000
1000
0010
1000
0000
0000
0000
0001
0000
0000
0000
1000
0000
0000
0000
,
0010
0100
0010
0100
0010
0000
0100
0000
1001
0000
0000
0000
0100
0000
0010
0000
,
0100
0001
1000
0100
1000
0001
0100
0010
,
0100
0001
0100
0010
0100
1000
0100
0010
0100
0001
0010
0100
,
1100
0000
1000
0001
1001
0000
0100
0000
,
0010
0000
0100
0010
0101
0000
0010
1000
,
0001
1000
0100
0010
0100
0110
0010
0001
,
1000
0010
1000
0001
0100
0001
1000
0010
1000
0200
0000
0000
,
0310
0000
0011
0000
0001
0100
0101
0000
,
0110
0000
0100
0010
1010
0000
1001
0000
,
0110
0000
0001
0100
0110
0000
0010
0000
,
1010
0000
1000
0001
0101
0000
0100
0000
,
0110
0000
0010
1000
1100
0000
0100
0000
,
0110
0000
0010
0001
1000
0010
1000
0001
,
0101
0000
1000
0001
0010
0100
0010
0001
,
1100
0000
0100
0010
0001
0010
0100
1000
,
1010
0000
0010
1000
0001
0010
0001
0100
,
1001
0000
0000
0000
0001
0000
1000
0000
0001
0000
0100
0010
0100
0000
0000
0000
,
0001
0000
1000
0100
1000
0000
0000
0000
0010
0000
0000
0000
1000
0010
1000
0000
,
0001
0100
0001
0000
1000
0000
0100
0000
0010
0000
0001
0000
0000
0000
1000
0100
,
1000
0000
0000
0000
0000
0000
0001
0000
0000
0010
0000
0000
0001
0000
0000
0000
0000
0000
0000
0000
0000
0000
0000
0000
0100
0000
0000
0000
0000
0000
0000
0000
0000
0000
0000
0000
0001
0000
0000
0000
1000
0000
0000
0000
0001
0000
0000
0000
,
1000
0000
0001
0000
1000
0000
0001
0000
0000
0200
0000
0000
0000
0000
0000
0301
0000
0000
1000
0000
0000
0000
0000
0000
,
0001
0000
1000
0001
2000
0000
0000
0000
3010
0000
0000
0000
0100
0001
0100
0000
,
0001
1000
0001
0000
0100
0000
0001
0000
1000
0000
0100
0000
0000
0000
1000
0010
,
1000
0000
0001
0100
0001
0000
0000
0000
1000
0000
0000
0000
0001
0000
0000
0000
,
0100
0010
0100
0010
0100
0000
0010
0000
1001
0000
0000
0000
1000
0000
0000
0010
,
0000
0000
0100
0000
0001
0000
0000
1000
0000
0000
0100
0000
0010
0000
0000
0001
,
0000
0000
1000
0000
1001
0000
0000
0010
0000
0000
0100
0000
0001
0000
0000
1000
,
0000
0000
0010
0000
1000
0000
0000
0100
0000
0000
0010
0000
0001
0000
0000
0100
,
0000
0000
0010
0000
0101
0000
0000
0010
0000
0000
1000
0000
0010
0000
0000
0100
,
0000
0000
0001
0000
1000
0000
0000
0010
0000
0000
1000
0000
0100
0000
0000
0010
,
0000
0000
0001
0000
1100
0000
0000
1000
0000
0000
0100
0000
0001
0000
0000
1000
,
0000
0000
0010
0000
0001
0000
0000
0100
0000
0000
0010
0000
0100
0000
0000
0001
,
0000
0000
1000
0000
0010
0000
1000
0000
1001
0000
0000
0100
0001
0000
0000
0001
,
0010
0000
0000
0010
0100
0000
0000
0100
1000
0000
0000
1000
0001
0000
0000
0001
,
0100
0000
0000
0100
0010
0000
0000
0010
1000
0000
0000
1000
0001
0000
0000
0001
,
0010
0000
0000
0010
0100
0000
0000
0100
1000
0000
0000
1000
0001
0000
0000
0001
,
0100
0000
0000
0000
0000
0000
0000
0000
0000
0100
0000
0000
1000
0000
0000
0000
0000
0000
0000
0000
0000
1000
0000
0000
0100
0000
0000
0000
0000
0000
0000
0000
0000
0100
0000
0000
0010
0000
0000
0000
1000
0000
0000
0000
0001
0000
0000
0000
,
1000
0001
1000
0010
0100
0010
0100
0010
0100
0001
1000
0001
,
1000
0001
1000
0100
0010
0100
0010
0100
0010
0001
1000
0001
,
1000
0001
1000
0010
0100
0010
0100
0010
0100
0001
0010
0100
,
1000
0000
0001
0000
0010
0000
0100
0000
1000
0000
0001
0000
2000
0000
0000
3000
0000
0000
2002
0000
0000
0000
0000
0000
,
0000
3003
0220
0000
0330
0000
2001
0000
,
3020
0230
0300
1001
,
0100
0010
1000
0001
,
0010
0000
0000
0000
0100
1000
0100
1000
0100
1000
0100
1000
0002
0000
0000
0000
,
0003
0202
0303
1010
,
0200
0000
0000
0000
0320
0000
0000
0000
0030
0000
0000
0000
1000
0001
1000
0001
,
1000
0000
0000
0000
0010
0100
0010
0100
0010
0000
0000
0000
1000
0100
1000
0100
,
1000
0000
0000
0000
0001
0010
0001
0010
0001
0000
0000
0000
1001
0000
0000
0000
,
0100
1001
1000
0110
,
1000
0000
0110
0000
0001
0000
1000
1000
,
0001
0000
0001
0000
1000
0000
1000
0000
0001
0000
0001
0000
0100
0010
0100
0010
,
0100
0010
0100
0010
0100
0010
2000
0002
0000
0000
3003
0000
1001
0000
0100
0010
,
0100
0001
1000
0010
0100
0001
0010
0010
,
0100
0000
0100
0000
1000
0000
1000
0000
0010
0000
0100
0000
0001
0010
0001
0000
,
1000
0000
0000
0000
0000
0000
1000
0000
0000
0000
0000
0000
0100
0000
0000
0010
0000
0000
0100
0000
0000
0000
0000
0000
0010
0000
0000
0000
0000
0000
0010
0000
0000
0000
0000
0000
0001
0000
0000
0000
1000
0000
0000
0000
0010
0000
0000
0000
,
1000
0000
0000
0000
0010
0000
0000
0000
1000
0000
0000
0000
0001
0000
0000
0000
0000
0000
0200
0000
0000
0000
0000
0000
0000
0000
0000
0000
0000
0000
0320
0000
0000
0000
0000
0000
0000
0000
0000
0000
0000
0000
1030
0000
0000
0001
0000
0000
,
1000
0100
1000
0001
0100
0010
1000
1000
,
0001
0001
0100
0100
0010
1000
0002
0000
,
2003
3020
0230
0302
,
1003
0010
1000
0010
0200
0000
0000
0000
0000
0000
0300
0000
0110
0000
0000
0000
,
1000
0000
0010
0100
0001
0000
0000
0000
1000
0000
0000
0000
0001
0100
0010
0000
,
1000
0010
0100
0000
0001
0000
0010
0000
0100
0000
1000
0000
0000
0000
0001
0010
,
0100
0000
0000
0000
0000
0000
1000
0000
0000
0100
0000
0000
0010
0000
0000
0000
0000
0000
0000
0000
0000
0000
0000
0000
0001
0000
0000
0000
0000
0000
0000
0000
0000
0000
0000
0000
0100
0000
0000
0000
0010
0000
0000
0000
0100
0000
0000
0000
,
0010
0000
0100
0000
0010
0000
0100
0000
0000
0002
0000
0000
0000
0000
0000
1003
0000
0000
0010
0000
0000
0000
0000
0000
,
0100
0000
0001
1000
0020
0000
0000
0000
0130
0000
0000
0000
0001
1000
0010
0000
,
1000
0001
0100
0000
0010
0000
1000
0000
0100
0000
0010
0000
0000
0000
0001
0010
,
0100
0000
1000
0010
0100
0000
0000
0000
0001
0000
0000
0000
1000
0000
0000
0000
,
0010
1000
0001
1000
0010
0000
0100
0000
1001
0000
0000
0000
0120
0000
0000
0000
,
0000
0230
0000
0320
,
2030
3002
0000
0023
,
0230
2300
3002
0023
,
0130
0100
0000
0000
;

//---------------dance-single - ----------------
#NOTEDATA:;
#CHARTNAME:;
#STEPSTYPE:dance-single;
#DESCRIPTION:;
#CHARTSTYLE:;
#DIFFICULTY:Challenge;
#METER:17;
#RADARVALUES:0.983827,0.952932,0.295948,0.359937,1.000000,779.000000,37.000000,45.000000,0.000000,0.000000,0.000000,0.000000,0.000000,0.983827,0.952932,0.295948,0.359937,1.000000,779.000000,37.000000,45.000000,0.000000,0.000000,0.000000,0.000000,0.000000;
#CREDIT:;
#NOTES:
0000
0000
0000
0001
,
1000
0001
0010
0100
,
1000
0100
0010
0001
,
0100
1000
0100
0001
,
1000
0010
0100
0001
,
0100
0001
1000
0010
,
1000
0100
0001
0100
,
1000
0010
0100
0001
,
1000
0000
0000
0000
0020
0000
0000
0000
0130
0001
0100
0001
1000
0000
0000
0000
,
0001
1000
0001
1000
0010
0000
0000
0000
0100
0000
0000
0000
0001
1000
0001
0010
,
0100
0010
0001
0000
0010
0000
0100
0000
1000
0000
0001
0000
0000
0000
1000
0001
,
1000
0000
0000
0010
0000
0000
0100
0000
0000
0010
0000
0000
0100
0000
0000
0000
0000
0000
0000
0000
0000
0000
0000
0000
0010
0000
0000
0000
0000
0000
0000
0000
0000
0000
0000
0000
0100
0000
0000
0000
0001
0000
0000
0000
1000
0000
0000
0000
,
0001
0000
0100
0000
0010
0000
1000
0000
0000
0020
0000
0000
0000
0000
0000
0130
0000
0000
0001
0000
0000
0000
0000
0000
,
1000
0001
1000
0010
0200
0000
0000
0000
0301
0000
0000
0000
1000
0100
0010
0001
,
1000
0100
0010
0000
0001
0000
0100
0000
0010
0000
0100
0000
0000
0000
0001
0100
,
0010
0000
0000
0100
0000
0000
0001
0000
0000
1000
0000
0000
0001
0000
0000
0000
0000
0000
0000
0000
0000
0000
0000
0000
0100
0000
0000
0000
0000
0000
0000
0000
0000
0000
0000
0000
0001
0000
0000
0000
0100
0000
0000
0000
0010
0000
0000
0000
,
1000
0001
0100
0001
0100
0000
0010
0000
0110
0000
0000
0000
0100
0000
0010
0000
,
0100
0001
1000
0100
1000
0001
0100
0010
,
0100
0001
1000
0010
0100
0001
0010
0100
1000
0010
0100
1000
,
0100
0010
1000
0001
0010
0001
1000
0100
1000
0100
0001
0100
,
0010
0000
0001
0000
0100
0000
1000
0000
0100
0000
0010
0000
1000
0000
0001
0000
0100
0000
0010
0000
0000
1000
0000
0000
,
0001
1000
0100
0010
0100
1100
1000
0001
,
0100
0010
1000
0100
1000
0001
0010
0001
1000
0200
0000
0000
,
0320
0030
2001
0000
3010
0100
0101
0000
,
1010
0000
0001
1000
1100
0000
0110
0000
,
1001
0000
0001
0100
0110
0000
0010
0000
,
1010
0000
1000
0001
0101
0000
0100
0000
,
0110
0000
0010
1000
1100
0000
0100
0000
,
0110
0000
0000
0000
0010
0000
0001
0000
1000
0001
1000
0100
0010
0100
1000
0100
,
0010
0000
0000
0000
0001
1000
0001
1000
0010
0100
0010
1000
0010
0100
0001
1000
,
0001
0000
0000
0000
0100
0001
0100
0010
1000
0100
0010
0001
1000
0100
1000
0001
,
0100
0000
0000
0000
0001
0100
0001
1000
0010
0100
1000
0100
0001
1000
0100
0010
,
0001
0000
0000
0000
0001
0010
0100
1000
0100
0010
0001
1000
0020
0000
0000
0000
,
1030
0001
1000
0001
0100
0000
0000
0000
0010
0000
0000
0000
1000
0001
1000
0100
,
0010
0100
1000
0000
0100
0000
0010
0000
0001
0000
1000
0000
0000
0000
0001
1000
,
0001
0000
0000
0100
0000
0000
0010
0000
0000
0100
0000
0000
0010
0000
0000
0000
0000
0000
0000
0000
0000
0000
0000
0000
0100
0000
0000
0000
0000
0000
0000
0000
0000
0000
0000
0000
0010
0000
0000
0000
1000
0000
0000
0000
0001
0000
0000
0000
,
1000
0000
0010
0000
0100
0000
0001
0000
0000
0200
0000
0000
0000
0000
0000
0310
0000
0000
1000
0000
0000
0000
0000
0000
,
0001
1000
0001
0100
0020
0000
0000
0000
1030
0000
0000
0000
0001
0010
0100
1000
,
0001
0010
0100
0000
1000
0000
0010
0000
0100
0000
0010
0000
0000
0000
1000
0010
,
0100
0000
0000
0010
0000
0000
1000
0000
0000
0001
0000
0000
1000
0000
0000
0000
0000
0000
0000
0000
0000
0000
0000
0000
0010
0000
0000
0000
0000
0000
0000
0000
0000
0000
0000
0000
1000
0000
0000
0000
0010
0000
0000
0000
0100
0000
0000
0000
,
0001
1000
0010
1000
0010
0000
0100
0000
0110
0000
0000
0000
0001
0000
1000
0100
,
0000
1000
0010
0000
0100
0000
0001
0100
0000
0010
1000
0000
0100
0000
0010
0001
,
0000
0100
0010
0000
1001
0000
1000
0010
0000
0100
0001
0000
0010
0000
0100
1000
,
0000
0100
0010
0000
0001
0000
1000
0010
0000
1000
0001
0000
0100
0000
0001
1000
,
0000
0100
0010
0000
0011
0000
0001
1000
0000
0100
1000
0000
0010
0000
0100
0001
,
0000
0010
0100
0000
1000
0000
0001
0010
0000
0001
0100
0000
0010
0000
1000
0010
,
0000
0100
0001
0000
0101
0000
0100
0010
0000
1000
0010
0000
1000
0000
0001
0100
,
0000
0010
1000
0000
0100
0000
0010
0001
0000
0010
0100
0000
1000
0000
0001
0100
,
0000
0001
0010
0000
0001
0000
1000
0000
1001
0000
0000
0100
0010
0000
0000
0010
,
0100
0000
0000
0100
0010
0000
0000
0010
1000
0000
0000
1000
0100
0000
0000
0100
,
0010
0000
0000
0010
0001
0000
0000
0001
0010
0000
0000
0010
1000
0000
0000
1000
,
0010
0000
0000
0010
0001
0000
0000
0001
1000
0000
0000
1000
0010
0000
0000
0010
,
0100
0000
0000
0000
0000
0000
0000
0000
0000
0100
0000
0000
0010
0000
0000
0000
0000
0000
0000
0000
0000
0010
0000
0000
1000
0000
0000
0000
0000
0000
0000
0000
0000
1000
0000
0000
0001
0000
0000
0000
0010
0000
0000
0000
0100
0000
0000
0000
,
1000
0001
0010
0100
1000
0010
0100
1000
0100
0001
1000
0010
,
0001
1000
0100
0001
0010
0001
1000
0001
0010
0100
1000
0010
,
0100
1000
0001
0010
1000
0100
0001
0100
1000
0001
0010
0010
,
0100
0000
0000
0000
1000
0000
0000
0000
1000
0000
0000
0000
0001
0000
0000
0000
0100
0000
0000
0000
0100
0000
0000
0000
0020
0000
0000
0000
0000
0000
0000
0000
0000
0030
0000
0000
2002
0000
0000
0000
0000
0000
0000
0000
0000
0000
0000
0000
,
0000
0000
3003
0000
0020
0100
0031
1000
0010
0000
0000
0000
0200
0010
1300
0001
,
0100
0000
0000
0000
0002
0010
0103
1000
0001
0000
0000
0000
2000
0100
3010
0100
,
1000
0000
0000
0000
0002
0100
0013
0100
0010
0000
0000
0000
0200
0001
0310
0100
,
1000
0000
0000
0000
0001
1000
0001
1000
0001
1000
0001
1000
0020
0100
0031
1000
,
0010
0000
0000
0000
2000
0100
3010
0001
0010
0000
0000
0000
0002
0010
0103
1000
,
0010
0000
0000
0000
0200
1000
0301
0010
1000
0000
0000
0000
0002
0010
1003
0001
,
0100
0000
0000
0000
0020
1000
0031
0100
1000
0000
0000
0000
0002
0100
1003
0001
,
0010
0000
0000
0000
0200
0010
0301
1000
0100
0000
0000
0000
0201
0000
0000
0000
,
0310
2010
3100
0120
,
0031
0000
2001
0000
3100
0000
0110
0010
,
0001
0000
0001
0000
1000
0000
1000
0000
0010
0000
0010
0000
0100
0001
1000
0001
,
1000
0010
0100
0010
0100
0001
0010
0100
1000
0000
0010
0000
1001
0000
1000
0010
,
0100
0000
0010
1000
0001
0000
0010
0100
1000
0000
0010
0000
0100
0001
0100
0000
,
0001
0000
0000
0000
0000
0000
0001
0000
0000
0000
0000
0000
1000
0000
0000
0010
0000
0000
1000
0000
0000
0100
0000
0000
0010
0000
0000
0100
0000
0000
1000
0000
0000
0001
0000
0000
0100
0000
0000
0000
0010
0000
0000
0000
1000
0000
0000
0000
,
0010
0001
1000
0100
0001
0100
1000
0100
0001
0010
0001
0100
,
1000
0000
0000
0000
0100
0000
0000
0000
0001
0000
0000
0000
1000
0000
0000
0000
0000
0000
0200
0000
0000
0000
0000
0000
0000
0000
0000
0000
0000
0000
0310
0000
0000
0001
0000
0000
0010
0000
0000
0000
0000
0000
0100
0000
0000
1000
0000
0000
,
0001
0000
0100
0010
1000
0000
0001
0100
0001
0000
0100
0000
0010
1000
0010
0000
,
0100
0000
0000
0000
0000
0000
0100
0000
0000
0000
0000
0000
0001
0000
0000
1000
0000
0000
0001
0000
0000
0000
0000
0000
0100
0000
0000
0000
0000
0000
0010
0000
0000
0000
0000
0000
1000
0000
0000
0000
0001
0000
0000
0000
0100
0000
0000
0000
,
1000
0001
0010
0100
0010
1000
0001
0010
1000
0001
0100
0010
,
0001
1000
0100
1000
0020
0000
0000
0000
0000
0000
0030
0000
0110
0000
0000
0000
,
1000
0010
0001
0010
1000
0000
0000
0000
0010
1000
0010
0100
0001
0010
0100
1000
,
0001
0100
0010
0000
1001
0000
0110
0000
0101
0000
1010
0000
0010
0000
1000
0100
,
0010
0000
0000
0100
0000
0000
1000
0000
0000
0001
0000
0000
0100
0000
0000
0000
0000
0000
0010
0000
0000
0000
0000
0000
0100
0000
0000
0001
0000
0000
1000
0000
0000
0001
0000
0000
0100
0000
0000
0000
0010
0000
0000
0000
0100
0000
0000
0000
,
1000
0000
0000
0000
0100
0000
0000
0000
0001
0000
0000
0000
1000
0000
0000
0000
0000
0000
0002
0000
0000
0000
0000
0000
0000
0000
0000
0000
0000
0000
1003
0000
0000
0000
0000
0000
0001
0000
0000
0100
0000
0000
0001
0000
0000
1000
0000
0000
,
0010
1000
0001
0010
0200
0000
0000
0000
1300
0010
0100
0001
1000
0100
0010
0001
,
1000
0010
0100
0000
0101
0000
1010
0000
1100
0000
0110
0000
0010
0000
0001
0010
,
0100
0000
0000
0010
0000
0000
0001
0000
0000
1000
0000
0000
0100
0000
0000
0000
0000
0000
1000
0000
0000
0000
0000
0000
0001
0000
0000
1000
0000
0000
0010
0000
0000
1000
0000
0000
0001
0000
0000
0000
0100
0000
0000
0000
0010
0000
0000
0000
,
1000
0001
0100
0001
1000
0000
0010
0000
0110
0000
0000
0000
2002
0000
0000
0000
,
0000
3003
0200
0000
0000
0000
0302
0000
,
2003
3020
0000
2030
,
3200
0320
0032
0023
,
0130
0100
0000
0000
;

//---------------dance-single - ----------------
#NOTEDATA:;
#CHARTNAME:;
#STEPSTYPE:dance-single;
#DESCRIPTION:;
#CHARTSTYLE:;
#DIFFICULTY:Medium;
#METER:12;
#RADARVALUES:0.597609,0.564701,0.215962,0.439923,0.000000,441.000000,27.000000,55.000000,0.000000,0.000000,0.000000,0.000000,0.000000,0.597609,0.564701,0.215962,0.439923,0.000000,441.000000,27.000000,55.000000,0.000000,0.000000,0.000000,0.000000,0.000000;
#CREDIT:;
#NOTES:
0000
0000
0000
0001
,
0100
0010
1000
0001
,
0100
1000
0100
0001
,
0010
0100
0010
0001
,
1000
0100
1000
0010
,
0100
1000
0100
0001
,
1000
0100
0001
0100
,
1000
0010
1000
0001
,
0100
0000
0020
0000
1030
0001
1000
0000
,
0001
0100
0001
0000
1000
0000
0001
0010
,
0001
1000
0010
1000
0001
0100
0000
0010
,
1000
0100
1000
0000
0001
0000
0020
0000
,
0230
0000
1300
0002
0000
0103
0010
0000
,
1000
0001
1000
0000
0010
0000
0100
0001
,
0100
0010
1000
0010
0100
0001
0000
0010
,
0100
1000
0100
0000
0010
0000
0001
0000
,
1000
0010
0100
0100
1001
0000
0100
0010
,
0100
0000
0001
1000
0001
0000
0100
0010
,
2000
3002
0203
0310
,
1001
0000
0100
0001
0100
0000
0010
0000
,
1000
0000
0100
0010
0001
0000
0010
0100
,
1000
0100
0010
0001
1000
0010
0010
0100
,
0002
2003
3020
0230
,
0310
0000
0110
0000
0100
0001
1000
0000
,
1010
0000
0100
0001
0010
0000
0011
0000
,
1001
0000
1000
0010
0100
0000
0001
0000
,
0101
0000
0100
0010
1000
0000
0010
0000
,
1010
0000
1000
0001
0010
0000
0100
0000
,
0110
0000
0010
0001
0010
0000
0100
1000
,
0001
0000
1000
0001
1000
0000
0010
1000
,
0100
0000
1000
0001
1000
0000
0001
1000
,
0010
0000
0100
0001
0100
0000
0001
1000
,
0010
0000
1000
0001
1000
0001
0110
0000
,
1000
0010
1000
0000
0001
0000
1000
0100
,
1000
0001
0100
0001
1000
0010
0000
0100
,
0001
0010
0001
0000
1000
0000
0200
0000
,
0320
0000
0031
2000
0000
3010
0100
0000
,
0001
1000
0001
0000
0100
0000
0010
1000
,
0010
0100
0001
0100
0010
1000
0000
0100
,
0010
0001
0010
0000
0100
0000
1000
0000
,
0001
0100
0010
0010
1001
0000
0010
0000
,
0000
1000
0001
0000
0000
0100
0010
0000
,
0000
1000
1010
0000
0000
0100
0001
0000
,
0000
0010
0100
0000
0000
1000
0001
0000
,
0000
0010
0011
0000
0000
0001
1000
0000
,
0000
0010
0100
0000
0000
0001
0100
0000
,
0000
0010
0110
0000
0000
0100
0010
0000
,
0000
1000
0100
0000
0000
0010
0001
0000
,
0000
0001
1000
0001
1001
0000
0100
0000
,
0010
0100
0001
1000
,
0001
0010
0001
1000
,
0100
1000
0010
0100
,
0010
1000
0001
0200
,
0302
2003
3200
0320
,
0032
2003
3020
0230
,
0302
0023
0230
2300
,
3002
0000
0103
0010
0200
0300
2002
0000
,
0000
3003
2020
0000
3030
0000
0101
0000
,
0010
0200
0300
1001
,
0100
0001
0010
0100
,
1000
0000
0010
1000
0001
1000
0200
0000
,
0300
0022
0033
1001
,
0100
0000
0020
0000
0030
0000
1000
0001
,
0100
0000
0100
0001
0010
0000
0010
0100
,
1000
0000
1000
0001
0100
0000
0101
0000
,
0100
0110
0100
0101
,
0100
0000
0110
0000
0100
0000
0001
0010
,
0001
1000
0100
1000
0010
0100
0001
1000
,
0010
0100
0010
0200
0000
0300
0001
1000
,
1000
0000
0001
0100
0001
0000
0010
0100
,
0100
0000
1000
0010
1000
0000
0001
0010
,
0010
0000
0001
1000
0010
0100
0010
1000
,
0001
1000
0010
0200
0000
0320
0000
1030
,
0001
0100
0100
0000
0010
1000
0010
0000
,
0100
0001
0001
0000
1000
0010
0200
0000
,
0302
2003
3020
0230
,
0301
1000
0002
0000
0000
0003
1001
0000
,
0010
0100
0010
0000
1000
0000
0001
0100
,
0100
0010
1000
0001
0001
0100
0000
0010
,
1000
0100
0100
0000
0010
0000
0002
0000
,
2003
0000
3010
0020
0000
0130
0001
0000
,
1000
0001
1000
0000
0010
0000
0100
0001
,
0001
1000
0010
0100
0100
0001
0000
0100
,
0010
1000
1000
0000
0001
0000
0100
0000
,
0001
1000
0010
0010
1001
0000
0002
0000
,
0000
2003
0000
3002
,
0023
0032
0000
0103
,
0010
1000
0001
0100
,
0010
0010
0000
0000
;

//---------------dance-single - ----------------
#NOTEDATA:;
#CHARTNAME:;
#STEPSTYPE:dance-single;
#DESCRIPTION:;
#CHARTSTYLE:;
#DIFFICULTY:Easy;
#METER:4;
#RADARVALUES:0.410214,0.564701,0.095983,0.391931,0.000000,298.000000,12.000000,49.000000,0.000000,0.000000,0.000000,0.000000,0.000000,0.410214,0.564701,0.095983,0.391931,0.000000,298.000000,12.000000,49.000000,0.000000,0.000000,0.000000,0.000000,0.000000;
#CREDIT:;
#NOTES:
0000
0000
0000
0001
,
0000
0010
0000
0001
,
0000
1000
0000
0001
,
0000
0100
0000
0001
,
0000
0100
0000
0010
,
0000
1000
0000
0001
,
0000
0100
0000
0100
,
0000
0010
0000
0001
,
0000
0002
1003
1000
,
0010
0100
0001
1000
,
0001
0100
0001
0000
,
1000
1000
0001
2000
,
3020
0000
0130
0100
0000
0000
0001
0000
,
1000
0001
0010
0001
,
1000
0100
1000
0000
,
0010
0100
0010
0100
,
0001
0000
1000
1000
1000
0000
0001
0000
,
0100
0010
1000
0001
,
0200
0320
2030
3001
,
1001
0000
0000
0100
0100
0000
0010
0000
,
1000
0000
0001
0001
0100
0000
0010
0000
,
1000
0000
0010
0000
0100
0100
0000
0000
,
0002
2003
3020
0230
,
0310
0000
1001
0000
0000
1000
1000
0000
,
1100
0000
0000
0001
0001
0000
0101
0000
,
0200
0310
1000
0001
,
0100
0010
1000
0001
,
0100
0010
0100
1000
,
0100
0010
0001
1000
,
0010
0100
0001
1000
,
0010
1000
0001
0100
,
0010
1000
0100
0010
,
0001
2000
0000
3001
,
0100
0010
1000
0001
,
1000
0010
1000
0000
,
0001
0001
1000
0002
,
0203
0000
0310
0010
0000
0000
1000
0000
,
0001
1000
0100
1000
,
0001
0010
0001
0000
,
0100
0010
0100
0010
,
1000
0000
0001
0001
0001
0000
0100
0000
,
0000
0010
0000
1000
,
0000
1001
0000
0010
,
0000
1000
0000
0001
,
0000
0101
0000
0100
,
0000
0010
0000
1000
,
0000
1001
0000
0001
,
0000
0100
0000
0001
,
0000
0100
0110
0010
,
0100
0010
1000
0001
,
1000
0100
1000
0001
,
0010
0001
0100
0010
,
0100
0001
1000
0020
,
2030
3002
0023
0230
,
2300
3002
0203
0320
,
2030
3200
0320
0032
,
2003
3020
0130
0200
,
0000
0320
0000
2030
,
3002
0203
0000
0301
,
1000
0001
0010
0100
,
1000
0020
0000
2030
,
0000
3200
0000
0320
,
0032
1003
0000
0001
,
0000
0100
0000
0010
,
0000
1000
0000
1001
,
0000
1010
0000
0110
,
0000
0101
0000
0001
,
1000
0001
0010
0100
,
1000
0002
0103
0000
,
0100
0001
1000
0001
,
0100
0010
0100
0001
,
1000
0100
0010
0100
,
1000
0000
0010
0020
0000
0130
0000
0000
,
0010
1000
0001
0010
,
0100
1000
0001
0100
,
0010
1000
0100
0010
,
0001
2000
0000
3001
,
0001
0100
0010
1000
,
0001
0100
0001
0000
,
0100
0100
0001
2000
,
3020
0000
0130
0100
0000
0000
0001
0000
,
1000
0001
0010
0001
,
1000
0100
1000
0000
,
0010
0100
0010
0100
,
0001
0000
0010
0010
0010
0000
0002
0000
,
0000
2003
0000
3002
,
0203
0302
0000
0013
,
0100
1000
0001
1000
,
0001
0001
0000
0000
;

//---------------dance-single - ----------------
#NOTEDATA:;
#CHARTNAME:;
#STEPSTYPE:dance-single;
#DESCRIPTION:;
#CHARTSTYLE:;
#DIFFICULTY:Beginner;
#METER:2;
#RADARVALUES:0.236530,0.317644,0.047992,0.159972,0.000000,181.000000,6.000000,20.000000,0.000000,0.000000,0.000000,0.000000,0.000000,0.236530,0.317644,0.047992,0.159972,0.000000,181.000000,6.000000,20.000000,0.000000,0.000000,0.000000,0.000000,0.000000;
#CREDIT:;
#NOTES:
// measure 0
0000
0000
0000
0000
,  // measure 1
0000
0000
0000
0000
,  // measure 2
0000
0000
0000
0000
,  // measure 3
0000
0000
0000
0000
,  // measure 4
0000
0000
0000
0000
,  // measure 5
0000
0000
0000
0000
,  // measure 6
0000
0000
0000
0000
,  // measure 7
0000
0000
0000
0000
,  // measure 8
0000
0200
0310
0000
,  // measure 9
0100
0000
1000
0000
,  // measure 10
1000
0000
1000
0000
,  // measure 11
0001
0000
1000
0001
,  // measure 12
0000
0000
0100
0100
0000
0000
1000
0000
,  // measure 13
0000
1000
0000
1000
,  // measure 14
0000
0010
0000
0000
,  // measure 15
0100
0000
0100
0000
,  // measure 16
1000
0020
0130
1000
,  // measure 17
0000
0100
0000
1000
,  // measure 18
0000
0100
0000
0001
,  // measure 19
1001
0000
0010
0000
,  // measure 20
0001
0000
0010
0000
,  // measure 21
1000
0000
0010
0000
,  // measure 22
1000
0000
0001
0000
,  // measure 23
0100
1001
0000
0001
,  // measure 24
0001
0000
1000
1000
,  // measure 25
0020
0130
0000
1000
,  // measure 26
0000
0001
0000
1000
,  // measure 27
0000
0010
0000
1000
,  // measure 28
0000
0010
0000
0100
,  // measure 29
0000
0010
0000
1000
,  // measure 30
0000
0001
0000
0100
,  // measure 31
0000
0010
0000
1000
,  // measure 32
0000
0002
0000
1003
,  // measure 33
0010
0000
1000
0000
,  // measure 34
0001
0000
0100
0000
,  // measure 35
0010
0000
1000
0001
,  // measure 36
0000
0000
1000
1000
0000
0000
0001
0000
,  // measure 37
0000
0100
0000
0001
,  // measure 38
0000
0100
0000
0000
,  // measure 39
0010
0000
1000
0000
,  // measure 40
0001
0200
0310
1000
,  // measure 41
0000
0010
0000
1000
,  // measure 42
0000
1001
0000
0100
,  // measure 43
0000
0001
0000
1000
,  // measure 44
0000
1001
0000
0010
,  // measure 45
0000
0100
0000
0001
,  // measure 46
0000
1001
0000
1000
,  // measure 47
0000
0010
0000
1000
,  // measure 48
0000
0010
1001
0100
,  // measure 49
0000
0001
0000
1000
,  // measure 50
0000
0001
0000
0100
,  // measure 51
0000
0001
0000
0010
,  // measure 52
0000
0100
0000
0100
,  // measure 53
0000
1000
0000
1000
,  // measure 54
0000
0001
0000
0001
,  // measure 55
0000
0100
0000
0100
,  // measure 56
0000
0010
0100
0002
,  // measure 57
0000
2003
0000
3020
,  // measure 58
0000
0230
0000
0301
,  // measure 59
0000
1000
0000
0010
,  // measure 60
0000
2000
0000
3002
,  // measure 61
0000
0023
0000
0230
,  // measure 62
0000
2300
0000
3001
,  // measure 63
0000
0010
0000
0100
,  // measure 64
0000
0010
0000
0001
,  // measure 65
0000
1000
0000
0010
,  // measure 66
0000
0100
0000
0010
,  // measure 67
0000
1000
0000
0001
,  // measure 68
0000
2000
3010
0000
,  // measure 69
0010
0000
0001
0000
,  // measure 70
0010
0000
0010
0000
,  // measure 71
0001
0000
0100
0000
,  // measure 72
0001
0000
0000
0100
0000
0010
0000
0000
,  // measure 73
1000
0000
0001
0000
,  // measure 74
0100
0000
1000
0000
,  // measure 75
0100
0000
0001
0000
,  // measure 76
1000
0002
0000
1003
,  // measure 77
0100
0000
1000
0000
,  // measure 78
1000
0000
1000
0000
,  // measure 79
0001
0000
1000
0001
,  // measure 80
0000
0000
0100
0100
0000
0000
1000
0000
,  // measure 81
0000
1000
0000
1000
,  // measure 82
0000
0010
0000
0000
,  // measure 83
0100
0000
0100
0000
,  // measure 84
1000
0020
0130
2000
,  // measure 85
0000
3002
0000
0103
,  // measure 86
0100
0200
0000
0310
,  // measure 87
1000
0001
1000
0001
,  // measure 88
0100
0100
0000
0000
;
