#TITLE:Xepher Light and Darkness Dragon REMIX;
#SUBTITLE:;
#ARTIST:Deadball-P;
#TITLETRANSLIT:;
#SUBTITLETRANSLIT:;
#ARTISTTRANSLIT:;
#CREDIT:;
#BANNER:Xepher Light and Darkness Dragon Remix-bn.png;
#BACKGROUND:;
#LYRICSPATH:;
#CDTITLE:;
#MUSIC:Xepher Light and Darkness Dragon REMIX.mp3;
#OFFSET:0.040;
#SAMPLESTART:86.360;
#SAMPLELENGTH:12.000;
#SELECTABLE:YES;
#BPMS:0.000=180.001;
#STOPS:144.000=1.000
;
#BGCHANGES:;

//---------------dance-single - ----------------
#NOTES:
     dance-single:
     :
     Challenge:
     18:
     1.000,1.000,0.355,0.319,1.000:
0000
0000
0000
0000
,
0000
0000
1002
0000
,
1003
0000
0010
0100
0001
0010
0100
1000
0100
0010
0001
0010
0100
1000
0010
0100
,
0001
0000
0000
0000
2002
0000
0000
3003
,
0220
0000
0000
0330
0202
0000
0000
0303
,
1010
0000
0000
0000
0000
0000
0000
0000
0000
0000
0000
0000
0100
0000
0000
0001
0000
0000
0010
0000
0000
0100
0000
0000
1000
0000
0000
0000
0100
0000
0000
0000
0010
0000
0000
0000
0001
0000
0000
0000
1000
0000
0000
0000
0010
0000
0000
0000
,
0100
0000
0000
0000
1000
0000
0000
0000
0100
0000
0000
0000
0001
0000
0000
0010
0000
0000
0100
0000
0000
1000
0000
0000
0001
0000
0000
0000
1000
0000
0000
0000
0010
0000
0000
0000
0100
0000
0000
0000
1000
0000
0000
0000
0100
0000
0000
0000
,
0010
0000
0000
0000
1000
0000
0000
0000
0001
0000
0000
0000
0010
0000
0000
0001
0000
0000
0010
0000
0000
0100
0000
0000
1000
0000
0000
0000
0100
0000
0000
0000
0010
0000
0000
0000
0001
0000
0000
0000
0100
0000
0000
0000
0010
0000
0000
0000
,
0100
0000
0000
0000
1000
0000
0000
0000
0100
0000
0000
0000
0001
0000
0000
0010
0000
0000
0100
0000
0000
1000
0000
0000
0001
0000
0000
0000
0000
0000
0000
0000
0000
0000
0000
0000
1000
0000
0000
0000
0001
0000
0000
0000
0100
0000
0000
0000
,
0020
0000
0000
0000
0000
0000
0000
0000
0000
0130
0010
1000
,
0200
0000
0000
0000
,
2000
0300
0002
3000
,
0020
0000
0003
0000
0002
0000
0030
0003
,
2001
0000
0000
0000
0200
3000
0000
0300
,
0012
0000
0000
0000
0000
0000
0000
0003
,
2002
0000
0000
0000
0000
0000
0000
3003
,
0220
0000
0000
0000
,
0000
0000
0000
0000
,
0330
0000
0000
0000
,
0001
0000
1000
0000
0010
0000
0100
0010
0100
0000
0010
0100
0001
0100
0010
0000
,
1000
0001
0100
0010
1000
0100
0010
0001
,
0100
0000
0100
0000
0010
1000
0000
1000
0100
0000
0010
0001
0010
0001
0100
0000
,
1000
0100
0010
1000
0001
0010
0100
0001
,
1000
0000
1000
0000
0010
0001
0000
0001
0100
0000
0010
1000
0001
0100
0001
0000
,
0010
0100
1000
0001
1000
0010
0100
1000
,
0001
0000
0001
0000
0010
0100
0000
0100
0001
0000
1000
0010
1000
0001
0100
0000
,
0010
0100
0001
0010
0001
1000
0100
1000
,
0010
0000
0010
0000
0100
0001
0000
0001
1000
0000
0001
1000
0010
0100
0010
0000
,
1000
0010
0100
0010
1000
0010
0100
0010
1000
0010
0100
0010
1000
0000
0001
0000
,
1000
0000
1000
0000
0010
0000
0100
0000
0001
0010
0100
1000
0010
0000
1000
0000
,
0100
0010
0001
0010
0100
0010
0001
0010
0100
0010
0001
0010
0100
0000
1000
0000
,
0001
0000
0001
0000
0100
0000
0010
0000
1000
0001
0010
0100
1000
0000
0001
0000
,
1000
0100
0010
0100
0001
0100
0010
0100
1000
0100
0010
0100
0001
0000
0100
0000
,
1000
0000
1000
0000
0010
0000
0100
0000
0001
0010
0100
1000
0010
0000
1000
0000
,
0100
1000
0001
0010
0100
1000
0001
0010
0100
1000
0001
0010
0100
0000
1000
0000
,
0001
0000
0001
0000
0100
0000
0010
0000
1000
0001
0010
0100
1000
0010
0100
0020
,
0000
0030
0000
0000
0000
0000
0000
0000
1000
0000
0010
0000
0100
0000
0000
0000
0001
0000
1000
0000
0001
0000
0000
0000
0100
0000
0010
0000
0100
0000
0000
0000
,
0001
1000
0010
0000
0100
0010
1000
0000
0100
0010
0001
0000
1000
0100
0010
0000
,
0001
0010
0100
0000
0010
0100
1000
0000
0010
0100
0001
0000
1000
0010
0001
0000
,
1000
0100
0001
0000
1000
0010
0001
0000
1000
0100
0001
0000
0010
0100
1000
0000
,
0010
0100
0001
0000
0010
0001
0010
0000
0100
1000
0100
0000
0010
0001
0010
0000
,
0100
1000
0010
0000
0100
0001
1000
0000
0001
0010
0001
0000
1000
0100
1000
0000
,
0010
0100
0001
0000
0010
0100
1000
0000
0001
0010
0100
0000
1000
0010
0100
0000
,
0001
1000
0001
0000
0100
0010
1000
0000
1000
0010
0100
0000
0100
0001
0010
0000
,
0010
0001
0100
0000
1001
0000
0100
0000
0001
0010
0100
0010
0001
0010
0100
1000
,
0010
0000
0100
0000
1010
0000
1000
0000
0010
0100
0010
1000
0001
0010
0100
1000
,
0010
0000
1000
0000
0101
0000
0010
0000
1000
0001
1000
0001
0100
0010
1000
0010
,
0100
0001
0110
1000
0110
0001
0110
1000
,
0110
0000
0001
0000
0110
0000
1000
0000
0010
0000
0100
0000
0001
0010
0001
1000
,
0100
0000
0010
0000
1001
0000
0010
0000
0100
0000
0001
0000
0100
0010
0100
0001
,
1000
0010
1010
1000
0010
0100
0101
0010
,
1000
0000
0001
0000
1000
0010
0000
0010
0100
0000
0001
0000
0010
0100
1000
0100
,
0010
0100
0110
0010
0001
1000
1010
0010
,
0100
0000
0001
0000
1001
0000
1000
0000
0001
1000
0001
0100
0010
0100
0010
1000
,
0001
1000
0010
0100
0020
0000
0000
0000
0230
0000
0000
0000
0302
0000
0000
0000
,
2003
3200
0320
0032
,
2003
0000
0000
0000
3001
0100
0010
0000
1000
0001
1000
0000
0010
0100
0010
0000
,
1000
0001
0100
0000
0010
0100
0001
0000
0010
0100
1000
0000
0001
0010
0100
0000
,
1000
0100
0010
0000
0100
0010
0001
0000
0100
0010
1000
0000
0001
0100
1000
0000
,
0001
0010
1000
0000
0001
0100
1000
0000
0001
0010
1000
0000
0100
0010
0001
0000
,
0100
0010
1000
0000
0100
1000
0100
0000
0010
0001
0010
0000
0100
1000
0100
0000
,
0010
0001
0100
0000
0010
1000
0001
0000
1000
0100
1000
0000
0001
0010
0001
0000
,
0100
0010
1000
0000
0100
0010
0001
0000
1000
0100
0010
0000
0001
0100
0010
0000
,
1000
0001
1000
0000
0010
0100
0001
0000
0001
0100
0010
0000
0010
1000
0100
0000
,
0100
1000
0010
0000
1001
0000
0001
0000
0010
0100
0010
0001
1000
0100
0010
0001
,
0100
0000
0010
0000
0101
0000
0001
0000
1000
0001
1000
0001
0010
0001
0100
1000
,
0100
0000
0001
0000
1010
0000
1000
0000
0100
1000
0100
1000
0010
0100
0001
0100
,
0010
1000
0110
0001
0110
1000
0110
0001
,
0110
0000
1000
0000
0110
0000
0001
0000
0100
0000
0010
0000
1000
0100
1000
0001
,
0010
0000
0100
0000
1001
0000
0100
0000
0010
0000
1000
0000
0010
0100
0010
1000
,
0001
0100
0101
0001
0100
0010
1010
0100
,
0001
0000
1000
0000
0001
0100
0000
0100
0010
0000
1000
0000
0100
0010
0001
0010
,
0100
0010
0110
0100
1000
0001
0101
0100
,
0010
0000
1000
0000
1001
0000
0001
0000
1000
0001
1000
0010
0100
0010
0100
0001
,
1000
0000
0000
0001
0000
0000
0100
0000
0000
0010
0000
0000
0100
0000
0000
0000
0001
0000
0000
0000
1000
0000
0000
0000
0001
0000
0000
0000
0010
0000
0000
0000
0100
0000
0000
0000
1000
0000
0000
0000
0100
0000
0000
0000
0010
0000
0000
0000
,
0001
0010
0100
2001
0000
0000
0000
0000
0000
3002
0000
0000
,
0000
0000
0000
0000
1003
0010
0100
0001
0010
0000
0100
1000
0010
0100
0002
0000
,
0010
0000
1003
0000
0010
0100
0001
0010
0100
0000
1000
0010
0100
1000
0200
0000
,
0010
0000
0301
0000
0100
1000
0100
0001
0100
0000
0010
0100
1000
0100
0010
0000
,
1001
0220
0000
0000
0000
0000
0000
0000
,
0000
0000
0330
0000
0010
1000
0001
0010
1000
0010
0001
1000
0010
1000
0001
0100
,
1000
0100
0001
0010
0002
0000
0000
0000
0000
0000
0000
0000
0000
0000
0000
0000
,
0000
0000
0000
0000
,
0003
0000
0000
0000
;

//---------------dance-single - Copied from----------------
#NOTES:
     dance-single:
     Copied from:
     Hard:
     16:
     0.904,0.946,0.293,0.408,0.595:
0000
0000
0000
0000
,
0000
0000
2002
3003
,
0001
0000
1000
0001
1000
0001
0100
0010
0100
0010
1000
0001
0010
0001
0010
0100
,
1000
0000
2001
0000
,
3020
0000
0000
0000
0230
0000
0000
0300
,
1001
0000
0000
0000
0100
0010
0100
0001
2000
0000
0000
0000
3002
0000
0000
0000
,
0203
0000
0000
0000
0301
0010
0001
1000
0020
0000
0000
0000
0230
0000
0000
0000
,
0302
0000
0000
0000
1003
0001
1000
0010
0200
0000
0000
0000
0302
0000
0000
0000
,
2003
0000
0000
0000
0000
0000
0000
0000
0000
0000
0000
0000
3100
0000
0000
0010
0000
0000
0100
0000
0000
0010
0000
0000
0002
0000
0000
0000
0000
0000
0000
0000
0000
0000
0000
0000
1003
0000
0000
0000
0001
0000
0000
0000
1000
0000
0000
0000
,
0002
0000
0000
0000
0000
0000
0000
0000
0000
1003
0010
1000
,
0020
0000
0000
0000
,
2000
0030
0002
3000
,
0200
0000
0000
0003
0000
0000
0020
0000
0300
0000
0000
0030
,
2001
0000
0000
0000
0002
3000
0003
0000
,
0210
0000
0000
0000
0000
0000
0000
0300
,
2002
0000
0000
0000
0000
0000
0000
3003
,
0220
0000
0000
0000
,
0000
0000
0000
0000
,
0330
0000
0000
0000
,
0001
0000
1000
0000
0010
0000
0100
0010
0100
0000
0001
1000
0001
1000
0001
0000
,
1000
0001
0100
0010
1000
0100
0020
0000
,
0031
0000
0100
0000
0010
0000
0010
0000
1000
0001
1000
0000
0010
0000
0100
0000
,
1000
0100
0010
1000
0001
0010
0200
0000
,
1300
0000
0001
0000
0010
0000
0010
0000
0100
1000
0100
0000
0010
0000
0001
0000
,
0010
0100
1000
0001
1000
0010
0200
0000
,
0301
0000
1000
0000
0010
0000
0010
0000
0100
0001
0100
0000
0010
0000
1000
0000
,
0001
0100
0001
0010
0001
1000
0200
0000
,
0310
0000
0010
0000
0001
0000
0001
0000
1000
0000
0001
1000
0001
1000
0010
0000
,
0100
0010
0100
0010
0100
0010
0100
0010
0100
0010
0100
0010
1000
0000
0001
0000
,
0100
0000
0100
0000
0010
0000
0010
0000
1000
0010
1000
0000
0001
0000
1000
0000
,
0001
0010
0001
0010
0001
0010
0001
0010
0001
0010
0001
0010
0100
0000
1000
0000
,
0001
0000
0001
0000
0100
0000
0100
0000
0001
0100
0001
0000
1000
0000
0001
0000
,
1000
0100
1000
0100
1000
0100
1000
0100
1000
0100
1000
0100
1000
0000
0001
0000
,
0100
0000
0100
0000
0001
0000
0001
0000
1000
0100
1000
0000
0100
0000
0010
0000
,
0001
1000
0001
1000
0001
1000
0001
1000
0001
1000
0001
1000
0001
0000
1000
0000
,
0100
0000
0100
0000
0010
0000
0010
0000
0001
0010
0001
0010
0100
0010
0100
0020
,
0000
0030
0000
0000
0000
0000
0000
0000
1001
0000
0000
0000
0001
0000
0000
0000
0100
0000
0000
0000
0010
0000
0000
0000
1000
0000
0000
0000
0100
0000
0000
0000
,
0010
0001
0010
1000
0010
0001
0100
1000
,
0100
0001
0100
1000
0001
0010
1000
0100
,
0010
0100
1000
0001
0010
0001
0100
0010
,
0100
1000
0001
0010
0100
0010
1000
0001
,
0100
1000
0100
0001
1000
0100
0001
0100
,
0010
0001
0100
1000
0100
0001
1000
0100
,
0010
0000
0001
0000
1000
0010
1000
0000
0100
0010
0100
0000
0010
0100
1000
0000
,
0100
0010
0001
0000
1001
0000
1000
0000
0010
0000
1000
0000
0001
0010
0100
1000
,
0010
0000
0100
0000
1010
0000
0010
0000
0100
0000
0001
0000
0010
1000
0010
0001
,
0010
0000
1000
0000
0011
0000
0001
0000
1000
0000
0010
0000
0100
0001
1000
0001
,
0100
1010
0101
1001
,
1010
0000
0000
0000
0101
0000
0100
0000
0010
0000
0100
0000
0001
0010
0001
1000
,
0100
0000
0010
0000
1001
0000
0010
0000
0100
0000
0001
0000
0100
0010
0100
0001
,
1000
0010
0100
1000
0100
0001
0010
0100
,
1000
0000
0001
0000
1000
0001
0000
0001
0100
0000
0001
0000
0010
0100
1000
0100
,
0010
0001
1001
1000
0010
0100
0110
0010
,
1000
0000
0001
0000
1001
0000
1000
0000
0010
0100
0010
1000
0001
1000
0100
0010
,
0001
0010
0100
1000
0002
0000
0000
0000
0023
0000
0000
0000
0230
0000
0000
0000
,
2300
3200
0320
0032
,
2003
0000
3001
1000
0010
0100
0001
0010
,
0100
1000
0100
0001
0100
1000
0010
0001
,
0010
1000
0010
0001
1000
0100
0001
0010
,
0100
0010
0001
1000
0100
1000
0010
0100
,
0010
0001
1000
0100
0010
0100
0001
1000
,
0010
0001
0010
1000
0001
0010
1000
0010
,
0100
1000
0010
0001
0010
1000
0001
0010
,
0100
0000
1000
0000
0001
0100
0001
0000
0010
0100
0010
0000
0100
0010
0001
0000
,
0010
0100
1000
0000
1001
0000
0001
0000
0100
0000
0001
0000
1000
0100
0010
0001
,
0100
0000
0010
0000
0101
0000
0100
0000
0010
0000
1000
0000
0100
0001
0100
1000
,
0100
0000
0001
0000
1100
0000
1000
0000
0001
0000
0100
0000
0010
1000
0001
1000
,
0010
0101
1010
1001
,
0101
0000
0000
0000
1010
0000
0010
0000
0100
0000
0010
0000
1000
0100
1000
0001
,
0010
0000
0100
0000
1001
0000
0100
0000
0010
0000
1000
0000
0010
0100
0010
1000
,
0001
0100
0010
0001
0010
1000
0100
0010
,
0001
0000
1000
0000
0001
1000
0000
1000
0010
0000
1000
0000
0100
0010
0001
0010
,
0100
1000
1001
0001
0100
0010
0110
0100
,
0001
0000
1000
0000
1001
0000
0001
0000
0100
0010
0100
0001
1000
0001
0010
0100
,
1000
0000
0000
0100
0000
0000
0010
0000
0000
0001
0000
0000
1000
0000
0000
0000
0010
0000
0000
0000
0100
0000
0000
0000
0001
0000
0000
0000
0010
0000
0000
0000
0001
0000
0000
0000
1000
0000
0000
0000
0100
0000
0000
0000
1000
0000
0000
0000
,
0010
0100
0001
0200
0000
0000
0000
0000
0000
0320
0000
0000
,
0000
0000
0000
0000
1030
0010
1000
0010
0100
0000
0010
0100
0010
0100
0001
0000
,
0010
0000
0010
0000
0100
1000
0100
1000
0001
0000
1000
0010
1000
0010
0100
0000
,
0001
0000
0001
0000
0100
0010
0100
0010
1000
0000
0001
0100
0001
0100
0010
0000
,
0100
2002
0000
0000
0000
0000
0000
0000
,
0000
0000
3003
0000
0010
1000
0010
0100
0010
1000
0010
0100
0001
0010
0001
0100
,
0001
0010
0100
0010
0002
0000
0000
0000
0000
0000
0000
0000
0000
0000
0000
0000
,
0003
0000
0000
0000
;

//---------------dance-single - Copied from Copied f----------------
#NOTES:
     dance-single:
     Copied from Copied f:
     Medium:
     13:
     0.735,0.691,0.169,0.453,0.186:
0000
0000
0000
0000
,
0000
0000
2002
3003
,
0001
0100
1000
0100
0001
1000
0100
0001
,
0100
0000
2001
0000
,
3002
0000
0000
0000
0023
0000
0000
0030
,
1002
0203
0320
2030
,
3002
0023
0230
0320
,
0032
2003
3020
0230
,
0302
0000
0023
0000
0230
0000
1300
0100
,
0002
0000
0000
0000
0000
0000
0103
1000
,
0020
0000
0000
0000
,
2030
0000
3020
0000
,
0230
0000
0000
0000
0302
0000
0000
0003
,
2001
0000
3020
0030
,
0201
0000
0000
0000
0000
0000
0000
0300
,
2020
0000
0000
0000
0000
0000
0000
3030
,
0210
0000
0000
0000
,
0000
0000
0000
0000
,
0300
0000
0000
0000
,
0001
1000
0010
0100
0100
0010
0010
0100
,
0100
0001
0100
0010
1000
0100
0020
0000
,
0031
0100
0010
0010
1000
1000
0010
0100
,
1000
0100
0010
1000
0001
0010
0200
0000
,
1300
0001
0010
0010
0100
0100
0010
0001
,
0010
0100
1000
0001
1000
0010
0200
0000
,
0301
1000
0010
0010
0100
0100
0010
1000
,
0001
0100
0001
0010
0001
1000
0200
0000
,
0310
0010
0001
0001
1000
0001
0001
0010
,
0100
1000
0000
0100
0010
0000
0001
1000
0000
1000
0010
0000
0100
0000
1000
0000
,
0100
0100
0010
0010
1000
1000
0001
1000
,
0001
0010
0000
0001
0010
0000
0100
1000
0000
0100
0010
0000
0001
0000
1000
0000
,
0001
0001
0100
0100
0001
0001
1000
0001
,
1000
0100
0000
0010
0001
0000
0010
0100
0000
0010
0100
0000
1000
0000
0001
0000
,
0100
0100
0001
0001
1000
1000
0100
0010
,
0001
1000
0000
0001
0100
0000
0010
1000
0000
0001
0100
0000
0010
0000
1000
0000
,
0100
0000
0100
0000
0010
0000
0010
0000
0001
0000
0001
0000
0100
0000
0100
0010
,
0000
0000
1000
0001
0100
0001
1000
0010
,
0100
0001
0010
0100
0010
0001
0100
1000
,
0100
0010
0100
1000
0100
0001
0010
0100
,
0001
0100
0010
0001
1000
0010
1000
0001
,
0100
0010
0100
0001
1000
0010
1000
0001
,
0100
0001
1000
0100
1000
0010
0100
0001
,
0010
0001
1000
0010
1000
0100
0010
0001
,
0100
0000
0001
0000
1000
0010
0000
0000
0010
0100
0000
0000
0100
0001
0000
0000
,
0001
0100
0000
0000
0010
0000
1000
0000
0100
0000
1000
0000
0001
0000
0100
0000
,
0001
0010
0100
1000
0100
0010
0001
0010
,
0100
1000
0010
0001
0010
1000
0001
0100
,
0001
1001
0110
1010
,
0101
0000
0110
0100
0010
0100
0001
1000
,
0100
0010
0001
0010
0100
1000
0100
0010
,
0100
0010
0001
1000
0001
1000
0010
0100
,
0001
0100
0010
1000
0010
0100
0001
0010
,
0100
1000
0001
1000
0010
0100
0010
0100
,
0001
0000
0010
0000
0100
0000
1000
0000
0010
0100
0000
0000
0100
0010
0000
0000
,
0010
1000
0000
0000
0002
0000
0000
0000
0023
0000
0000
0000
0230
0000
0000
0000
,
2300
3200
0320
0032
,
2003
0000
3001
1000
0010
1000
0001
0100
,
0010
1000
0100
0010
0100
1000
0010
0001
,
0010
0100
0010
0001
0010
1000
0100
0010
,
0001
0010
0100
1000
0001
0100
0001
1000
,
0010
0100
0010
1000
0001
0100
0001
1000
,
0010
1000
0001
0010
0001
0100
0010
1000
,
0100
1000
0001
0100
0001
0010
0100
1000
,
0010
0000
1000
0000
0001
0100
0000
0000
0100
0010
0000
0000
0010
1000
0000
0000
,
1000
0010
0000
0000
0100
0000
0001
0000
0010
0000
0001
0000
1000
0000
0010
0000
,
1000
0100
0010
0001
0010
0100
1000
0100
,
0010
0001
0100
1000
0100
0001
1000
0010
,
1000
1001
0110
0101
,
1010
0000
0110
0010
0100
0010
1000
0001
,
0010
0100
1000
0100
0010
0001
0010
0100
,
0010
0100
1000
0001
1000
0001
0100
0010
,
1000
0010
0100
0001
0100
0010
1000
0100
,
0010
0001
1000
0001
0100
0010
0100
0010
,
1000
0000
0100
0000
0010
0000
0001
0000
0100
0010
0000
0000
0010
1000
0000
0000
,
1000
0001
0000
0000
2002
0000
0000
0000
0000
0000
0000
0000
0000
0000
0000
0000
,
0000
3003
0020
0000
0000
0000
0230
0000
,
0000
0000
0000
0000
0301
1000
0000
0001
0100
0000
0001
0000
0100
0000
0010
0000
,
1000
0000
1000
0000
0100
0010
0000
0001
0010
0000
0100
0000
1000
0000
0100
0000
,
0010
0000
0010
0000
0001
0010
0000
0100
1000
0000
0001
0000
1000
0000
0010
0000
,
1000
2002
0000
0000
0000
0000
0000
0000
,
0000
0000
3003
0000
0010
1000
0000
0000
0001
0100
0000
0000
0001
1000
0000
0000
,
1000
0010
0000
0010
0200
0000
0000
0000
0000
0000
0000
0000
0000
0000
0000
0000
,
0300
0000
0000
0000
;

//---------------dance-single - Copied from Copied f----------------
#NOTES:
     dance-single:
     Copied from Copied f:
     Easy:
     6:
     0.444,0.509,0.133,0.550,0.000:
0000
0000
0000
0000
,
0000
0000
0200
0300
,
0001
0000
1000
0000
0010
0000
1000
0010
,
0100
0000
0000
0000
0020
0000
0000
0030
,
0200
0000
0300
0000
0020
0000
0000
0030
,
2000
3002
0003
0200
,
0302
0003
0020
0230
,
0300
2000
3002
0003
,
0200
0302
0003
1000
,
0020
0000
0000
0130
,
0002
0000
0000
0000
,
0203
0000
0302
0000
,
0023
0000
0000
0000
0230
0000
0000
0300
,
2000
0000
3002
0003
,
0200
0000
0000
0000
0000
0000
0000
0300
,
2002
0000
0000
0000
0000
0000
0000
3003
,
0200
0000
0000
0000
,
0000
0000
0000
0000
,
0300
0000
0000
0000
,
0000
0000
0000
0000
,
0100
0000
0010
0000
1000
0100
0020
0000
,
0031
0000
0001
0000
1000
0001
1000
0000
,
0010
0000
0010
0000
1000
0001
0200
0000
,
0301
0000
1000
0000
0100
0010
0001
0000
,
1000
0000
0001
0000
1000
0010
2000
0000
,
3001
0000
0001
0000
0100
0010
0100
0000
,
0001
0000
1000
0000
0010
0100
0002
0000
,
1003
0000
0100
0000
0010
0001
0010
0000
,
0100
0100
0100
0100
0100
0100
0100
0100
,
0000
0010
0001
1000
,
0001
0001
0001
0001
0001
0001
0001
0001
,
0000
0100
0001
1000
,
0010
0010
0010
0010
0010
0010
0010
0010
,
0000
0100
0001
0010
,
0100
0100
0100
0100
0100
0100
0100
0100
,
0000
1000
0100
0020
,
0030
0001
0001
0010
,
0010
0100
0100
1000
,
1000
0001
0001
1000
,
0010
1000
0100
0100
,
0010
0010
0100
0001
,
0100
0001
0010
0100
,
1000
0100
0010
0001
,
1000
0001
1000
0001
,
1000
0020
0000
0130
,
0001
0000
2002
0000
0000
3003
0010
0000
,
0100
0020
0000
0130
,
0001
1001
0110
1010
,
0101
0000
0220
0000
0000
0330
0001
0000
,
1000
0000
2002
0000
0000
3003
0100
0000
,
0010
0200
0000
0302
,
0000
0013
0100
1000
,
0001
2000
0000
3002
,
0000
0203
0000
0000
,
0000
0301
0001
0001
,
0001
1000
1000
1000
,
1000
0001
0010
0100
,
0100
0010
0010
0001
,
0001
1000
1000
0001
,
0100
0001
0010
0010
,
0100
0100
0010
1000
,
0010
1000
0100
0010
,
0001
0010
0100
1000
,
0001
1000
0001
1000
,
0001
0200
0000
0310
,
1000
0000
2002
0000
0000
3003
0100
0000
,
0010
0200
0000
0310
,
1000
1001
0110
0101
,
1010
0000
0220
0000
0000
0330
1000
0000
,
0001
0000
2002
0000
0000
3003
0010
0000
,
0100
0020
0000
2030
,
0000
3100
0010
0001
,
1000
0002
0000
2003
,
0000
3020
0000
0000
,
0000
0230
0000
0000
,
0000
0302
0000
2003
,
0000
3000
0001
1000
0001
0000
0100
0010
,
0100
0000
0001
0100
0001
0000
1000
0010
,
1000
0000
0010
0100
0010
0000
0100
0010
,
0100
0200
0000
0000
0000
0000
0000
0000
,
0000
0310
0100
0001
,
1000
0010
0200
0000
0000
0000
0000
0000
,
0300
0000
0000
0000
;

//---------------dance-single - Copied from Copied from Copied f----------------
#NOTES:
     dance-single:
     Copied from Copied from Copied f:
     Beginner:
     3:
     0.293,0.437,0.000,0.603,0.000: // measure 1
0000
0000
0000
0000
,  // measure 2
0000
0000
0020
0030
,  // measure 3
1000
0000
0001
0100
,  // measure 4
0010
0000
0000
0000
0200
0000
0000
0300
,  // measure 5
0020
0000
0030
0000
0200
0000
0000
0300
,  // measure 6
0002
2003
3000
0020
,  // measure 7
2030
3000
0200
0320
,  // measure 8
0030
0002
2003
3000
,  // measure 9
0020
2030
3000
0001
,  // measure 10
0200
0000
0000
0310
,  // measure 11
2000
0000
0000
0000
,  // measure 12
3002
0000
2003
0000
,  // measure 13
3200
0000
0000
0000
0320
0000
0000
0030
,  // measure 14
0002
0000
2003
3000
,  // measure 15
0020
0000
0000
0000
0000
0000
0000
0030
,  // measure 16
0200
0000
0000
0000
,  // measure 17
0320
0000
0000
0000
,  // measure 18
0000
0000
0000
0000
,  // measure 19
0030
0000
0000
0000
,  // measure 20
0000
0000
0000
0000
,  // measure 21
0010
0010
0010
0200
,  // measure 22
0300
0000
0000
0000
,  // measure 23
0100
0100
0010
0020
,  // measure 24
0030
0000
0000
0000
,  // measure 25
0001
0001
1000
0002
,  // measure 26
0003
0000
0000
0000
,  // measure 27
1000
1000
0010
2000
,  // measure 28
3000
0000
0000
0000
,  // measure 29
0020
0000
0000
0000
0000
0000
0000
0130
,  // measure 30
0000
0000
0000
0000
,  // measure 31
2000
0000
0000
0000
0000
0000
0000
3001
,  // measure 32
0000
0000
0000
0000
,  // measure 33
0200
0000
0000
0000
0000
0000
0000
0310
,  // measure 34
0000
0000
0000
0000
,  // measure 35
0020
0000
0000
0000
0000
0000
0000
0130
,  // measure 36
0000
0000
0000
2000
,  // measure 37
3000
1000
0000
0100
,  // measure 38
0000
0010
0000
0001
,  // measure 39
0000
1000
0000
0001
,  // measure 40
0000
0100
0000
0010
,  // measure 41
0000
0100
0000
0001
,  // measure 42
0000
1000
0000
0010
,  // measure 43
0000
0100
0000
0001
,  // measure 44
0000
1000
0000
0001
,  // measure 45
0000
0200
0000
0301
,  // measure 46
1000
0000
0002
0000
0000
0003
0100
0000
,  // measure 47
0010
2000
0000
3010
,  // measure 48
0100
0002
0203
0320
,  // measure 49
1030
0000
0020
0000
0000
0030
1000
0000
,  // measure 50
0001
0200
0000
0301
,  // measure 51
1000
0200
0000
0320
,  // measure 52
0000
0130
0010
0001
,  // measure 53
1000
0002
0000
2003
,  // measure 54
0000
3020
0000
0000
,  // measure 55
0000
1030
1000
1000
,  // measure 56
1000
0001
0001
0001
,  // measure 57
0001
0100
0000
0010
,  // measure 58
0000
0100
0000
1000
,  // measure 59
0000
0001
0000
1000
,  // measure 60
0000
0010
0000
0100
,  // measure 61
0000
0010
0000
1000
,  // measure 62
0000
0001
0000
0100
,  // measure 63
0000
0010
0000
1000
,  // measure 64
0000
0001
0000
1000
,  // measure 65
0000
0020
0000
1030
,  // measure 66
0001
0000
2000
0000
0000
3000
0010
0000
,  // measure 67
0100
0002
0000
0103
,  // measure 68
0010
2000
3020
0230
,  // measure 69
0301
0000
0200
0000
0000
0300
0001
0000
,  // measure 70
1000
0020
0000
1030
,  // measure 71
0001
0020
0000
0230
,  // measure 72
0000
0310
0100
1000
,  // measure 73
0001
2000
0000
3002
,  // measure 74
0000
0203
0000
0000
,  // measure 75
0000
0302
0000
0000
,  // measure 76
0000
2003
0000
3002
,  // measure 77
0000
0003
2000
0000
0000
0000
0000
0000
,  // measure 78
0000
3020
0000
0000
,  // measure 79
0000
0230
0000
0000
,  // measure 80
0301
0002
0000
0000
0000
0000
0000
0000
,  // measure 81
0003
0100
0000
0010
,  // measure 82
0000
0200
0000
0000
,  // measure 83
0300
0000
0000
0000
;
