#TITLE:X;
#SUBTITLE:;
#ARTIST:D.J.Amuro;
#TITLETRANSLIT:;
#SUBTITLETRANSLIT:;
#ARTISTTRANSLIT:;
#GENRE:;
#CREDIT:;
#BANNER:X.png;
#BACKGROUND:X-bg.png;
#LYRICSPATH:;
#CDTITLE:;
#MUSIC:X.mp3;
#OFFSET:0.500000;
#SAMPLESTART:44.799999;
#SAMPLELENGTH:12.000000;
#SELECTABLE:YES;
#BPMS:0.000000=180.020004
;
#STOPS:179.500000=0.200000
;
#BGCHANGES:;
#KEYSOUNDS:;
#ATTACKS:;

//---------------dance-single - ----------------
#NOTES:
     dance-single:
     :
     Hard:
     16:
     0.948856,1.150198,0.356399,0.000000,0.530549,820.000000,776.000000,44.000000,0.000000,0.000000,0.000000,0.948856,1.150198,0.356399,0.000000,0.530549,820.000000,776.000000,44.000000,0.000000,0.000000,0.000000:
// measure 0
0000
0000
0000
0000
,  // measure 1
0100
0010
1000
0000
0001
0000
0100
0000
0001
0000
0010
0000
0100
0000
1000
0000
,  // measure 2
0001
1000
0100
0000
0010
0000
0001
0000
0100
0000
1000
0000
0100
0000
0001
0000
,  // measure 3
0010
0001
1000
0000
0001
0000
1000
0000
0100
0000
0001
0000
0100
0000
1000
0000
,  // measure 4
0001
1000
0010
0000
0100
0000
0001
0000
1000
0000
0001
0000
0010
0000
0100
0000
,  // measure 5
1000
0001
1000
0001
1000
0000
0010
0100
0010
0100
0010
0000
1000
0010
1000
0000
,  // measure 6
0001
0100
0001
0100
0001
0000
1000
0010
1000
0010
1000
0000
0001
1000
0001
0000
,  // measure 7
1000
0100
0010
0001
0010
0100
1000
0010
0100
0001
0010
0100
1000
0100
0010
0000
,  // measure 8
0001
0010
0100
1000
0001
0010
0100
1000
0001
1000
0100
0010
0001
0000
0000
0000
,  // measure 9
1000
0001
1000
0000
0001
0000
0100
0000
0010
0000
1000
0000
0001
0000
1000
0000
,  // measure 10
0010
0100
0010
0000
0100
0000
0001
0000
1000
0000
0010
0000
0100
0000
0001
0000
,  // measure 11
0010
0001
0010
0000
0100
0000
1000
0000
0100
0000
0001
0000
0100
0000
1000
0000
,  // measure 12
0010
1000
0010
0000
0100
0000
0001
0000
1000
0000
0001
0000
0100
0000
0010
0000
,  // measure 13
1000
0001
1000
0001
1000
0000
0010
0100
0010
0100
0010
0000
1000
0010
1000
0000
,  // measure 14
0001
0100
0001
0100
0001
0000
1000
0010
1000
0010
1000
0000
0001
1000
0001
0000
,  // measure 15
1000
0100
0010
0001
0010
0100
1000
0010
0100
0001
0010
0100
1000
0100
0010
0000
,  // measure 16
0001
0010
0001
0010
0100
0010
0100
1000
0001
1000
0001
0100
0010
1000
0010
0000
,  // measure 17
1000
0001
0100
0000
0010
0000
1000
0000
0001
0000
0010
0000
0100
0000
1000
0000
,  // measure 18
0001
0100
0010
0000
0100
0000
1000
0000
0100
0000
0001
0000
1000
0000
0001
0000
,  // measure 19
0010
0001
1000
0000
0001
0000
1000
0000
0100
0000
0001
0000
0100
0000
1000
0000
,  // measure 20
0010
1000
0001
0000
0010
0000
0100
0000
1000
0000
0001
0000
0100
0000
0010
0000
,  // measure 21
1000
0001
0100
0001
1000
0000
0010
0100
0001
0100
0010
0000
1000
0010
0100
0000
,  // measure 22
0001
0010
0100
1000
0001
0000
1000
0010
0100
0001
1000
0000
0001
1000
0010
0000
,  // measure 23
1000
0100
0010
0001
0010
0100
1000
0010
0100
0001
0010
0100
1000
0100
0010
0000
,  // measure 24
0001
1000
0100
1000
0001
0100
0001
1000
0010
0100
1000
0100
0001
1000
0010
0100
,  // measure 25
0010
1000
0010
0100
0010
1000
0010
0100
,  // measure 26
0001
1000
0001
0010
0100
0100
0100
0100
,  // measure 27
1000
0001
0100
0001
0010
0001
0100
0001
,  // measure 28
1000
0010
0100
0010
1000
1000
1000
1000
,  // measure 29
0001
0010
0001
1000
0001
0100
0001
0010
,  // measure 30
0001
1000
0010
1000
0010
0010
0010
0010
,  // measure 31
1000
0100
0010
0001
0100
0010
0100
0010
1000
0001
1000
0001
,  // measure 32
0100
0010
0100
0010
0100
0010
0100
0010
0100
0010
0100
0010
0100
0000
0000
0000
0000
0000
1001
0000
0000
0000
0000
0000
,  // measure 33
1000
0010
0100
0100
0001
0010
0001
0001
,  // measure 34
1000
0010
1000
1000
0001
0100
0010
0010
,  // measure 35
1000
0001
0100
0100
0001
0010
0001
0001
,  // measure 36
0010
0100
1000
1000
0001
0100
0010
0010
,  // measure 37
1000
0001
0100
0100
0001
1000
0010
0010
,  // measure 38
1000
0100
0001
0001
0100
1000
0010
0010
,  // measure 39
1000
0010
0001
0010
1000
0001
0010
1000
,  // measure 40
0010
0001
1000
0010
0001
1000
0100
0001
,  // measure 41
1001
0100
0010
0010
1000
0100
1000
1000
,  // measure 42
0001
0100
0001
0001
1000
0010
0100
0100
,  // measure 43
0001
1000
0010
0010
1000
0100
1000
1000
,  // measure 44
0100
1000
0001
0001
0100
0100
0001
1001
,  // measure 45
0010
1000
1000
0001
0010
0001
0001
1000
,  // measure 46
0010
0100
0100
0001
1000
0001
0001
0100
,  // measure 47
1000
0100
0001
1000
0100
0001
0100
1000
,  // measure 48
0001
0100
1000
0001
0010
1000
0001
1001
,  // measure 49
0000
0001
0010
0100
0000
1000
0010
0100
,  // measure 50
0000
0001
0010
0001
1000
0100
1000
0010
,  // measure 51
0000
0010
0100
0001
0000
0001
1000
0100
,  // measure 52
0001
0100
1000
0001
0100
1000
0100
0001
,  // measure 53
0000
0001
0010
0100
0000
0100
1000
0010
,  // measure 54
0000
0010
0100
1000
0100
0001
0010
0100
,  // measure 55
0000
0100
1000
0010
0000
0010
0100
0001
,  // measure 56
1000
0100
1000
0010
0100
0001
0010
1100
,  // measure 57
0000
1001
0000
0101
0000
0011
0010
0100
,  // measure 58
1000
0100
0010
0001
1000
0100
0010
0011
,  // measure 59
0000
1100
0000
1001
0000
0101
0000
1010
,  // measure 60
0010
0100
1000
0100
0001
0010
0100
0110
,  // measure 61
0000
0011
0000
0101
0100
0110
0010
1010
,  // measure 62
1000
0001
0010
0011
0001
1001
1000
0001
,  // measure 63
0010
0001
1000
0100
1000
0010
0100
1000
,  // measure 64
0001
0000
0010
0000
1000
0000
0001
0100
0010
1000
0001
0000
0000
0000
1000
0000
,  // measure 65
0010
1000
0001
0000
0100
0001
0100
0010
,  // measure 66
1000
0010
0001
0000
1000
0100
0001
0100
,  // measure 67
0001
0010
0100
0000
0100
1000
0001
0010
,  // measure 68
0001
1000
0001
0000
0100
0100
0010
1000
,  // measure 69
0000
0001
0011
0000
0100
0110
0000
0010
,  // measure 70
0100
0000
0001
0000
1000
0000
1000
0000
0001
0000
0100
0010
0100
0001
1000
0000
,  // measure 71
0010
0000
0100
0000
0001
0000
1000
0000
0010
0000
1000
0010
1000
0001
0100
0000
,  // measure 72
0001
0100
0010
0000
0010
1000
0100
0000
0100
0010
0001
0010
0100
1000
0100
0000
,  // measure 73
0010
0001
1000
0000
0001
1000
0001
0010
,  // measure 74
0100
1000
0001
0000
0001
0100
0010
1000
,  // measure 75
0010
1000
0100
0000
0010
0100
1000
0000
,  // measure 76
0001
1000
0100
0000
0010
0010
0001
0100
,  // measure 77
1000
0100
0001
0000
0010
0000
0001
0000
0000
0000
0100
0000
1000
0000
0000
0000
,  // measure 78
1000
0000
0100
0000
0001
0000
0010
0100
1000
0100
0010
0001
1000
0001
0100
0000
,  // measure 79
0000
0000
0010
0000
0000
0000
1000
0000
0001
0000
0100
0010
0100
0010
1000
0000
,  // measure 80
0001
0000
0101
0000
0000
0000
0010
1000
0010
0100
0001
0000
1000
0000
1010
0000
,  // measure 81
0000
1100
0000
0101
0000
0011
0000
1010
,  // measure 82
0000
1100
0000
0110
0010
0001
0010
0011
,  // measure 83
0000
0101
0000
1100
0000
1010
0000
0011
,  // measure 84
0000
0000
0101
0000
0000
0000
0110
0000
0010
0000
1000
0000
0001
0000
1000
0100
,  // measure 85
1000
0100
0010
0000
0001
0100
0001
0100
0010
0000
1000
0001
1000
0000
0001
0010
,  // measure 86
0001
0010
0100
0000
1000
0010
1000
0010
0100
0000
0001
1000
0001
0000
1001
0000
,  // measure 87
1000
0001
0101
0100
0010
1010
1000
0001
,  // measure 88
0011
0000
0001
0000
1000
0000
1001
0000
0000
1001
0000
0000
1001
0000
0000
0000
;

//---------------dance-single - ----------------
#NOTES:
     dance-single:
     :
     Medium:
     13:
     0.754456,0.718874,0.413099,0.040500,0.056700,652.000000,601.000000,51.000000,5.000000,0.000000,0.000000,0.754456,0.718874,0.413099,0.040500,0.056700,652.000000,601.000000,51.000000,5.000000,0.000000,0.000000:
0000
0000
0000
0000
,
1000
0000
0001
0100
0001
0000
1000
0000
,
0001
0000
1000
0100
1000
0000
0001
0000
,
0100
0000
0010
0100
0010
0000
1000
0000
,
0010
0000
0100
0010
0100
0000
0001
0000
,
1000
0010
1000
0010
0100
0001
0100
0000
,
0001
0010
0001
0010
0100
1000
0100
0000
,
0010
0001
1000
0001
1000
0010
0100
0000
,
0001
0010
0100
1000
0001
0010
0100
0000
,
1000
0001
1000
0100
0010
0001
1000
0000
,
0001
1000
0001
1000
0010
0100
0001
0000
,
0010
0100
1000
0001
0100
0001
0100
0000
,
0010
1000
0010
0100
0001
1000
0100
0000
,
1000
0010
1000
0010
0100
0010
0100
0001
,
0010
0001
0010
0100
0010
0100
1000
0100
,
1000
0001
0010
0100
0010
0001
1000
0100
,
0010
0100
1000
0100
0010
0001
1000
0000
,
0001
1000
0001
0010
0100
1000
0001
0000
,
1000
0001
1000
0001
0100
0010
1000
0000
,
0100
0010
0001
1000
0010
1000
0010
0000
,
0100
0001
0100
0010
1000
0001
0010
0000
,
0001
0100
0001
0100
0010
0100
0010
1000
,
0100
1000
0100
0010
0100
0010
0001
0010
,
0001
1000
0100
0010
0100
1000
0001
0010
,
0100
0010
0001
0010
0100
1000
0001
0000
,
1000
1000
0010
0100
1000
1000
0100
0010
,
1000
1000
0010
0100
0001
0001
0001
0001
,
0100
0100
0010
1000
0100
0100
0010
0001
,
0100
0100
0010
1000
0010
0010
0010
0010
,
0001
0001
0010
0100
0001
0001
0100
0010
,
0001
0001
1000
0100
0001
0001
0001
0001
,
0200
0320
2030
3200
,
0310
0000
0001
0000
1000
0001
1000
0001
1000
0000
0000
0000
1001
0000
0000
0000
,
0001
0100
0010
0010
1000
0100
1000
1000
,
0001
0100
0001
0001
1000
0010
0100
0100
,
0001
1000
0010
0010
1000
0100
1000
1000
,
0100
0010
0001
0001
1000
0010
0100
0100
,
0001
1000
0010
0010
1000
0001
0100
0100
,
0001
0010
1000
1000
0010
0001
0100
0100
,
0001
0100
0010
1000
0001
1000
0100
0010
,
0100
1000
0001
0100
0010
0100
0001
1000
,
1001
0010
0100
0100
0001
0010
0001
0001
,
1000
0010
1000
1000
0001
0100
0010
0010
,
1000
0001
0100
0100
0001
0010
0001
0001
,
0010
0001
1000
1000
0010
0010
2000
3001
,
0100
0001
0001
1000
0100
1000
1000
0001
,
0100
0010
0010
1000
0001
1000
1000
0010
,
0100
0010
1000
0001
0010
0001
1000
0100
,
1000
0010
0100
0010
1000
0001
1000
1001
,
0000
0001
0000
0100
0000
0010
0000
1000
,
0000
0010
1000
0010
1000
0100
0010
0100
,
0000
0010
0000
0001
0000
1000
0000
0001
,
0100
0001
0100
0010
1000
0100
1000
0001
,
0000
0100
0000
0010
0000
1000
0000
0001
,
0000
1000
0010
1000
0001
0100
0001
0100
,
0000
0010
0000
1000
0000
0001
0000
1000
,
0100
0010
0001
1000
0100
0010
0001
1001
,
0000
1001
0000
0101
0000
0101
0000
1010
,
0000
1010
0000
0011
0000
1100
0000
0011
,
0000
1100
0000
1001
0000
0110
0000
1001
,
0000
0011
0000
1100
0000
1100
0000
0101
,
0000
0101
0000
0011
0000
0011
0000
1010
,
0000
1010
0000
1001
0000
1001
0000
0110
,
0000
0101
0000
1010
0000
1100
0000
0011
,
0000
0000
1001
0000
0000
0000
0010
0100
0010
0100
0010
0000
0000
0000
1000
0000
,
0001
1000
0100
0000
0010
0001
0010
0001
,
0100
0010
1000
0000
0010
0100
0010
1000
,
0001
1000
0100
0000
1000
0100
0010
0001
,
1000
0001
1000
0000
0100
0010
0100
0010
,
0000
0001
1000
0000
1000
0010
0000
0100
,
0010
0100
0001
1000
0001
0100
0100
0010
,
1000
0001
1000
0010
0100
0010
1000
1000
,
0001
0000
0001
0000
0100
0000
0100
0000
0010
0000
1000
0000
0001
1000
0100
1000
,
0100
0010
0001
0000
1000
0001
1000
0000
,
0100
1000
0100
0000
0010
0001
0100
0010
,
1000
0100
1000
0000
0010
0100
0001
0000
,
0001
1000
0010
0000
0100
0100
0001
1000
,
0001
1000
0001
0000
0100
0000
0010
0000
0000
0000
0100
0000
0001
0000
0000
0000
,
1000
0100
1000
0001
0100
0010
0100
0001
,
0000
0000
0100
0000
0000
0000
0010
0000
0000
0000
1000
0010
1000
0010
0100
0000
,
0000
0000
0101
0000
0000
0000
0001
0100
0001
0100
0010
0000
0000
0000
0101
0000
,
0000
1001
0000
1010
0000
1100
0000
0011
,
0000
0110
0000
1100
1000
0100
0010
0011
,
0000
1100
0000
1001
0000
0110
0000
0101
,
0000
1010
0000
0110
0100
0001
0100
1000
,
0100
0000
0001
0000
0100
0000
0010
0000
0100
0000
0001
1000
0001
0000
1000
0000
,
0100
0000
0001
0000
0100
0000
1000
0000
0100
0000
0010
0001
0010
0000
0100
0000
,
0100
1000
0001
0001
0100
0010
0010
1000
,
0100
0000
0100
0000
0010
0000
0011
0000
0000
1001
0000
0000
1100
0000
0000
0000
;

//---------------dance-single - ----------------
#NOTES:
     dance-single:
     :
     Easy:
     4:
     0.422356,0.611043,0.226800,0.072900,0.004050,365.000000,337.000000,28.000000,9.000000,0.000000,0.000000,0.422356,0.611043,0.226800,0.072900,0.004050,365.000000,337.000000,28.000000,9.000000,0.000000,0.000000:
0000
0000
0000
0000
,
1000
0000
0000
0001
0000
0000
0100
0000
,
0010
0000
0000
1000
0000
0000
0100
0000
,
0010
0000
0000
0001
0000
0000
1000
0000
,
0010
0000
0000
1000
0000
0000
0001
0000
,
1000
0000
0000
0100
0000
0000
1000
0000
,
0001
0000
0000
0100
0000
0000
0001
0000
,
1000
0000
0000
0001
0000
0000
1000
0000
,
0002
0000
0000
1003
,
0001
0000
0000
1000
0000
0000
0100
0000
,
0010
0000
0000
0001
0000
0000
1000
0000
,
0010
0000
0000
1000
0000
0000
0010
0000
,
0100
0000
0000
0001
0000
0000
1000
0000
,
0100
0000
0000
1000
0000
0000
0001
0000
,
0100
0000
0000
0010
0000
0000
1000
0000
,
0001
0000
0000
0100
0000
0000
0010
0000
,
0200
0000
0000
0001
0000
0000
0310
0000
,
1000
0000
0000
0001
0000
0000
0010
0000
,
0100
0000
0000
1000
0000
0000
0001
0000
,
0100
0000
0000
0001
0000
0000
0100
0000
,
0010
0000
0000
1000
0000
0000
0001
0000
,
0010
0000
0000
0001
0000
0000
1000
0000
,
0010
0000
0000
0100
0000
0000
0001
0000
,
1000
0000
0000
0010
0000
0000
0100
0000
,
0020
0000
0000
1000
0000
0000
0130
0000
,
1000
0001
1000
0100
,
1000
0010
0100
0100
,
0001
1000
0001
0010
,
0001
0100
0010
0010
,
0100
0001
0100
0010
,
0100
0001
1000
1000
,
0200
0000
0020
0300
,
0002
0000
0030
0000
0000
0003
1001
0000
,
1000
0010
0100
0010
,
1000
0000
0010
0000
0100
0001
0000
0000
,
0100
0010
1000
0001
,
0010
0000
0100
0000
1000
0100
0000
0000
,
0010
0001
1000
0100
,
1000
0000
0001
0000
0100
0010
0000
0000
,
0100
0001
1000
0100
,
0010
0000
0001
0000
1000
0010
0100
0000
,
1001
0100
0001
0100
,
0010
0000
1000
0000
0001
0100
0000
0000
,
0010
1000
0100
0010
,
0001
0000
0100
0000
0010
1000
0001
1000
,
0000
0010
0000
0100
0000
0001
0000
1000
,
0000
0010
0000
0100
0001
0000
0000
0100
,
0000
0010
0000
1000
0000
0001
0000
1000
,
0000
0010
0000
1000
0001
0100
0000
0101
,
0000
0001
0000
1000
0000
0010
0000
1000
,
0000
0100
0000
0010
0000
0001
0000
1000
,
0000
0100
0000
1000
0000
0010
0000
0100
,
0000
0010
0000
1000
0000
0001
0000
1000
,
0000
0010
0000
0100
0000
0001
0000
0100
,
0000
0010
0000
1000
0000
0010
0000
1000
,
0000
0001
0000
0100
0000
0010
0000
1000
,
0000
0100
0000
0010
0000
0001
0000
1001
,
0000
0001
0000
0101
0000
0001
0000
0011
,
0000
0001
0000
1001
0000
1000
0000
1010
,
0000
1000
0000
1100
0000
0100
0000
0110
,
0000
0010
0000
0011
0000
0001
0000
1001
,
0000
0001
0000
0101
0000
0001
0000
1001
,
0000
1000
0000
1010
0000
1000
0000
1100
,
0000
1000
0000
0100
0000
0010
0000
0001
,
0000
1001
0000
0010
0100
0010
0000
1000
,
0001
0000
0100
0000
0000
0001
0010
0000
,
0100
0000
1000
0000
0010
0000
0000
1000
,
0010
0000
0100
0000
0000
0001
0100
0000
,
0010
0000
1000
0000
0010
1000
0010
1000
,
0000
0000
0001
0000
1000
0001
0000
0100
,
0000
0010
0000
0000
1000
0001
1000
0001
,
0000
0000
0000
0100
0000
0010
0000
1000
,
0000
0001
0000
0100
0000
0000
0001
0010
,
0001
0010
0100
0000
0000
1000
0100
0000
,
0000
1000
0000
0000
0001
0100
0001
0100
,
0010
1000
0010
0000
0100
0001
0100
0000
,
0010
0000
1000
0000
0001
1000
0000
0100
,
0000
0010
0000
0001
0000
1000
0100
0000
,
0010
0001
0000
1000
0000
0010
0000
0100
,
0000
0001
0000
0100
0000
0001
1000
0002
,
0000
2003
0000
3200
0000
0310
0000
0011
,
0000
0011
0000
0011
0000
0011
0000
0011
,
0000
0011
0000
1000
0001
1000
0001
1000
,
0000
1100
0000
1100
0000
1100
0000
1100
,
0000
1100
0000
1000
0001
1000
0001
1000
,
0000
0000
0100
0000
0000
0010
0000
0001
,
0000
0000
1000
0000
0000
0010
0000
0100
,
0000
0000
0001
0000
0000
1000
0000
0000
,
0001
0000
0000
0000
0000
0000
0100
0000
0000
0100
0000
0000
0100
0000
0000
0000
;

//---------------dance-single - ----------------
#NOTES:
     dance-single:
     :
     Beginner:
     2:
     0.231428,0.359437,0.170100,0.064800,0.000000,200.000000,179.000000,21.000000,8.000000,0.000000,0.000000,0.231428,0.359437,0.170100,0.064800,0.000000,200.000000,179.000000,21.000000,8.000000,0.000000,0.000000:
0000
0000
0000
0000
,
0000
0000
0000
0000
,
0000
0000
0000
0000
,
0000
0000
0000
0000
,
0000
0000
0000
0000
,
0001
0000
0000
0001
,
1000
0000
0000
1000
,
0001
0000
0000
0001
,
0200
0000
0000
0310
,
1000
0000
0000
0010
,
0100
0000
0000
0001
,
0100
0000
0000
0100
,
0010
0000
0000
0001
,
0010
0000
0000
1000
,
0010
0000
0000
0001
,
1000
0000
0000
0100
,
0020
0000
0000
0130
,
0001
0000
0000
0100
,
0010
0000
0000
1000
,
0010
0000
0000
0010
,
0100
0000
0000
1000
,
0100
0000
0000
0001
,
0100
0000
0000
1000
,
0001
0000
0000
0010
,
0200
0000
0000
0310
,
0001
0000
0001
0000
,
0001
0000
0010
0010
,
1000
0000
1000
0000
,
1000
0000
0100
0100
,
0010
0000
0010
0000
,
0010
0000
0001
0001
,
2000
0000
3002
0000
,
2003
0000
0000
0000
0000
3000
1001
0000
,
0001
0000
0010
0000
,
0001
0000
0010
0000
,
0010
0000
0001
0000
,
0100
0000
0001
0000
,
0100
0000
0001
0000
,
0001
0000
0010
0000
,
0010
0000
0001
0000
,
0100
0000
0001
0000
,
1000
0000
1000
0000
,
0100
0000
1000
0000
,
0100
0001
0000
0100
,
0000
0000
0010
0000
0000
0000
1000
0001
,
0000
0100
0000
0000
0000
1000
0000
0001
,
0000
0000
0000
0010
0000
0000
0000
0100
,
0000
0000
0000
0010
0000
0000
0000
1000
,
0000
0000
0000
0001
0000
0000
0000
1001
,
0000
0000
0000
1000
0000
0000
0000
0001
,
0000
0000
0000
0100
0000
0000
0000
0010
,
0000
0000
0000
1000
0000
0000
0000
0100
,
0000
0000
0000
0010
0000
0000
0000
0001
,
0000
0000
0000
0010
0000
0000
0000
0100
,
0000
0000
0000
1000
0000
0000
0000
0001
,
0000
0000
0000
0100
0000
0000
0000
0010
,
0000
0000
0000
0100
0000
0000
0000
1001
,
0000
0000
0000
1010
0000
0000
0000
1100
,
0000
0000
0000
1001
0000
0000
0000
0101
,
0000
0000
0000
0011
0000
0000
0000
0110
,
0000
0000
0000
1100
0000
0000
0000
1001
,
0000
0000
0000
1010
0000
0000
0000
1001
,
0000
0000
0000
0101
0000
0000
0000
0011
,
0000
0000
0000
0010
0000
0000
0000
1000
,
0000
0000
0000
0200
0000
0310
0000
0001
,
0000
0000
0010
0000
0000
1000
0000
0000
,
0010
0000
0000
0000
0100
0000
0000
0001
,
0000
0000
0010
0000
0000
1000
0000
0000
,
0100
0001
0000
0100
,
0000
0000
1000
0000
0000
1000
0000
0000
,
0000
0100
0000
0000
0001
0000
0000
0000
,
0000
0000
0000
0010
0000
0000
0000
0001
,
0000
0000
0000
0010
0000
0000
1000
0000
,
0000
0000
0010
0000
0000
0001
0000
0000
,
0000
0001
0000
0000
1000
0000
0000
0000
,
0100
0000
0010
0000
,
0100
0000
0000
0000
1000
0001
0000
0000
,
0000
0100
0000
0000
0000
0001
0000
0000
,
0100
0000
0000
0001
0000
0000
0000
0010
,
0000
0000
0000
0010
0000
0000
0000
0001
,
0000
0000
0000
0100
0000
0000
0000
1100
,
0000
0000
0000
1100
0000
0000
0000
1100
,
0000
0000
0000
0001
0000
0000
0000
0001
,
0000
0011
0000
0000
0000
0011
0000
0000
,
0000
0011
0000
0001
0000
0000
0000
0001
,
0000
0000
0000
0000
0000
0100
0000
1000
,
0000
0000
0000
0000
0000
0100
0000
0010
,
0000
0000
0000
0000
0000
0001
0000
0000
,
0000
0000
0000
0020
0000
0000
0130
0000
;
