#TITLE:Wenkamui;
#SUBTITLE:;
#ARTIST:Zektbach;
#TITLETRANSLIT:;
#SUBTITLETRANSLIT:;
#ARTISTTRANSLIT:;
#CREDIT:;
#BANNER:Wenkamui-bn.jpg;
#BACKGROUND:Wenkamui-bg.jpg;
#LYRICSPATH:;
#CDTITLE:;
#MUSIC:2-18 Wenkamui.mp3;
#OFFSET:0.000;
#SAMPLESTART:57.000;
#SAMPLELENGTH:12.000;
#SELECTABLE:YES;
#BPMS:0.000=135.000;
#STOPS:;
#BGCHANGES:;

//---------------dance-single - ----------------
#NOTES:
     dance-single:
     :
     Hard:
     13:
     0.705,0.856,0.473,0.227,0.237:
0000
0000
0010
1000
0001
0010
0100
1000
,
0001
0000
1000
0001
0100
0010
1000
0001
,
0100
0000
0001
0010
0100
1000
0001
1000
,
0010
0000
1000
0001
1000
0010
0100
0001
,
0010
0000
0100
1000
0001
0100
0010
1000
,
0001
0000
0100
0001
0010
0100
1000
0001
,
0010
0000
0100
1000
0001
0100
0010
0001
,
0010
0000
1000
0001
0010
0100
1000
0001
,
0100
0110
0010
1010
1000
1100
0100
0110
,
0020
0001
0031
1001
1000
1010
0010
0110
,
0200
1000
1300
1100
0100
0101
0001
0011
,
0020
0100
0130
1100
1000
1010
0010
0110
,
0200
0010
0310
1010
1000
0010
0100
0001
,
1000
1001
0001
0100
0010
1000
0001
0100
,
0001
1001
1000
0001
0100
0001
1000
0001
,
0010
0110
0100
1000
0010
0001
0010
1000
,
0100
0000
1100
0000
0000
1000
0001
0000
0100
0000
0010
0000
1000
0000
0001
0000
,
0100
0000
0110
0000
0000
0010
1000
0000
0001
0000
0010
0000
0100
0000
1000
0000
,
0001
0000
0101
0000
0000
0100
1000
0000
0100
0000
0001
0000
0010
0000
1000
0000
,
0010
0000
0011
0000
0000
0001
1000
0000
0010
0000
0100
0000
0001
0000
1000
0000
,
0010
0000
0110
0000
0000
0100
0010
0000
0100
0000
1000
0000
0100
0000
0001
0000
,
0010
0000
1100
0000
0000
0100
0010
0000
0001
0000
0010
0000
1000
0000
0010
0000
,
0001
0000
0101
0000
0000
0100
1000
0000
0001
0000
0010
0000
1000
0000
0001
0000
,
0010
0000
1010
0000
0000
1000
0010
0000
0001
0000
1000
0000
0010
0000
0100
0000
,
0010
0000
2010
0000
0000
0000
0000
0000
0010
0000
3001
0100
0001
0100
0001
0100
,
0001
0100
0001
0100
0001
0100
0001
0100
0001
0000
1010
0000
0000
0000
0101
0000
,
0000
1001
1000
0001
0200
0002
0000
0000
,
0300
0000
0013
0000
0000
0100
0000
0000
1000
0000
0100
0000
0000
0010
0000
0000
,
0001
0200
0000
0000
1000
1300
0100
0001
,
0100
1000
0100
0001
0010
1000
0010
0001
,
0010
1000
0010
0001
1000
0010
0000
0000
,
1001
0000
0110
0000
0000
1010
0000
0000
0101
0000
1001
0000
0000
0210
0000
0000
,
0000
0000
0310
1000
0100
0001
0100
1000
,
1020
0000
0130
0001
0010
1000
0001
0100
,
2100
0000
3001
0010
0100
1000
0010
0100
,
0001
0102
0000
1003
0010
1000
0100
1000
,
0001
0000
0100
0001
0010
1000
0010
0001
,
0201
0000
0310
1000
0100
0001
1000
0010
,
0012
0000
1003
0100
0010
0001
0100
0010
,
1000
2010
0010
3100
0100
0000
0010
0001
,
1000
0000
0000
0000
0010
1000
0010
0000
0100
0000
0001
0000
0100
0001
1000
0000
,
1020
0000
0000
0000
0130
0001
1000
0000
0010
0000
1000
0000
0001
0010
0100
0000
,
2100
0000
0000
0000
3001
1000
0010
0000
0100
0000
0001
0000
1000
0000
0100
0010
,
0001
0000
0102
0000
0000
0000
1003
0000
0010
0000
1000
0000
0100
1000
0001
0000
,
0101
0000
0000
0000
0100
0001
0100
0000
0010
0000
1000
0000
0010
1000
0001
0000
,
0201
0000
0000
0000
0310
0100
1000
0000
0100
0000
0001
0000
0010
0001
0010
0000
,
0012
0000
0000
0000
1003
0001
0100
0000
0010
0000
1000
0000
0001
0000
0010
0100
,
1000
0000
2010
0000
0010
0000
3100
1000
0100
0000
0000
0000
0010
0000
0001
0000
,
1000
0001
0001
0010
0010
0100
0100
1000
,
1000
0010
0010
0100
0100
1000
1000
0100
,
0100
0001
0001
0010
0010
0100
0100
1000
,
1000
0010
0010
0001
0001
0100
0100
1000
,
1000
0000
0001
0000
1000
0010
0100
0001
0010
0100
1000
0100
0010
0001
1000
0010
,
0100
0001
1000
0010
1000
0001
0100
0010
0100
1000
0100
0001
0010
0100
1000
0100
,
0010
0100
2000
0000
0000
0000
0000
0000
0000
0000
0020
0000
0000
0000
0000
0000
,
0000
0000
0000
0000
,
3030
0000
0000
0000
;

//---------------dance-single - Copied from----------------
#NOTES:
     dance-single:
     Copied from:
     Medium:
     10:
     0.489,0.524,0.108,0.473,0.010:
0000
0000
0000
0000
,
0000
0000
0000
0000
,
0000
0000
0000
0000
,
0000
0000
0000
0000
,
0000
0000
0000
0000
,
0000
0000
0000
0000
,
0000
0000
0000
0000
,
0000
0000
0000
0000
,
0000
0010
0010
1000
0001
1000
0010
0100
,
0001
0000
0100
0010
0100
0010
1000
0001
,
1000
0000
0001
1000
0001
0100
0001
1000
,
0010
0000
0100
0010
1000
0001
0010
0001
,
0010
0000
0100
1000
0001
0100
0010
1000
,
0001
0000
1000
0001
0010
0001
1000
0001
,
0010
0000
0100
1000
0001
0100
0010
1000
,
0010
0000
1000
0001
0010
0100
1000
0001
,
1000
2000
0000
3001
0100
0020
0000
1030
,
0001
0200
0000
0301
1000
0020
0000
1030
,
0001
0200
0000
0301
0010
0002
0000
1003
,
0010
2000
0000
3001
0100
0020
0000
1030
,
0001
0200
0000
0310
1000
0002
0000
0013
,
0100
2000
0000
3010
0100
0110
0000
0010
,
1000
1001
0000
0001
1000
1010
0000
0010
,
0100
0101
0000
0001
1000
1010
0000
0010
,
0100
0201
0000
0000
0302
2003
0010
0010
,
0010
0010
0010
0010
3010
1010
0000
1001
,
0000
1001
0000
0000
2000
0002
0000
0000
,
3000
0023
0000
0230
0000
2300
0000
3020
,
0000
0230
0000
0000
0010
0310
1000
0001
,
1000
0001
1000
0001
0100
0020
0000
2030
,
0000
3002
0000
0000
0100
0103
0000
0000
,
0010
0000
1000
0000
0000
0001
0000
0000
1000
0000
0001
0000
0000
0200
0000
0000
,
0000
0000
0310
0100
0001
0100
0010
1000
,
0020
0000
1030
0001
1000
0001
0100
0010
,
2000
0000
3001
1000
0100
1000
0010
0100
,
0001
0200
0000
0301
1000
0010
0100
0001
,
1001
0000
1000
0001
1000
0001
0100
0001
,
0200
0000
0310
1000
0010
0100
0001
0010
,
0002
0000
1003
0100
1000
0001
0100
0001
,
1000
0010
1000
0100
0010
0000
0001
0001
,
0001
0000
0100
0010
1000
0010
0100
0001
,
0200
0000
0301
1000
0001
1000
0010
0100
,
0002
0000
1003
0001
0010
0001
0100
0010
,
1000
0020
0000
1030
0001
0100
0010
1000
,
1001
0000
0001
1000
0001
1000
0010
1000
,
0020
0000
0130
0001
0100
0010
1000
0100
,
2000
0000
3001
0010
0001
1000
0010
1000
,
0001
0100
0001
0010
0100
0000
1000
1000
,
1000
0001
0001
0020
0000
0130
0100
2000
,
0000
3010
0010
0200
0000
0301
0001
2000
,
0000
3100
0100
0020
0000
0031
0001
2000
,
0000
3010
0010
0200
0000
0301
0001
0010
,
0001
2000
0000
0000
0000
3020
0000
0000
,
0000
2030
0000
0000
0000
3002
0000
0000
,
0000
2003
0000
0000
0000
0002
0000
0000
,
0000
0000
0000
0000
,
3003
0000
0000
0000
;

//---------------dance-single - Copied from Copied f----------------
#NOTES:
     dance-single:
     Copied from Copied f:
     Easy:
     6:
     0.317,0.442,0.089,0.424,0.000:
0000
0000
0000
0000
,
0000
0000
0000
0000
,
0000
0000
0000
0000
,
0000
0000
0000
0000
,
0000
0000
0000
0000
,
0000
0000
0000
0000
,
0000
0000
0000
0000
,
0000
0000
0000
0000
,
0000
0100
0000
0010
0000
1000
0000
0001
,
0000
1000
0000
0010
0000
0100
0000
0001
,
0000
1000
0000
0010
0000
1000
0000
0001
,
0000
1000
0000
0001
0000
0100
0000
0010
,
0000
0100
0000
0001
0000
1000
0000
0010
,
0000
0100
0000
0010
0000
0100
0000
0001
,
0000
1000
0000
0010
0000
1000
0000
0001
,
0000
1000
0000
0010
0000
0100
0000
0010
,
0000
2000
0000
3000
0000
0002
0000
0003
,
0000
2000
0000
3000
0000
0020
0000
0030
,
0000
0200
0000
0300
0000
0020
0000
0030
,
0000
2000
0000
3000
0000
0200
0000
0300
,
0000
0020
0000
0030
0000
0002
0000
0003
,
0000
0020
0000
0030
0000
0200
0000
0300
,
0000
2000
0000
3000
0000
0002
0000
0003
,
0000
0200
0000
0300
0000
0020
0000
0030
,
0000
1001
0000
0000
0000
0220
0000
0000
,
0000
0000
0000
0000
0330
1001
0000
1001
,
0000
1001
0000
0000
0100
0100
0000
0002
,
0000
0023
0000
0230
0000
2300
0000
3020
,
0000
0230
0000
0000
0010
0310
0000
0100
,
0000
0100
0000
0010
0000
0110
0000
0110
,
0000
1001
0000
0000
0100
0010
0000
0000
,
0000
0002
0000
1000
0000
1003
0000
0000
,
0000
0000
0010
0000
1000
0000
0001
1000
,
0001
0000
1000
0000
0001
0000
0100
0100
,
0100
0000
0001
0000
1000
0000
0001
0100
,
0001
0000
0000
0001
0000
1000
0000
0001
,
0000
0000
1000
0000
0001
0000
0100
0010
,
0100
0000
0010
0000
1000
0000
0001
0001
,
0001
0000
1000
0000
0010
0000
0100
0100
,
0100
0000
0010
0010
0010
0000
1000
1000
,
1000
0000
0010
0000
1000
0000
0001
1000
,
0001
0000
1000
0000
0001
0000
0100
0100
,
0100
0000
0001
0000
1000
0000
0001
0100
,
0001
0000
0000
0001
0000
1000
0000
0001
,
0000
0000
1000
0000
0001
0000
0100
0010
,
0100
0000
0010
0000
1000
0000
0001
0001
,
0001
0000
1000
0000
0010
0000
0100
0100
,
0100
0000
0010
0010
0010
0000
1000
1000
,
1000
0002
0000
2003
0000
3002
0000
2003
,
0000
3020
0000
0230
0000
0302
0000
0023
,
0000
0230
0000
2300
0000
3020
0000
0230
,
0000
0302
0000
2003
0000
3002
0000
0203
,
0000
0301
0000
0000
0000
1000
0000
0000
,
0000
0010
0000
0000
0000
0100
0000
0000
,
0000
2002
0000
0000
0000
0000
0000
0000
,
0000
0000
0000
0000
,
3003
0000
0000
0000
;

//---------------dance-single - Copied from Copied f----------------
#NOTES:
     dance-single:
     Copied from Copied f:
     Beginner:
     3:
     0.228,0.276,0.118,0.059,0.000: // measure 1
0000
0000
0000
0000
,  // measure 2
0000
0000
0000
0000
,  // measure 3
0000
0000
0000
0000
,  // measure 4
0000
0000
0000
0000
,  // measure 5
0000
0000
0000
0000
,  // measure 6
0000
0000
0000
0000
,  // measure 7
0000
0000
0000
0000
,  // measure 8
0000
0000
0000
0000
,  // measure 9
0000
0010
0000
0010
0000
1000
0000
1000
,  // measure 10
0000
0001
0000
0001
0000
0100
0000
0100
,  // measure 11
0000
0000
0000
0010
0000
0010
0000
1000
,  // measure 12
0000
1000
0000
0001
0000
0001
0000
0100
,  // measure 13
0000
0100
0000
0000
0000
1000
0000
0001
,  // measure 14
0000
1000
0000
0001
0000
0000
0000
0010
,  // measure 15
0000
0100
0000
0010
0000
0100
0000
0000
,  // measure 16
0000
0001
0000
1000
0000
0010
0000
1000
,  // measure 17
0000
1000
0000
0000
0000
0001
0000
0000
,  // measure 18
0000
0100
0000
0000
0000
0010
0000
0000
,  // measure 19
0000
0100
0000
0000
0000
0001
0000
0000
,  // measure 20
0000
1000
0000
0000
0000
0010
0000
0000
,  // measure 21
0000
0100
0000
0000
0000
0001
0000
0000
,  // measure 22
0000
1000
0000
0000
0000
0010
0000
0000
,  // measure 23
0000
1000
0000
0000
0000
0001
0000
0000
,  // measure 24
0000
0100
0000
0000
0000
0010
0000
0000
,  // measure 25
0000
2002
0000
0000
3003
0220
0000
0000
,  // measure 26
0000
0000
0000
0000
0330
1001
0000
0000
,  // measure 27
0000
1001
0000
0000
0000
0100
0000
0001
,  // measure 28
0000
0000
0000
0010
0000
0000
0000
1000
,  // measure 29
0000
0000
0000
0000
0000
0010
0000
0100
,  // measure 30
0000
0010
0000
0100
0000
0110
0000
0000
,  // measure 31
0000
1001
0000
0000
0000
1001
0000
0000
,  // measure 32
0000
0001
0000
1000
0000
0001
0000
0000
,  // measure 33
0000
0100
0000
0010
0000
0100
0000
0001
,  // measure 34
0001
0000
0000
1000
0000
0001
0000
0100
,  // measure 35
0100
0000
0000
0001
0000
1000
0000
0100
,  // measure 36
0100
0000
0000
0001
0000
1000
0000
0001
,  // measure 37
0000
1000
0000
0001
0000
1000
0000
0010
,  // measure 38
0010
0000
0000
0100
0000
0001
0000
1000
,  // measure 39
1000
0000
0000
0010
0000
0100
0000
0010
,  // measure 40
0010
0000
0000
0100
0000
0001
0000
1000
,  // measure 41
0000
0100
0000
0010
0000
0100
0000
0001
,  // measure 42
0001
0000
0000
1000
0000
0001
0000
0100
,  // measure 43
0100
0000
0000
0001
0000
1000
0000
0100
,  // measure 44
0100
0000
0000
0001
0000
1000
0000
0001
,  // measure 45
0000
1000
0000
0001
0000
1000
0000
0010
,  // measure 46
0010
0000
0000
0100
0000
0001
0000
1000
,  // measure 47
1000
0000
0000
0010
0000
0100
0000
0010
,  // measure 48
0010
0000
0000
0100
0000
0001
0000
1000
,  // measure 49
1000
0001
0000
1000
0000
0001
0000
0000
,  // measure 50
0000
0010
0000
0100
0000
0010
0000
0000
,  // measure 51
0000
0100
0000
0001
0000
1000
0000
0000
,  // measure 52
0000
0001
0000
1000
0000
0001
0000
1001
,  // measure 53
0000
0000
0000
0000
0000
1001
0000
0000
,  // measure 54
0000
0110
0000
0000
0000
1001
0000
0000
,  // measure 55
0000
2002
0000
0000
0000
0000
0000
0000
,  // measure 56
0000
0000
0000
0000
,  // measure 57
3003
0000
0000
0000
;
