#TITLE:Wanna Be Your Special;
#SUBTITLE:;
#ARTIST:Shoichiro Hirata feat SUIMI;
#TITLETRANSLIT:;
#SUBTITLETRANSLIT:;
#ARTISTTRANSLIT:;
#GENRE:;
#CREDIT:;
#BANNER:Wanna Be Your Special-bn.png;
#BACKGROUND:Wanna Be Your Special-bg.png;
#LYRICSPATH:;
#CDTITLE:;
#MUSIC:Wanna Be Your Special.mp3;
#OFFSET:0.060000;
#SAMPLESTART:51.880001;
#SAMPLELENGTH:12.000000;
#SELECTABLE:YES;
#BPMS:0.000000=137.000000
;
#STOPS:
;
#BGCHANGES:;
#KEYSOUNDS:;
#ATTACKS:;

//---------------dance-single - ----------------
#NOTES:
     dance-single:
     :
     Hard:
     13:
     0.641561,0.639327,0.390893,0.156357,0.364834,517.000000,472.000000,45.000000,18.000000,0.000000,0.000000,0.641561,0.639327,0.390893,0.156357,0.364834,517.000000,472.000000,45.000000,18.000000,0.000000,0.000000:
// measure 0
0000
1000
0001
1000
0001
1000
0001
1000
,  // measure 1
0001
1000
0010
0100
0010
0100
0010
0100
,  // measure 2
0010
0100
0001
0010
0001
0010
0001
0010
,  // measure 3
0001
1000
0010
1000
0100
1000
0010
1000
,  // measure 4
0100
0010
0001
0010
0100
1000
0100
0010
,  // measure 5
0001
0100
1000
0100
0001
0100
1000
0100
,  // measure 6
0001
0100
0010
1000
0100
0010
0100
1000
,  // measure 7
0001
0000
1001
0000
0000
1010
0000
0000
0101
0000
0000
1010
0000
0000
1001
0000
,  // measure 8
0000
0110
0000
0000
0101
0000
0000
1002
0000
0000
0000
0000
0000
0000
1003
0000
,  // measure 9
0001
0000
0100
0000
0000
0010
0000
0000
0100
0000
0000
0001
0000
0000
1000
0000
,  // measure 10
0010
0000
1000
0000
0000
0010
0000
0000
0100
0000
0000
0001
0000
0000
1000
0000
,  // measure 11
0010
0000
0100
0000
0000
0001
0000
0000
0010
0000
0000
0100
0000
0000
1000
0000
,  // measure 12
0100
0000
0010
0000
0000
0001
0000
0000
1000
0000
0000
0100
0000
0000
0010
0000
,  // measure 13
0001
0000
0010
0000
0000
0100
0000
0000
1000
0000
0000
0100
0000
0000
0010
0000
,  // measure 14
0100
0000
0010
0000
0000
0001
0000
0000
1000
0000
0000
0010
0000
0000
0100
0000
,  // measure 15
1000
0000
0100
0000
0000
0010
0000
0000
1000
0000
0000
0001
0000
0000
0102
0000
,  // measure 16
0000
1000
0000
0000
0100
0000
0000
1000
0000
0000
0100
0000
0000
1000
0000
0000
,  // measure 17
1003
0000
1010
0000
0000
0010
1000
0000
0001
0000
0010
0000
0000
0100
1000
0000
,  // measure 18
0010
0000
0100
0000
0000
0001
0100
0000
0010
0000
1000
0010
0000
0010
0100
0000
,  // measure 19
0001
0000
0010
0000
0000
1000
0010
0000
0001
0000
0100
0000
0000
1000
0100
0000
,  // measure 20
0001
0000
1000
0000
0000
0010
1000
0000
0001
0000
0100
0001
0000
0001
1000
0000
,  // measure 21
0010
0000
1000
0000
0000
0001
0010
0000
0100
0000
0010
0000
0000
0001
1000
0000
,  // measure 22
0010
0000
1000
0000
0000
0100
1000
0000
0010
0000
1000
0001
0000
0001
0100
0000
,  // measure 23
0010
0000
0100
0000
0000
0001
0100
0000
1000
0000
0100
0000
0000
0010
0100
0000
,  // measure 24
0001
0000
1000
0000
0000
0100
0010
0000
0100
0000
1000
0000
0000
0010
0100
0000
,  // measure 25
0001
0000
1000
0000
0000
0010
0001
0000
1000
0000
0100
0000
0000
0001
1000
0000
,  // measure 26
0010
0000
1000
0000
0000
0001
0100
0000
0001
0000
1000
0000
0000
0010
1000
0000
,  // measure 27
0001
0000
2000
0000
0000
0000
0000
0000
0002
0000
0000
0000
0000
0000
0000
3003
,  // measure 28
0000
1001
0000
0000
0110
0000
0000
1010
0000
0000
0110
0000
0000
0101
0000
0000
,  // measure 29
2020
0000
3030
0000
1001
0100
0001
1000
,  // measure 30
0010
0000
1001
0000
0000
0100
0001
0000
1000
0000
0100
0000
0010
0000
0001
0000
,  // measure 31
0000
0100
0010
0000
1000
0010
0000
0100
0010
0000
1000
0000
0010
0000
0100
0000
,  // measure 32
0001
0000
0010
0000
0000
0010
0100
0000
1000
0000
0010
0000
0001
0000
0010
0000
,  // measure 33
0000
1000
0001
0000
0010
0001
0000
0100
0001
0000
0100
0000
0010
0000
0100
0000
,  // measure 34
0001
0000
1000
0000
0000
0010
0100
0000
0010
0000
0100
0000
0001
0000
1000
0000
,  // measure 35
0000
0010
1000
0000
0100
0010
0000
0001
0010
0000
0100
0000
1000
0000
0100
0000
,  // measure 36
0010
0000
0001
0000
0000
0001
1000
0000
0001
0000
0010
0000
0100
0000
1000
0000
,  // measure 37
0000
0001
1000
0000
0010
1000
0000
0001
0100
0000
0001
0000
1000
0000
0010
0000
,  // measure 38
0100
0000
0110
0000
0000
0010
1000
0000
0001
0000
0010
0000
0100
0000
1000
0000
,  // measure 39
0000
0010
0100
0000
0001
0100
0000
0010
0100
0000
0001
0000
0100
0000
0010
0000
,  // measure 40
1000
0000
0100
0000
0000
0100
0010
0000
0001
0000
0100
0000
1000
0000
0100
0000
,  // measure 41
0000
0001
1000
0000
0100
1000
0000
0010
1000
0000
0010
0000
0100
0000
0010
0000
,  // measure 42
1000
0000
0001
0000
0000
0100
0010
0000
0100
0000
0010
0000
1000
0000
0001
0000
,  // measure 43
0000
0100
0001
0000
0010
0100
0000
1000
0100
0000
0010
0000
0001
0000
0010
0000
,  // measure 44
0100
0000
1000
0000
0000
1000
0001
0000
1000
0000
0100
0000
0010
0000
0001
0000
,  // measure 45
0000
1000
0001
0000
0100
0001
0000
1000
0010
0000
1000
0000
0001
0000
0100
0000
,  // measure 46
0010
1000
0001
0010
0100
1000
0100
0010
,  // measure 47
0001
1001
0100
0010
1000
0001
0100
0001
,  // measure 48
0010
0110
0100
0010
0001
1000
0010
0100
,  // measure 49
0001
1000
1002
0000
0203
0000
0320
0000
,  // measure 50
1030
1010
0100
0001
1000
0010
0100
0001
,  // measure 51
0010
0101
0001
1000
0010
0001
1000
0100
,  // measure 52
0001
1001
1000
0010
0100
0001
0010
0100
,  // measure 53
1000
0010
2001
0000
3020
0000
0230
0000
,  // measure 54
0301
1001
1000
0100
0010
0001
0010
0100
,  // measure 55
1000
1001
0010
0100
0001
1000
0010
1000
,  // measure 56
0100
0110
0010
0100
1000
0001
0100
0010
,  // measure 57
1000
0001
2001
0000
3020
0000
0230
0000
,  // measure 58
0301
0101
0010
1000
0001
0100
0010
1000
,  // measure 59
0100
1010
1000
0001
0100
1000
0001
0010
,  // measure 60
1000
1001
0001
0100
0010
1000
0100
0010
,  // measure 61
0001
0100
1002
0000
0203
0000
0320
0000
,  // measure 62
1030
0000
1001
0000
0000
0110
0000
0000
1010
0000
0000
0101
0000
0000
1010
0000
,  // measure 63
0000
1001
0000
0000
1010
0000
0000
0011
0000
0000
0101
0000
0000
1100
0000
0000
,  // measure 64
1010
0000
0000
0000
;

//---------------dance-single - Copied from----------------
#NOTES:
     dance-single:
     Copied from:
     Medium:
     7:
     0.420675,0.389156,0.034746,0.191103,0.134641,339.000000,335.000000,4.000000,22.000000,0.000000,0.000000,0.420675,0.389156,0.034746,0.191103,0.134641,339.000000,335.000000,4.000000,22.000000,0.000000,0.000000:
0000
2000
0000
0000
0000
0000
0000
0000
,
3000
0020
0000
0000
0000
0000
0000
0000
,
0030
0200
0000
0000
0000
0000
0000
0000
,
0300
0002
0000
0000
0000
0000
0000
0000
,
0003
1000
0010
0100
0000
0001
0100
0010
,
0000
0100
0010
0100
0000
0010
1000
0001
,
0000
0100
0010
1000
0000
0001
1000
0001
,
0000
0000
0001
0000
0000
0001
0000
0000
1000
0000
0000
1000
0000
0000
0010
0000
,
0000
0010
0000
0000
1000
0000
0000
1002
0000
0000
0000
0000
0000
0000
1003
0000
,
0001
0100
0000
0000
0010
0000
0000
1000
,
0001
0100
0000
0000
0001
0000
0000
1000
,
0100
0010
0000
0000
0001
0000
0000
0010
,
0100
1000
0000
0000
0100
0000
0000
0010
,
0100
0010
0000
0000
0001
0000
0000
1000
,
0100
1000
0000
0000
0001
0000
0000
0100
,
0010
1000
0000
0000
0001
0000
0000
0120
,
0000
0100
0000
0000
0100
0000
0000
0100
0000
0000
0100
0000
0000
0100
0000
0000
,
0030
1001
0000
1000
0001
1000
0000
0001
,
0010
0100
0000
1000
0010
0100
0000
0010
,
0100
0001
0000
1000
0010
0100
0000
0010
,
0100
0001
0000
0010
0001
0010
0000
0100
,
1000
0100
0000
0010
0001
0010
0000
0100
,
1000
0001
0000
1000
0010
0100
0000
0010
,
0100
0001
0000
0010
0100
1000
0000
0001
,
0100
0010
0000
0100
0001
0010
0000
0100
,
1000
0010
0000
1000
0100
0010
0000
0001
,
0010
0100
0000
0010
0100
1000
0000
0001
,
1000
0002
0000
0000
2000
0000
0000
3003
,
0000
0010
0000
0000
0100
0000
0000
0010
0000
0000
1000
0000
0000
0001
0000
0000
,
2002
0000
3003
0000
0001
0010
0100
1000
,
0001
1000
0000
0001
1000
0000
0001
1000
,
0000
0010
0000
0000
0010
0000
0000
0010
0000
0000
1000
0000
0010
0000
0100
0000
,
0001
0010
0000
0100
1000
0000
0001
0010
,
0000
0001
0000
0000
0001
0000
0000
0001
0000
0000
1000
0000
0010
0000
0100
0000
,
0001
1000
0000
0100
0010
0000
0001
1000
,
0000
0100
0000
0000
0100
0000
0000
0100
0000
0000
0010
0000
0001
0000
0010
0000
,
0100
1000
0000
0010
1000
0000
0001
0100
,
0000
0010
0000
0000
0010
0000
0000
0010
0000
0000
0100
0000
0001
0000
0010
0000
,
0100
1000
0000
1000
0001
0000
1000
0001
,
0000
0100
0000
0000
0100
0000
0000
0100
0000
0000
0001
0000
0100
0000
0010
0000
,
1000
0100
0000
0010
0001
0000
1000
0100
,
0000
1000
0000
0000
1000
0000
0000
1000
0000
0000
0001
0000
0100
0000
0010
0000
,
1000
0001
0000
0010
0100
0000
1000
0001
,
0000
0010
0000
0000
0010
0000
0000
0010
0000
0000
0100
0000
1000
0000
0100
0000
,
0010
0001
0000
0100
0001
0000
1000
0010
,
0000
0100
0000
0000
0100
0000
0000
0100
0000
0000
0010
0000
1000
0000
0100
0000
,
0010
0001
0000
1000
0001
1000
0000
0001
,
0010
0100
0000
1000
0010
0100
0000
0010
,
0100
0001
0000
1000
0010
0100
0000
0010
,
0100
0010
2000
0000
3002
0000
0203
0000
,
0300
0001
1000
0001
0000
1000
0100
0010
,
0000
0001
0100
0010
0000
0100
0010
1000
,
0000
0001
0100
0010
0000
0100
0010
1000
,
0010
0100
0002
0000
2003
0000
3020
0000
,
0030
1000
0001
1000
0000
0001
0010
0100
,
0000
1000
0010
0100
0000
0010
0100
0001
,
0000
1000
0010
0100
0000
0010
0100
0001
,
1000
0010
2000
0000
3020
0000
0230
0000
,
0300
0001
1000
0001
0000
1000
0100
0010
,
0000
0001
0100
0010
0000
0100
0010
1000
,
0000
0001
0100
0010
0000
0100
0010
1000
,
0010
1000
0002
0000
0203
0000
0320
0000
,
0030
0000
0100
0000
0000
0010
0000
0000
1000
0000
0000
0100
0000
0000
0010
0000
,
0000
0001
0000
0000
0010
0000
0000
1000
0000
0000
0100
0000
0000
0001
0000
0000
,
1000
0000
0000
0000
;

//---------------dance-single - Copied from Copied f----------------
#NOTES:
     dance-single:
     Copied from Copied f:
     Easy:
     4:
     0.244463,0.277968,0.017373,0.373520,0.004343,197.000000,195.000000,2.000000,43.000000,0.000000,0.000000,0.244463,0.277968,0.017373,0.373520,0.004343,197.000000,195.000000,2.000000,43.000000,0.000000,0.000000:
0000
0002
0000
0000
0000
0000
0000
0000
,
0003
0200
0000
0000
0000
0000
0000
0000
,
0300
0020
0000
0000
0000
0000
0000
0000
,
0030
2000
0000
0000
0000
0000
0000
0000
,
3000
0002
0000
0000
0000
0000
0000
0000
,
0003
0200
0000
0000
0000
0000
0000
0000
,
0300
0020
0000
0000
0000
0000
0000
0000
,
0030
1000
0000
0000
0001
0000
0000
0100
,
0000
0000
0000
0000
0001
0000
0000
2000
0000
0000
0000
0000
0000
0000
3001
0000
,
0000
1000
0000
0000
0100
0000
0000
0010
,
0000
0001
0000
0000
1000
0000
0000
0001
,
0000
0100
0000
0000
0010
0000
0000
1000
,
0000
0001
0000
0000
0100
0000
0000
0010
,
0000
1000
0000
0000
0001
0000
0000
1000
,
0000
0001
0000
0000
1000
0000
0000
0010
,
0000
0001
0000
0000
1000
0000
0000
0220
,
0000
0000
0000
0000
,
0330
0100
0000
0001
0000
1000
0000
0001
,
0000
0010
0000
0100
0000
0010
0000
0100
,
0000
0010
0000
0001
0000
1000
0000
0100
,
0000
1000
0000
0010
0000
0001
0000
1000
,
0000
0010
0000
0100
0000
0001
0000
1000
,
0000
0010
0000
0100
0000
0001
0000
0010
,
0000
0100
0000
1000
0000
0100
0000
0010
,
0000
0100
0000
0010
0000
0001
0000
0010
,
0000
0001
0000
1000
0000
0100
0000
1000
,
0000
0010
0000
0100
0000
0001
0000
0100
,
0001
2000
0000
0000
0002
0000
0000
0000
,
0000
0000
0000
3003
,
2002
0000
3003
0000
0010
0100
0010
0100
,
0010
0100
0000
0000
0002
0000
0000
2003
,
0000
0000
0000
0000
0000
3001
0000
0010
,
0000
0100
0000
0000
2000
0000
0000
3200
,
0000
0000
0300
0000
0000
0010
0000
0001
,
0000
1000
0000
0000
2000
0000
0000
3002
,
0000
0000
0000
0000
0000
0103
0000
0010
,
0000
1000
0000
0001
2000
0000
0000
3020
,
0000
0000
0000
0000
0000
0030
0000
1000
,
0000
0001
0000
1000
0020
0000
0000
0230
,
0000
0000
0000
0000
0000
0310
0000
0100
,
0000
0001
0000
0000
2000
0000
0000
3002
,
0000
0000
0000
0000
0000
1003
0000
0010
,
0000
0100
0000
0001
0200
0000
0000
0302
,
0000
0000
0000
0000
0000
0103
0000
0010
,
0000
1000
0000
0000
2000
0000
0000
3002
,
0000
0000
0000
0000
0000
0013
0000
0100
,
0000
1000
0000
0001
0000
0100
0000
0010
,
0000
0100
0000
0001
0000
0010
0000
0100
,
0000
1000
0000
0001
0000
0010
0000
0100
,
0000
1000
0002
0000
2003
0000
3020
0000
,
0030
1000
0000
0010
0000
0100
0000
0001
,
0000
1000
0000
0100
0000
0010
0000
0001
,
0000
1000
0000
0100
0000
0010
0000
0001
,
0000
1000
2000
0000
3002
0000
0203
0000
,
0300
0001
0000
0100
0000
0010
0000
0100
,
0000
0001
0000
0010
0000
0100
0000
1000
,
0000
0001
0000
0010
0000
0100
0000
1000
,
0000
0001
0002
0000
0203
0000
0320
0000
,
0030
1000
0000
0010
0000
0100
0000
0010
,
0000
1000
0000
0100
0000
0010
0000
0001
,
0000
1000
0000
0100
0000
0010
0000
0001
,
0000
1000
2000
0000
3020
0000
0230
0000
,
0300
0020
0000
0000
0100
0000
0000
0100
,
0000
0000
0100
0000
0000
0100
0000
0000
,
0130
0000
0000
0000
;

//---------------dance-single - Copied from Copied from Copied f----------------
#NOTES:
     dance-single:
     Copied from Copied from Copied f:
     Beginner:
     2:
     0.157598,0.250172,0.000000,0.356147,0.000000,127.000000,127.000000,0.000000,41.000000,0.000000,0.000000,0.157598,0.250172,0.000000,0.356147,0.000000,127.000000,127.000000,0.000000,41.000000,0.000000,0.000000:
0000
2000
0000
0000
0000
0000
0000
0000
,
3000
0020
0000
0000
0000
0000
0000
0000
,
0030
0200
0000
0000
0000
0000
0000
0000
,
0300
0002
0000
0000
0000
0000
0000
0000
,
0003
2000
0000
0000
0000
0000
0000
0000
,
3000
0020
0000
0000
0000
0000
0000
0000
,
0030
0200
0000
0000
0000
0000
0000
0000
,
0300
0001
0000
0000
1000
0000
0000
0010
,
0000
0000
1000
0000
0001
0000
0000
1000
,
0000
0001
0000
0000
0000
0000
0000
0100
,
0000
1000
0000
0000
0000
0000
0000
1000
,
0000
0010
0000
0000
0000
0000
0000
0001
,
0000
1000
0000
0000
0000
0000
0000
0100
,
0000
0001
0000
0000
0000
0000
0000
0001
,
0000
1000
0000
0000
0000
0000
0000
0100
,
0000
1000
0000
0000
0000
0000
0000
0002
,
0000
0000
0000
0000
,
0003
0010
0000
0000
0000
0001
0000
0000
,
0000
0100
0000
0000
0000
0100
0000
0000
,
0000
0100
0000
0000
0000
0001
0000
0000
,
0000
0001
0000
0000
0000
1000
0000
0000
,
0000
0100
0000
0000
0000
1000
0000
0000
,
0000
0100
0000
0000
0000
1000
0000
0000
,
0000
0010
0000
0000
0000
0010
0000
0000
,
0000
0010
0000
0000
0000
1000
0000
0000
,
0000
2000
0000
0000
3000
0010
0000
0000
,
0000
0100
0000
0000
0000
1000
0000
1000
,
0000
0002
0000
0000
2000
0000
0000
0000
,
0000
0000
0000
3003
,
0020
0000
0030
0000
0100
0010
0100
0010
,
0100
0010
0000
0000
2000
0000
0000
3002
,
0000
0000
0000
0000
0000
1003
0000
0000
,
0000
0010
0000
0000
0002
0000
0000
0023
,
0000
0000
0030
0000
0000
0100
0000
0000
,
0000
0001
0000
0000
0002
0000
0000
2003
,
0000
0000
0000
0000
0000
3010
0000
0000
,
0000
0001
0000
0000
0002
0000
0000
0203
,
0000
0000
0000
0000
0000
0300
0000
0001
,
0000
0000
0000
0001
0200
0000
0000
0320
,
0000
0000
0000
0000
0000
0130
0000
0000
,
0000
1000
0000
0000
0002
0000
0000
2003
,
0000
0000
0000
0000
0000
3001
0000
0000
,
0000
0010
0000
0000
0020
0000
0000
2030
,
0000
0000
0000
0000
0000
3010
0000
0000
,
0000
0001
0000
0000
0002
0000
0000
2003
,
0000
0000
0000
0000
0000
3100
0000
0000
,
0000
0001
0000
1000
0000
0000
0000
0100
,
0000
0000
0000
1000
0000
0000
0000
0010
,
0000
0000
0000
1000
0000
0000
0000
0010
,
0000
2000
3002
0203
,
0300
0000
0000
0010
0000
0000
0000
0001
,
0000
0000
0000
0100
0000
0000
0000
0010
,
0000
0000
0000
0010
0000
0000
0000
1000
,
0000
0002
2003
3020
,
0030
0000
0000
0010
0000
0000
0000
0010
,
0000
1000
0000
0000
0000
0010
0000
0000
,
0000
1000
0000
0000
0000
0010
0000
0000
,
0000
0001
2000
0000
3020
0000
0230
0000
,
0300
0000
0000
0100
0000
0000
0000
0100
,
0000
0000
0000
0010
0000
0000
0000
1000
,
0000
0000
0000
0010
0000
0000
0000
1000
,
0000
0002
0203
0320
,
0030
0200
0000
0000
0000
0000
0000
0000
,
0000
0000
0000
0000
,
0300
0000
0000
0000
;
