#VERSION:0.81;
#TITLE:Wanna Be Your Special;
#SUBTITLE:(Remix ver.);
#ARTIST:Shoichiro Hirata feat. SUIMI;
#TITLETRANSLIT:;
#SUBTITLETRANSLIT:;
#ARTISTTRANSLIT:;
#GENRE:;
#ORIGIN:;
#CREDIT:;
#BANNER:;
#BACKGROUND:;
#PREVIEWVID:;
#JACKET:Wanna Be Your Special (Remix ver.)-jacket.png;
#CDIMAGE:;
#DISCIMAGE:;
#LYRICSPATH:;
#CDTITLE:;
#MUSIC:Wanna Be Your Special (Remix ver.).mp3;
#OFFSET:0.340000;
#SAMPLESTART:98.039993;
#SAMPLELENGTH:12.000000;
#SELECTABLE:YES;
#BPMS:0.000=137.000;
#STOPS:;
#DELAYS:;
#WARPS:;
#TIMESIGNATURES:0.000=4=4;
#TICKCOUNTS:0.000=4;
#COMBOS:0.000=1;
#SPEEDS:0.000=1.000=0.000=0;
#SCROLLS:0.000=1.000;
#FAKES:;
#LABELS:0.000=Song Start;
#BGCHANGES:;
#KEYSOUNDS:;
#ATTACKS:
;

//---------------dance-single - ----------------
#NOTEDATA:;
#CHARTNAME:;
#STEPSTYPE:dance-single;
#DESCRIPTION:;
#CHARTSTYLE:;
#DIFFICULTY:Hard;
#METER:14;
#RADARVALUES:0.723160,0.786245,0.230796,0.338501,0.515444,584.000000,30.000000,44.000000,0.000000,0.000000,0.000000,0.000000,0.000000,0.723160,0.786245,0.230796,0.338501,0.515444,584.000000,30.000000,44.000000,0.000000,0.000000,0.000000,0.000000,0.000000;
#CREDIT:;
#NOTES:
0000
0000
0000
0000
0000
0000
0000
0000
0000
0000
0000
0000
0100
0000
0000
0000
0010
0000
0000
0000
0100
0000
0000
0000
0010
0000
0000
0000
0000
0000
0000
0000
0000
0000
0000
0000
1000
0000
0000
0001
0000
0000
1000
0000
0000
0001
0000
0000
,
1000
0001
0100
0000
0001
0100
0001
0100
0001
0100
0010
0000
1000
0001
1000
0001
,
1000
0001
0010
0000
0100
1000
0100
1000
0100
1000
0010
0000
1000
0001
0100
0001
,
1000
0001
0100
0000
0010
1000
0001
1000
0010
1000
0001
0000
0010
0100
1000
0100
,
0010
0100
1000
0000
0001
0000
0101
0000
1000
0000
1100
0000
0001
1000
0001
1000
,
0001
1000
0010
0000
1000
0010
1000
0010
1000
0010
0100
0000
0001
1000
0001
1000
,
0001
1000
0100
0000
0010
0001
0010
0001
0010
0001
0100
0000
0001
1000
0010
1000
,
0001
1000
0010
0000
0100
0001
1000
0001
0100
0001
1000
0000
0100
0010
0001
0010
,
0100
0010
0001
0000
1000
0000
1010
0000
0001
0000
0101
0000
1000
0010
0100
0010
,
0100
0001
1000
0000
0001
0100
0010
0100
0010
1000
0001
0000
1000
0100
0010
0001
,
0010
0100
1000
0000
0010
1000
0001
0100
0010
1000
0001
0000
1000
0010
0100
0010
,
1000
0010
0100
0000
0010
0100
0001
0100
0010
0100
0001
0000
1000
0100
0001
0100
,
1000
0010
0001
0000
0010
0000
0101
0000
1000
0000
1001
0000
0010
0000
0000
0000
,
1000
0001
0100
0010
,
1000
0100
0010
0001
,
0100
1000
0100
0001
,
0010
0000
0100
0000
1000
0000
0010
1000
,
0001
0100
0010
1000
0100
0010
0001
0100
,
0010
0000
1000
0000
0100
0000
0010
0000
0001
0000
1000
0000
0001
0100
0001
0010
,
0100
1000
0100
1000
0010
0100
0010
0100
0001
0010
0001
1000
0100
0000
0100
0000
,
0010
0010
0001
0001
1000
1000
2002
3003
,
0010
0200
0000
0320
0000
2030
0000
0002
,
0000
0000
0000
0000
0000
3003
0001
0000
,
1000
0020
0000
0200
0000
0000
0000
0000
,
0000
0000
0000
0330
0001
1000
0001
0000
,
0100
0020
0000
2030
0000
3002
0000
0200
,
0000
0000
0000
0000
0000
0303
0010
0000
,
1000
0001
0000
0100
0020
0000
0000
0000
,
0000
0000
0000
0000
0000
0000
0000
0000
0130
0000
0001
0000
1000
0000
0000
0001
,
1000
0000
0010
0000
0100
0000
0000
0010
0100
0000
0001
0000
1000
0000
0000
0100
,
0010
0000
0001
0000
1000
0010
0000
0100
0010
0000
0100
0000
0001
0000
0000
1000
,
0010
0000
0100
0000
0010
0000
0000
0100
0001
0000
1000
0000
0100
0000
0000
0010
,
0001
0000
1000
0000
0100
0010
0000
0100
0001
0000
0100
0000
1000
0000
0000
0010
,
1000
0000
0001
0000
0100
0000
0000
0001
1000
0000
0100
0000
1000
0000
0000
0010
,
0100
0000
0001
0000
0010
0100
0000
1000
0100
0000
0010
0000
0002
0000
0000
0000
,
0013
0100
0000
1000
0001
0000
1000
0010
,
0000
0100
0000
0000
0001
0000
0000
0010
0000
0000
0001
0000
0100
0000
0000
0010
,
0000
0000
1000
0000
0000
0001
0000
0000
0100
0000
0000
0001
0000
0000
0010
0000
,
0000
0100
0000
0000
0010
0000
0000
0001
0000
0000
1000
0000
0001
0000
0000
1000
,
0000
0000
0010
0000
0000
0100
0000
0000
0001
0000
0000
0010
0000
0000
0001
0000
,
0000
0100
0000
0000
1000
0000
0000
0100
0000
0000
1001
0000
0001
0000
1000
0000
,
0001
0000
0100
0000
0010
0000
1000
0000
0010
0000
0100
0000
0001
0000
0100
0010
,
0100
0001
1000
0001
1000
0000
0002
0000
2000
0000
3003
0000
1100
0000
0100
0000
,
0110
0000
0001
0000
1000
0010
1000
0001
0100
0001
0100
0000
0020
0000
2030
0000
,
3001
0000
0100
0010
0100
0000
0010
0000
1001
0000
0100
0000
0001
0000
0010
0000
,
0100
0000
1000
0000
0010
0000
0100
0000
0001
1000
0010
1000
0001
0000
0100
0010
,
0100
0010
1000
0001
1000
0000
0100
0000
1100
0000
0002
0000
0023
0000
0130
0000
,
1000
0000
0100
0000
0010
0000
0002
0000
0000
0013
0000
0000
0002
0000
0000
0103
0000
0000
0020
0000
0000
1030
0000
0000
,
0020
0130
0020
0031
0020
1030
2001
0000
,
3010
0100
0001
0100
0210
0000
0301
0001
,
0010
0100
1000
0100
0012
0010
0103
1000
,
0001
0100
0100
0010
2000
3001
1010
1010
,
0200
0000
0301
0010
0010
0100
2100
0000
,
3100
0010
0011
0001
2000
3010
2001
0000
,
3100
0010
0011
0002
1003
0010
0110
0110
,
0001
0000
0000
0000
0000
0000
1000
0000
0000
0001
0000
0000
1000
0000
0000
0000
0000
0000
0010
0000
0000
0000
0000
0000
0100
0000
0000
0000
0000
0000
0010
0000
0000
0000
0100
0000
0010
0000
0000
0000
0000
0000
0000
0000
0000
0000
0000
0000
,
0000
0000
0010
0110
0100
1001
2000
0000
,
3001
0000
0100
0000
0000
0000
0100
0000
0010
0000
0000
0000
1000
0010
0100
0001
,
1000
0010
0100
0000
0001
0000
0010
0000
0100
0000
1000
0000
1000
0000
0000
0000
,
0010
0000
0100
0000
0001
0000
1000
0000
0001
0000
0000
0000
0010
0001
0010
0001
,
0010
0001
1000
0000
0010
0000
0100
0000
0001
0000
0100
0000
0020
0000
0000
0000
,
1030
0000
0001
0000
0010
0000
0001
0000
0100
0000
0000
0000
0010
1000
0010
1000
,
0010
1000
0001
0000
0100
0000
0010
0000
1000
0000
0100
0000
0010
0000
0000
0000
,
0001
1000
0010
1000
0200
0000
0320
0000
,
0032
0000
1003
0010
1000
0001
0200
0000
,
0310
0000
1000
0000
0000
0000
0001
0000
0100
0000
0000
0000
0001
0010
0100
1000
,
0100
0010
0001
0000
1000
0000
0100
0000
0010
0000
0001
0000
0100
0000
0000
0000
,
0001
0000
0100
0000
0000
0000
0010
0000
1000
0000
0000
0000
0100
1000
0100
1000
,
0100
1000
0001
0000
0100
0000
0010
0000
1000
0000
0010
0000
0200
0000
0000
0000
,
0301
0000
1000
0000
0100
0000
1000
0000
0010
0000
0000
0000
0100
0001
0100
0001
,
0100
0001
1000
0000
0010
0000
0100
0000
0001
0000
0010
0000
0100
0000
0000
0000
,
1000
0001
0100
0001
1000
0000
0110
0000
,
1001
0110
1001
0220
,
0330
0000
0000
0000
;

//---------------dance-single - ----------------
#NOTEDATA:;
#CHARTNAME:;
#STEPSTYPE:dance-single;
#DESCRIPTION:;
#CHARTSTYLE:;
#DIFFICULTY:Medium;
#METER:12;
#RADARVALUES:0.486869,0.589683,0.107705,0.338501,0.046159,385.000000,14.000000,44.000000,0.000000,0.000000,0.000000,0.000000,0.000000,0.486869,0.589683,0.107705,0.338501,0.046159,385.000000,14.000000,44.000000,0.000000,0.000000,0.000000,0.000000,0.000000;
#CREDIT:;
#NOTES:
0000
0000
0000
1000
,
0001
1000
0010
0100
,
0001
0010
0100
1000
,
0010
0100
0001
1000
,
0010
0000
1000
0100
0001
0100
1000
0000
,
0001
0100
0001
0000
1000
0010
1000
0000
,
0010
1000
0100
0010
,
0001
0100
0001
1000
,
0100
0010
0001
0100
1000
0100
0001
0000
,
0100
0010
0100
0000
0001
0010
0100
1000
,
0100
0010
0100
1000
0001
0010
0001
1000
,
0100
1000
0010
0100
0001
0100
0001
1000
,
0100
1000
0010
0100
0001
0100
1001
0000
,
0001
1000
0010
0100
,
0001
0010
0100
1000
,
0010
0001
0010
1000
,
0100
0000
0010
0000
0001
0000
0100
0001
,
1000
0010
0100
0001
0010
0100
1000
0010
,
0100
0001
0010
0100
1000
0001
0100
0100
,
0001
0001
1000
1000
0010
0010
0100
0100
,
0100
0100
0100
0100
0100
0100
1001
0000
,
0010
0100
0000
0100
0000
0002
0000
2000
,
0000
0000
0000
0000
0000
3003
0010
0000
,
0100
0002
0000
2000
0000
0000
0000
0000
,
0000
0000
0000
3003
0010
0100
0010
0000
,
1000
0001
0000
0100
0000
0020
0000
0200
,
0000
0000
0000
0000
0000
0330
0001
0000
,
1000
0001
0000
1000
0200
0000
0000
0000
,
0000
0000
0000
0000
0310
0001
1000
0000
,
0010
0100
0010
0000
1000
0001
2000
0000
,
0010
0000
0001
0000
3010
0000
0001
1000
,
0001
0000
1000
0010
1000
0000
0001
0100
,
0002
1000
0100
1003
,
0010
0100
0010
0000
0100
0001
0100
0000
,
0010
1000
0020
0000
1000
0000
0100
0000
,
1030
0000
1000
0000
0010
0000
1000
0001
,
0000
0100
0000
0000
0010
0000
0000
1000
0000
0000
0001
0000
0100
0000
0000
0010
,
0000
0000
1000
0000
0000
0010
0000
0000
1000
0000
0000
0100
0000
0000
0010
0000
,
0000
0001
0000
0000
0100
0000
0000
0001
0000
0000
1000
0000
0001
0000
0000
0100
,
0000
0000
0100
0000
0000
0100
0000
0000
0010
0000
0000
0010
0000
0000
0010
0000
,
0000
1000
0000
0000
1000
0000
0000
1000
0000
0000
0010
0000
0100
0000
0001
0000
,
0100
0010
1000
0010
0100
0001
1000
0100
,
0010
0100
1000
0002
2000
3003
0220
0330
,
2002
3003
0100
0100
0001
1000
0020
0000
,
0130
0100
0001
1000
0001
0100
0002
0000
,
2003
0000
3010
0100
0010
1000
0010
0010
,
0100
0001
0001
1000
0200
0000
0320
0000
,
0032
0003
0002
0003
0002
0003
2000
3000
,
2000
3000
2000
3000
0020
0030
2002
3003
,
0010
1000
0001
1000
0200
0000
0310
0001
,
0010
0100
2000
0000
3001
0001
0100
0100
,
0001
1000
0020
0000
0130
0000
1001
1001
,
0020
0000
0130
0000
0001
0001
2000
0000
,
3100
0010
0001
0000
1000
0010
2000
0000
,
3001
0100
0020
0000
0130
0000
0110
0110
,
1000
0001
1000
0010
0100
0010
0000
0000
,
0000
1000
0010
1000
0001
0100
0002
0000
,
1003
0010
0000
1000
0001
0000
1000
0010
,
1000
0010
0100
0001
0100
0001
1000
0000
,
0010
0100
0000
0100
0001
0000
0000
0000
,
0000
1000
0001
1000
0010
1000
0002
0000
,
1003
0100
0000
0100
1000
0000
0000
0000
,
0000
0000
0001
0010
0100
1000
0100
0000
,
0010
0001
0000
0001
0200
0000
0010
0000
,
0301
0000
1000
0010
1000
0010
0200
0000
,
0301
0010
0000
0010
0100
0000
0000
0000
,
0000
0000
1000
0100
1000
0100
0010
0000
,
0001
0010
0000
0010
0001
0000
0000
0000
,
0000
1000
0001
0010
0001
0100
0020
0000
,
1030
0001
0000
0001
1000
0000
0000
0000
,
0000
0000
0001
0100
0001
1000
0010
0000
,
1000
0001
0000
0001
1000
0000
1001
0000
,
1001
1001
1001
0220
,
0330
0000
0000
0000
;

//---------------dance-single - ----------------
#NOTEDATA:;
#CHARTNAME:;
#STEPSTYPE:dance-single;
#DESCRIPTION:;
#CHARTSTYLE:;
#DIFFICULTY:Easy;
#METER:4;
#RADARVALUES:0.324213,0.421202,0.069239,0.346194,0.003847,241.000000,9.000000,45.000000,0.000000,0.000000,0.000000,0.000000,0.000000,0.324213,0.421202,0.069239,0.346194,0.003847,241.000000,9.000000,45.000000,0.000000,0.000000,0.000000,0.000000,0.000000;
#CREDIT:;
#NOTES:
// measure 0
0000
0000
0000
0001
,  // measure 1
0000
0001
0000
0010
,  // measure 2
0000
0100
0000
0001
,  // measure 3
0000
0010
0000
0001
,  // measure 4
0000
0001
1000
1001
,  // measure 5
0000
0001
0000
1000
,  // measure 6
0000
0010
0000
0100
,  // measure 7
0000
0001
0000
0010
,  // measure 8
0010
0100
1000
1010
,  // measure 9
0000
0000
0010
0000
1000
0000
0001
1000
,  // measure 10
0000
1000
0000
0010
0000
0010
0000
0100
,  // measure 11
0000
0100
0000
0001
0000
0001
0000
1000
,  // measure 12
0000
1000
0000
0010
0000
0010
1001
0000
,  // measure 13
0001
0001
0001
0001
,  // measure 14
1000
1000
1000
1000
,  // measure 15
0010
0010
0010
0010
,  // measure 16
0100
0100
0100
0010
,  // measure 17
0100
0100
0001
0001
,  // measure 18
1000
1000
0010
0020
,  // measure 19
2030
0000
3002
0000
2003
0000
3010
0010
,  // measure 20
0010
0010
0010
0010
0010
0010
1001
0000
,  // measure 21
0000
0100
0000
0010
0000
2000
0000
0002
,  // measure 22
0000
0000
0000
0000
0000
3003
0100
0000
,  // measure 23
0000
1000
0000
0002
0000
0000
0000
0000
,  // measure 24
0000
0000
0103
0100
,  // measure 25
0000
1000
0000
0010
0000
0100
0000
0002
,  // measure 26
0000
0000
0000
1003
,  // measure 27
0001
0000
0020
0000
,  // measure 28
0000
0000
0130
0001
,  // measure 29
1000
0010
1000
0002
,  // measure 30
0100
0100
0103
0010
,  // measure 31
1000
0001
0100
0010
,  // measure 32
2000
0001
0001
3001
,  // measure 33
0100
0010
1000
0001
,  // measure 34
1000
0200
1000
1000
,  // measure 35
1300
0001
0100
0001
,  // measure 36
0100
0010
1000
0001
,  // measure 37
0100
0001
1000
0100
,  // measure 38
0010
0001
0010
0100
,  // measure 39
0000
2000
0000
0000
0000
0000
0000
0000
,  // measure 40
0000
0000
0000
0000
3001
0000
0000
0001
0000
0000
0100
0000
0010
0000
0000
0000
,  // measure 41
1000
0001
0100
0010
,  // measure 42
0001
0000
2000
0000
0002
3000
0023
0000
,  // measure 43
0230
1300
0001
2000
,  // measure 44
3001
0100
0010
2000
,  // measure 45
3020
0130
0100
0100
,  // measure 46
0010
1000
0020
0230
,  // measure 47
0302
0000
2003
3000
2000
3000
2000
3000
,  // measure 48
0002
0003
0002
0003
0002
0003
2002
3003
,  // measure 49
0100
0010
0020
0130
,  // measure 50
1000
0002
1003
0010
,  // measure 51
1000
0000
0200
0000
0310
0000
0010
0010
,  // measure 52
0020
0130
1000
0002
,  // measure 53
0013
1000
0001
0002
,  // measure 54
1003
0000
0020
0000
0130
0000
0001
0001
,  // measure 55
0001
1000
0010
0000
,  // measure 56
0000
0100
1000
2000
,  // measure 57
3000
0001
0000
0000
1000
0000
0000
0000
,  // measure 58
0000
0010
0010
0001
,  // measure 59
0000
0010
0000
0000
1000
0000
0000
0000
,  // measure 60
0000
1000
0001
2000
,  // measure 61
3000
0010
0000
0000
0100
0000
0000
0000
,  // measure 62
0000
1000
0010
0010
,  // measure 63
0000
1000
0000
0000
0002
0000
0000
0000
,  // measure 64
0003
0001
0100
0020
,  // measure 65
0030
1000
0000
0000
0010
0000
0000
0000
,  // measure 66
0000
0001
1000
0010
,  // measure 67
0000
0100
0000
0000
0002
0000
0000
0003
,  // measure 68
0000
1000
0010
0200
,  // measure 69
0300
0010
0000
0000
1000
0000
0000
0000
,  // measure 70
0000
1000
0001
1000
,  // measure 71
0000
0010
0000
0000
0100
0000
1001
0000
,  // measure 72
1001
1001
1001
0200
,  // measure 73
0300
0000
0000
0000
;

//---------------dance-single - ----------------
#NOTEDATA:;
#CHARTNAME:;
#STEPSTYPE:dance-single;
#DESCRIPTION:;
#CHARTSTYLE:;
#DIFFICULTY:Beginner;
#METER:2;
#RADARVALUES:0.191231,0.224641,0.000000,0.200023,0.000000,148.000000,0.000000,26.000000,0.000000,0.000000,0.000000,0.000000,0.000000,0.191231,0.224641,0.000000,0.200023,0.000000,148.000000,0.000000,26.000000,0.000000,0.000000,0.000000,0.000000,0.000000;
#CREDIT:;
#NOTES:
0000
0000
0000
0000
,
0000
0000
0000
0000
,
0000
0000
0000
0000
,
0000
0000
0000
0000
,
0000
0001
1000
0001
,
0000
0000
0000
0000
,
0000
0000
0000
0000
,
0000
0000
0000
0000
,
0000
1000
0001
1000
,
0000
0000
0000
0000
0000
0000
0000
1000
,
0000
1000
0000
0010
0000
0010
0000
0100
,
0000
0100
0000
0001
0000
0001
0000
1000
,
0000
1000
0000
0010
0000
0010
0100
0000
,
0001
0000
0001
0000
,
1000
0000
1000
0000
,
0010
0000
0010
0000
,
0100
0000
0100
0000
,
0100
0000
0001
0000
,
1000
0000
0010
0020
,
0000
0000
0000
0230
,
0000
0000
0000
0301
,
0000
0000
0000
0010
0000
1000
0000
0002
,
0000
0000
0000
0000
0000
0003
0100
0000
,
0000
1000
0000
0002
0000
0000
0000
0000
,
0000
0000
0103
0000
,
0000
1000
0000
0000
0000
0100
0000
0002
,
0000
0000
0000
1003
,
0000
0000
0020
0000
,
0000
0000
0130
0001
,
0000
0010
0000
0002
,
0000
0000
0103
0000
,
1000
0000
0100
0000
,
2000
0000
0000
3001
,
0000
0010
0000
0001
,
0000
0200
0000
0000
,
1300
0000
0100
0000
,
0100
0000
1000
0000
,
0100
0000
1000
0000
,
0010
0000
0010
0000
,
0000
2000
0000
0000
0000
0000
0000
0000
,
0000
3001
0000
0010
,
0000
0001
0000
0010
,
0000
1000
0001
0100
,
0200
0300
0001
2000
,
3000
0100
0000
2000
,
3020
0030
0100
0000
,
0010
1000
0010
0100
,
0001
1000
1000
1000
,
0001
0001
0001
0100
,
0100
0000
0020
0030
,
1000
0002
1003
0000
,
0000
0200
0300
0020
,
0130
0000
1000
0001
,
0010
1000
0000
0000
,
0100
0010
0100
0002
,
0003
1000
0010
0000
,
0000
0100
0000
2000
,
3000
0001
0000
0000
1000
0000
0000
0000
,
0000
0010
0000
0001
,
0000
0010
0000
0000
1000
0000
0000
0000
,
0000
1000
0000
2000
,
3000
0010
0000
0000
0100
0000
0000
0000
,
0000
1000
0000
0010
,
0000
1000
0000
0000
0002
0000
0000
0000
,
0003
0001
0000
0020
,
0030
1000
0000
0000
0001
0000
0000
0000
,
0000
0001
0000
1000
,
0000
0100
0000
0000
0002
0000
0000
0003
,
0000
1000
0000
0200
,
0300
0010
0000
0000
0001
0000
0000
0000
,
0000
1000
0000
1000
,
0000
0010
0000
0000
0100
0000
0001
0000
,
1000
0001
1000
0020
,
0030
0000
0000
0000
;
