#TITLE:WAVE WAVE WAVE;
#SUBTITLE:;
#ARTIST:ZYTOKINE feat. itori;
#TITLETRANSLIT:;
#SUBTITLETRANSLIT:;
#ARTISTTRANSLIT:;
#CREDIT:Unknown StepMaker;
#BANNER:WAVE WAVE WAVE-bn.png;
#BACKGROUND:WAVE WAVE WAVE-bg.png;
#LYRICSPATH:;
#CDTITLE:;
#MUSIC:WAVE WAVE WAVE.mp3;
#OFFSET:0.120;
#SAMPLESTART:44.037;
#SAMPLELENGTH:12.000;
#SELECTABLE:YES;
#BPMS:0.000=135.000;
#STOPS:;
#BGCHANGES:;

//---------------dance-single - Copied from----------------
#NOTES:
     dance-single:
     Copied from:
     Hard:
     13:
     0.619,0.560,0.192,0.468,0.368: // measure 1
0000
0000
0000
0000
0000
0000
0001
0010
0100
1000
0010
0100
0010
1000
0002
0000
,  // measure 2
0000
0000
0003
0000
1001
0000
0010
0000
0000
0100
0000
0000
0001
0000
0010
0000
,  // measure 3
0100
0010
0001
1000
0020
0000
0130
0010
,  // measure 4
1000
0100
0010
0002
0000
2003
0000
3020
,  // measure 5
0000
0000
0100
0130
0000
0000
1001
1000
,  // measure 6
0010
0001
0010
2000
0000
0000
3200
0000
,  // measure 7
0302
0000
0000
0000
0103
0000
0100
0000
0000
1000
0000
0000
0001
0000
0001
0000
,  // measure 8
0100
0000
0010
0000
1000
0000
0001
0000
0000
0100
0000
0000
0102
0000
1000
0000
,  // measure 9
0000
0000
0000
0000
1003
0100
1000
0000
0001
0100
0002
0000
0000
0000
1003
0000
,  // measure 10
1000
0010
0000
0000
0100
0000
0000
0001
1000
0000
0000
0001
0100
0000
0000
0010
,  // measure 11
0000
0100
1000
0000
0100
0000
0000
0010
0100
0000
0000
0001
1000
0000
0000
0010
,  // measure 12
0000
0100
0001
0000
0001
0000
0000
0010
0100
0000
0000
0100
1000
0000
0100
0000
,  // measure 13
0000
0010
0001
0000
0100
0000
0000
0010
0100
0000
0000
0100
0010
0000
0000
1000
,  // measure 14
0000
0100
0010
0000
0010
0000
0000
0001
0010
0000
0000
0100
1000
0000
0000
0010
,  // measure 15
0000
0100
0010
0000
0010
0000
0000
1000
0001
0000
0000
0100
0010
0000
0000
0100
,  // measure 16
0000
0001
1000
0000
1000
0000
0000
0010
0100
0000
0000
0100
0001
0000
0100
0000
,  // measure 17
0000
0001
0010
0000
0100
0000
0000
1000
0100
0000
0000
0010
0001
0000
1000
0000
,  // measure 18
0010
0002
0000
0000
1003
0100
0001
0010
,  // measure 19
1000
0020
0000
0000
0031
0010
1000
0001
,  // measure 20
0100
2000
0000
0000
3100
0010
0001
0010
,  // measure 21
0100
0100
1000
0010
0010
0100
0001
0010
,  // measure 22
0100
0200
0000
0000
1300
1000
0100
0010
,  // measure 23
0001
2000
0000
0000
3010
0010
0100
0001
,  // measure 24
0010
0100
0010
0001
1000
0010
0001
1000
,  // measure 25
0100
0000
0001
0000
0200
0000
0010
0000
0310
1000
0010
0000
0100
0001
0100
0000
,  // measure 26
1000
2000
0000
0000
3001
0010
1000
0100
,  // measure 27
0001
0200
0000
0000
1300
0100
0001
1000
,  // measure 28
0010
0002
0000
0000
0013
0100
1000
0100
,  // measure 29
0010
0010
0001
0100
0100
0010
1000
0100
,  // measure 30
0010
0020
0000
0000
0031
0001
0010
0100
,  // measure 31
1000
0002
0000
0000
0103
0100
0010
1000
,  // measure 32
0100
0010
0100
1000
0001
0100
1000
0001
,  // measure 33
0010
1000
0001
2002
0000
0000
0003
3020
,  // measure 34
0000
0000
0230
0000
0000
0000
0301
0000
0000
1001
0000
0000
0001
0000
1000
0000
,  // measure 35
0010
0100
0010
2010
0000
0000
3010
0100
,  // measure 36
0010
1000
0001
0020
0000
0230
0000
2300
,  // measure 37
0000
0000
3100
0020
0000
0000
0031
0001
,  // measure 38
0010
0100
1000
0020
0000
0000
0130
0010
,  // measure 39
1000
0000
0001
0000
1000
0010
0100
0000
0000
0110
0000
0000
0101
0000
0001
0000
,  // measure 40
1000
0010
0001
0010
0100
0010
0110
2002
,  // measure 41
0000
0000
0000
0000
3003
0220
0000
0330
,  // measure 42
1000
0000
0001
0000
0100
0010
0100
0000
0001
0000
1000
0000
2000
0000
0000
0000
,  // measure 43
3001
0000
0100
0000
0001
1000
0001
0000
0100
0000
0010
0000
0020
0000
0000
0000
,  // measure 44
0130
0001
1000
0000
0010
0000
0010
0000
0100
0000
0001
0000
0100
0000
0010
0000
,  // measure 45
0000
1010
0000
0000
0000
0000
1001
0000
0000
0010
0000
0000
0100
0000
0000
0000
,  // measure 46
0001
0000
1000
0000
0010
0100
0010
0000
1000
0000
0001
0000
0002
0000
0000
0000
,  // measure 47
1003
0000
0010
0000
1000
0001
1000
0000
0010
0000
0100
0000
0200
0000
0000
0000
,  // measure 48
0310
1000
0001
0000
0100
0000
0100
0000
0010
0000
1000
0000
1000
0000
0010
0000
,  // measure 49
0000
0101
0000
0000
0000
0000
0010
0000
0000
0100
0000
0000
0010
0000
2001
0000
,  // measure 50
0000
0000
3200
0000
0000
0320
0000
0000
,  // measure 51
0032
0000
0000
2003
0000
3010
0000
0120
,  // measure 52
0000
0000
0000
0000
0130
0001
1000
0000
0010
0000
0100
0000
0010
0000
0001
0000
,  // measure 53
0000
0010
0000
0000
0100
0000
0200
0000
0000
0000
0000
0000
0310
0000
1002
0000
,  // measure 54
0000
0000
0023
0000
0000
0230
0000
0000
,  // measure 55
2300
0000
0000
3002
0000
0103
0000
0120
,  // measure 56
0000
0000
0030
0000
0100
0010
0100
0000
0001
0000
1000
0000
0010
0000
0100
0000
,  // measure 57
1001
0000
0000
0110
0000
0000
1001
0000
0000
0000
0220
0000
0030
0000
0301
0000
,  // measure 58
0001
0100
0000
0000
0010
0000
0000
1000
0001
0000
0000
1000
0010
0000
0000
0100
,  // measure 59
0000
0010
0001
0000
0010
0000
0000
0100
0010
0000
0000
1000
0001
0000
0000
0100
,  // measure 60
0000
0010
1000
0000
1000
0000
0000
0100
0010
0000
0000
0010
0001
0000
0010
0000
,  // measure 61
0000
0100
1000
0000
0010
0000
0000
0100
0010
0000
0000
0010
0100
0000
0000
0001
,  // measure 62
0000
0010
0100
0000
0100
0000
0000
1000
0100
0000
0000
0010
0001
0000
0000
0100
,  // measure 63
0000
0010
0100
0000
0100
0000
0000
0001
1000
0000
0000
0010
0100
0000
0000
0010
,  // measure 64
0000
1000
0001
0000
0001
0000
0000
0100
0010
0000
0000
0010
1000
0000
0010
0000
,  // measure 65
1000
0000
0100
0000
0010
0000
0001
0010
0100
1000
0001
0010
0100
1000
0001
0000
,  // measure 66
0000
0010
0000
0000
0001
0000
0000
0000
0100
0000
0010
0000
2002
0000
0000
0000
,  // measure 67
0000
0000
0000
0000
,  // measure 68
3003
0000
0000
0000
;

//---------------dance-single - Copied from Copied f----------------
#NOTES:
     dance-single:
     Copied from Copied f:
     Medium:
     10:
     0.462,0.392,0.008,0.452,0.096:
0000
0000
0000
0000
,
0000
0000
0000
0000
,
0000
0000
0000
0000
0000
0000
0001
1000
,
0001
0100
0010
0200
0000
0320
0000
2030
,
0000
0000
3001
0100
0000
0000
0100
0001
,
1000
0010
1000
0200
0000
0000
0320
0000
,
0032
0000
0000
0000
0013
0000
0100
0000
0000
1000
0000
0000
0100
0000
0010
0000
,
0001
0000
0010
0000
0100
0000
0001
0000
0000
0100
0000
0000
2000
0000
0000
0000
,
0000
0000
0000
3020
0000
0230
0000
0301
,
0100
0000
0001
0000
1000
0000
0000
0000
0010
0000
0000
1000
0010
0000
0000
0000
,
1000
0000
0001
0000
0010
0000
0000
0000
0010
0000
0000
0100
1000
0000
0000
0000
,
0100
0000
0010
0000
0001
0000
0000
0000
1000
0000
0000
0010
0100
0000
0000
0000
,
0001
1000
0010
0000
0010
1000
0100
0000
,
0010
0000
0001
0000
0010
0000
0000
0000
0100
0000
0000
0100
1000
0000
0000
0000
,
0001
0000
1000
0000
0010
0000
0000
0000
0100
0000
0000
0001
1000
0000
0000
0000
,
0010
0000
1000
0000
0001
0000
0000
0000
0100
0000
0000
0001
0010
0000
0000
0000
,
0100
1000
0010
0000
0010
0100
0001
1000
,
0001
0200
0000
0000
0301
0000
0001
1000
,
0001
0020
0000
0000
0130
0000
0100
1000
,
0010
2000
0000
0000
3001
0000
0100
0001
,
0100
0000
0010
0100
0010
0000
1000
0001
,
0100
0002
0000
0000
1003
0001
0010
0000
,
0010
0200
0000
0000
1300
0000
0001
1000
,
0010
0000
0100
0010
1000
0000
0001
0100
,
0001
0010
0200
0000
0000
0000
0300
1000
,
0001
2000
0000
0000
3010
0000
0100
0001
,
1000
0200
0000
0000
0310
0000
0001
0010
,
0100
2000
0000
0000
3001
0000
0001
0010
,
0001
0000
1000
0010
0100
0000
0001
1000
,
0100
0020
0000
0000
0031
0000
1000
0010
,
0100
0002
0000
0000
1003
0000
0001
0100
,
0010
0000
0100
0010
1000
0000
0010
1000
,
0100
0000
0010
0002
0000
0000
0000
2003
,
0000
0000
3020
0000
0000
0000
0130
0000
0000
0010
0000
0000
0010
0000
0100
0000
,
0010
0100
0010
2000
0000
0000
3010
0000
,
0100
0001
1000
0200
0000
2300
0000
3002
,
0000
0000
0103
0200
0000
0000
0310
1000
,
0100
0000
1000
0002
0000
0000
0103
0010
,
1000
0000
0000
0000
0001
0000
0100
0000
0000
0100
0000
0000
0100
0000
0001
0000
,
1000
0000
0001
0001
0000
0100
0010
0020
,
0000
0000
0000
0000
0000
2000
0000
3030
,
0010
0100
0000
0100
0100
0010
0020
0000
,
0130
0001
0000
1000
1000
0010
0020
0000
,
0130
0001
1000
0000
0001
1000
0010
0100
,
0000
0001
0000
0000
0000
0000
0001
0000
0000
1000
0000
0000
0002
0000
0000
0000
,
1003
0001
0000
0100
0100
0010
0020
0000
,
1030
0100
0000
0010
0010
0001
0002
0000
,
0103
0010
1000
0000
0001
0100
0010
0100
,
0000
0001
0000
0000
0000
0000
0100
0000
0000
0010
0000
0000
1000
0000
0002
0000
,
0000
0000
0023
0000
0000
0230
0000
0000
,
2300
0000
0000
3002
0000
0203
0000
0320
,
0000
0000
0130
0100
0000
0001
1000
0001
,
0000
0100
0000
0000
0001
0000
2000
0000
0000
0000
0000
0000
3001
0000
0020
0000
,
0000
0000
0230
0000
0000
2300
0000
0000
,
3002
0000
0000
0203
0000
0320
0000
0230
,
0000
0300
0010
0100
0001
0000
0100
0000
,
0010
0000
0000
0100
0000
0000
0020
0000
0000
0000
0030
0000
0000
0000
1000
0000
,
0010
0000
1000
0000
0001
0000
0000
0000
0100
0000
0000
0001
0100
0000
0000
0000
,
0001
0000
1000
0000
0100
0000
0000
0000
0100
0000
0000
0010
0001
0000
0000
0000
,
0010
0000
0100
0000
1000
0000
0000
0000
0001
0000
0000
0100
0010
0000
0000
0000
,
1000
0001
0100
0000
0100
0001
0010
0000
,
0100
0000
1000
0000
0100
0000
0000
0000
0010
0000
0000
0010
0001
0000
0000
0000
,
1000
0000
0001
0000
0100
0000
0000
0000
0010
0000
0000
1000
0001
0000
0000
0000
,
0100
0000
0001
0000
1000
0000
0000
0000
0100
0000
0000
1000
0001
0000
0000
0000
,
0100
0000
0010
0100
0010
0100
0010
0100
,
0000
0010
0000
0000
0100
0000
0000
0000
0010
0000
0100
0000
2002
0000
0000
0000
,
0000
0000
0000
0000
,
3003
0000
0000
0000
;

//---------------dance-single - Copied from Copied f----------------
#NOTES:
     dance-single:
     Copied from Copied f:
     Easy:
     5:
     0.326,0.336,0.017,0.427,0.000:
0000
0000
0000
0000
,
0000
0000
0000
0000
,
0000
0000
0000
0000
,
0000
0000
0000
0000
,
0000
0000
0000
0000
,
0000
0000
0000
0000
,
0000
0000
0000
0000
,
0000
0000
0000
2002
,
0000
0000
3003
0010
0000
0010
0000
0100
,
0000
0100
0000
0001
0000
0001
0000
1000
,
0000
1000
0000
0010
0000
0010
0000
0100
,
0000
0100
0000
0001
0000
0001
0000
0010
,
0000
0010
0000
0100
0000
0100
0000
1000
,
0000
1000
0000
0001
0000
0001
0000
1000
,
0000
1000
0000
0010
0000
0010
0000
0100
,
0000
0100
0000
0001
0000
0001
0000
1000
,
0000
1000
0000
0010
0000
0010
0000
0100
,
0010
0200
0000
0320
0000
1030
0000
1000
,
0000
0002
0000
0203
0000
0310
0000
0100
,
0000
0002
0000
1003
0000
1000
0000
0001
,
0000
0001
0000
0100
0000
0100
0000
0010
,
0000
2000
0000
3001
0000
0001
0000
0100
,
0000
0200
0000
0310
0000
0100
0000
0001
,
0000
0010
0000
0100
0000
1000
0000
0100
,
0000
0010
0002
0000
0000
0000
0000
1003
,
0010
2000
0000
3020
0000
0130
0000
0001
,
0000
0200
0000
0310
0000
0010
0000
1000
,
0000
2000
0000
3001
0000
0100
0000
0001
,
0000
0010
0000
0100
0000
0010
0000
0010
,
0000
0020
0000
0031
0000
0001
0000
1000
,
0000
0002
0000
1003
0000
1000
0000
0010
,
0000
0010
0000
0100
0000
0001
0000
1000
,
0000
1000
0010
0020
0000
0000
0000
0230
,
0000
0302
0000
2003
0000
3010
0000
0010
,
0000
0010
0000
2000
0000
0000
0000
3001
,
0000
0001
0000
2000
0000
3020
0000
0130
,
0000
0000
0010
0020
0000
0000
0030
1000
,
0000
0000
1000
0002
0000
0000
0000
0103
,
0000
0000
0010
1000
0000
0000
0000
0001
,
0000
0000
0001
0001
0000
0000
0100
0200
,
0000
0000
0000
0000
0000
0302
0000
0000
,
0003
0100
0000
0100
0000
0010
0020
0000
,
0000
1030
0000
0001
0000
0100
0200
0000
,
0000
0301
0000
1000
0000
0001
0000
0100
,
0000
0010
0000
0100
0000
0020
0000
0000
,
1030
1000
0000
0001
0000
1000
2000
0000
,
0000
3010
0000
0100
0000
0001
0002
0000
,
0000
1003
0000
0100
0000
0010
0000
0001
,
0000
0001
0000
0010
0000
0100
0000
2000
,
0000
0000
3020
0000
0000
0230
0000
0000
,
0320
0000
0000
2030
0000
3002
0000
0203
,
0000
0000
0300
0010
0000
0010
0000
0100
,
0000
0001
0000
2000
0000
0000
3001
0002
,
0000
0000
2003
0000
0000
3020
0000
0000
,
0230
0000
0000
0302
0000
2003
0000
3020
,
0000
0030
0010
0100
0000
0010
0000
0100
,
0000
0010
0000
0200
0000
0000
0000
0310
,
0000
0010
0000
1000
0000
1000
0000
0001
,
0000
0001
0000
0100
0000
0100
0000
0010
,
0000
0010
0000
1000
0000
1000
0000
0100
,
0000
0100
0000
0010
0000
0010
0000
0001
,
0000
0001
0000
1000
0000
1000
0000
0001
,
0000
0001
0000
0100
0000
0100
0000
0010
,
0000
0010
0000
1000
0000
0001
0100
0000
,
0100
0000
0000
0100
0000
0010
0100
0020
,
0000
0000
0130
0000
0000
0100
2002
0000
,
0000
0000
0000
0000
,
3003
0000
0000
0000
;

//---------------dance-single - Copied from Copied f----------------
#NOTES:
     dance-single:
     Copied from Copied f:
     Beginner:
     2:
     0.226,0.280,0.008,0.335,0.000:
0000
0000
0000
0000
,
0000
0000
0000
0000
,
0000
0000
0000
0000
,
0000
0000
0000
0000
,
0000
0000
0000
0000
,
0000
0000
0000
0000
,
0000
0000
0000
0000
,
0000
0000
0000
0020
,
0000
0000
0000
0130
0000
0000
0000
0010
,
0000
0000
0000
1000
0000
0000
0000
0001
,
0000
0000
0000
0100
0000
0000
0000
0010
,
0000
0000
0000
1000
0000
0000
0000
0100
,
0000
0000
0000
0010
0000
0000
0000
0001
,
0000
0000
0000
1000
0000
0000
0000
0001
,
0000
0000
0000
0100
0000
0000
0000
0010
,
0000
0000
0000
1000
0000
0000
0000
0001
,
0000
0000
0000
0100
0000
0000
0000
0010
,
0000
0020
0000
0230
0000
0301
0000
0000
,
0000
2000
0000
3020
0000
0130
0000
0000
,
0000
2000
0000
3001
0000
0000
0000
1000
,
0000
0000
0000
0010
0000
0000
0000
0100
,
0000
0002
0000
1003
0000
0000
0000
0010
,
0000
0020
0000
0130
0000
0000
0000
1000
,
0000
0000
0000
0010
0000
0000
0000
0010
,
0000
1000
2000
0000
0000
0000
0000
3001
,
0000
0002
0000
0203
0000
0310
0000
0000
,
0000
0020
0000
0130
0000
0000
0000
0001
,
0000
0002
0000
1003
0000
0000
0000
1000
,
0000
0000
0000
0010
0000
0000
0000
0100
,
0000
0020
0000
1030
0000
0000
0000
0001
,
0000
2000
0000
3001
0000
0000
0000
0100
,
0000
0000
0000
0010
0000
1000
0000
0000
,
0000
0010
0000
0200
0000
0000
0000
0320
,
0000
2030
0000
3002
0000
0103
0000
0000
,
0000
0100
0000
0002
0000
0000
0000
1003
,
0000
0000
0000
0002
0000
0203
0000
0300
,
0000
0010
0000
0200
0000
0000
0300
0001
,
0000
0001
0000
2000
0000
0000
0000
3010
,
0000
0000
0001
0001
0000
0000
0000
1000
,
0000
0000
0100
0010
0000
0010
0000
0020
,
0000
0000
0000
0000
0000
2030
0000
0000
,
3000
0010
0000
0000
0000
0100
0200
0000
,
0000
0301
0000
0000
0000
0010
0020
0000
,
0000
1030
0000
0000
0000
1000
0000
0000
,
0000
0100
0000
0000
0000
0200
0000
0000
,
0301
0001
0000
0000
0000
0001
0002
0000
,
0000
0103
0000
0000
0000
1000
2000
0000
,
0000
3001
0000
0000
0000
0100
0000
0000
,
0000
1000
0000
0000
0000
0010
0000
0002
,
0000
0000
0000
0010
0000
0010
0000
0010
,
0000
0010
0000
0010
0000
0010
0000
0013
,
0000
0000
0000
0100
0000
0000
0000
0010
,
0000
0000
0000
0002
0000
0000
0003
2000
,
0000
0000
0000
0001
0000
0001
0000
0001
,
0000
0001
0000
0001
0000
0001
0000
3001
,
0000
0000
0000
0010
0000
0000
0000
0010
,
0000
0000
0000
0020
0000
0000
0000
0130
,
0000
0000
0000
0001
0000
0000
0000
1000
,
0000
0000
0000
0010
0000
0000
0000
0100
,
0000
0000
0000
0001
0000
0000
0000
0010
,
0000
0000
0000
0100
0000
0000
0000
1000
,
0000
0000
0000
0001
0000
0000
0000
1000
,
0000
0000
0000
0010
0000
0000
0000
0100
,
0000
0000
0000
0001
0000
2000
0000
0000
,
3000
0000
0000
0020
0000
0000
0000
0230
,
0000
0000
0310
0000
0000
1000
2002
0000
,
0000
0000
0000
0000
,
3003
0000
0000
0000
;
