#TITLE:Viden;
#SUBTITLE:;
#ARTIST:onoken;
#TITLETRANSLIT:;
#SUBTITLETRANSLIT:;
#ARTISTTRANSLIT:;
#GENRE:;
#CREDIT:;
#BANNER:Viden-bn.png;
#BACKGROUND:Viden-bg.png;
#LYRICSPATH:;
#CDTITLE:;
#MUSIC:Viden.mp3;
#OFFSET:0.000000;
#SAMPLESTART:70.619926;
#SAMPLELENGTH:12.000000;
#SELECTABLE:YES;
#BPMS:0.000000=174.000000
,253.000000=87.000000
,256.500000=174.000000
;
#STOPS:
;
#BGCHANGES:;
#KEYSOUNDS:;
#ATTACKS:;

//---------------dance-single - ----------------
#NOTES:
     dance-single:
     :
     Hard:
     15:
     0.827330,1.000000,0.218223,0.276976,0.532969,631.000000,26.000000,33.000000,0.000000,0.000000,0.000000,0.827330,1.000000,0.218223,0.276976,0.532969,631.000000,26.000000,33.000000,0.000000,0.000000,0.000000:
0000
0000
0000
0000
,
0000
0000
0000
0000
,
0000
0000
0000
0000
,
0000
0000
0000
0000
,
0000
0000
0000
0000
,
0000
0000
0001
1000
0000
0100
1000
0000
,
0001
0000
0100
0000
0000
0000
0010
0000
0000
0000
1000
0001
1000
0000
0000
0000
,
0010
0000
0100
0010
0000
0010
1000
0000
,
1000
0000
0001
0000
0000
0000
0100
0000
0000
0000
0010
0000
0000
0000
1000
0001
,
1000
0001
1000
0000
0001
0000
0100
0000
0000
0000
0010
0000
1000
0000
0000
0000
,
0001
0100
0000
0010
1000
0000
0001
0000
,
1000
0000
0001
0100
0000
1000
0100
0000
,
0001
0010
0000
0100
1000
0100
0000
0010
,
0001
1000
0001
0100
0000
0010
0100
0000
,
0001
0010
0000
0100
1000
0000
0100
0000
,
0010
0000
0001
0100
0010
0100
0001
0001
,
1000
0010
0000
0000
0000
0000
0000
0000
,
0000
0000
1000
0010
1000
0010
0100
0001
,
0000
0001
0100
0001
0010
0100
1000
0100
,
0000
0100
0010
0100
1000
0001
0100
0010
,
0000
0000
0010
0000
1000
0000
0001
1000
0100
0010
0100
0010
0001
0100
0001
0100
,
0010
1000
0010
1000
0001
0000
0100
0000
0001
0000
0100
0000
0010
0000
1000
0000
,
0000
1000
0010
1000
0100
0010
0001
0010
,
0000
0010
0100
0010
0001
1000
0010
0100
,
0000
0000
0100
0000
0001
0000
1000
0001
0010
0100
0010
0100
1000
0010
1000
0010
,
0100
0001
0100
0001
1000
0000
0010
0000
1000
0000
0001
0000
0001
0000
0000
0000
,
0100
0010
1000
0010
0100
0000
0101
0000
,
0001
0000
1000
0100
0000
0010
0001
0010
,
0100
0000
1000
0000
0000
0000
0001
0100
0001
0100
0010
1000
0010
1000
0100
0010
,
0100
0010
0001
1000
0001
0000
0100
0000
0001
0000
1000
0000
1000
0000
0000
0000
,
0010
0100
0001
0100
0010
0000
1010
0000
,
1000
0000
0001
0010
0100
1000
0100
0010
,
0001
2000
0000
0002
3000
0200
0003
0310
,
1000
0001
0100
0001
2000
0000
0000
0000
0001
0000
3100
0010
0100
0000
0020
0000
,
0000
0000
0000
0000
1030
0001
1000
0000
0002
0000
0000
0000
0000
0000
0103
0000
,
0020
0000
0000
0000
1030
0001
0100
0000
0010
0000
1000
0001
0010
0000
0100
0000
,
1000
0000
0001
0000
1000
0001
0010
0000
0100
0000
1000
0001
0010
0000
0001
0000
,
1000
0000
0010
0000
0102
0000
0000
0000
1000
0000
0013
0100
0010
0000
0200
0000
,
0000
0000
0000
0000
0301
1000
0001
0000
2000
0000
0000
0000
0000
0000
3010
0000
,
0200
0000
0000
0000
0301
1000
0010
0000
0100
0000
0001
1000
0100
0000
0010
0000
,
0001
0000
1000
0000
0001
1000
0100
0000
0010
0001
1000
0001
0010
0100
0010
0001
,
0100
0001
0100
0010
2000
0000
0000
0000
0001
0000
3100
0010
0100
0000
0020
0000
,
0000
0000
0000
0000
1030
0001
1000
0000
0002
0000
0000
0000
0000
0000
0103
0000
,
0020
0000
0000
0000
1030
0001
0100
0000
0010
0000
1000
0001
0010
0000
0100
0000
,
1000
0000
0001
0000
1000
0001
0010
0000
0100
0000
1000
0001
0010
0000
0001
0000
,
0100
0010
0100
0100
0001
0001
1000
1000
,
0010
0000
0010
1000
0001
1000
0010
0100
0010
0100
0001
0010
0001
0010
0100
1000
,
0001
1000
0001
0100
0001
1000
1000
0000
,
0010
0100
0001
0100
0010
0000
1010
0000
,
1000
0000
0001
0010
0000
0100
1000
0100
,
0010
0000
0001
0000
0100
0001
0100
0010
1000
0010
0100
0001
0100
0001
0010
0100
,
0010
0100
1000
0001
1000
0000
1010
0000
0000
0000
0001
0000
0101
0000
0000
0000
,
0100
0110
0000
0100
1002
0000
0203
0000
,
0320
0000
1030
1100
0000
0010
0011
0000
,
0001
0000
1100
0000
0000
0000
1000
0010
0100
0001
1000
0010
0100
0001
0010
0100
,
1000
0001
0010
0100
1000
0000
1001
0000
0000
0000
0001
0000
0011
0000
0000
0000
,
1000
1010
0000
0100
0120
0000
2030
0000
,
3002
0000
1003
0101
0000
0001
0011
0000
,
0100
0000
1010
0000
0000
0000
0010
1000
0010
0100
0001
0100
0001
0010
0001
0100
,
0010
1000
0010
0100
0001
0000
1100
0000
1000
0000
1000
0000
0101
0000
0001
0000
,
0001
1010
1000
1000
0011
0001
0001
0110
,
0100
0100
1001
0001
0100
0100
0010
0010
,
1000
0000
1000
0000
0010
0100
0010
0100
0010
0100
0010
0100
0010
1000
0001
1000
,
0001
1000
0001
1000
0010
0010
0100
0100
0001
0001
0000
1000
1000
0010
0010
0100
,
0100
0100
0001
1000
0010
1000
0002
0000
0000
0000
1000
0000
0013
0100
0010
0000
,
0200
0000
0000
0000
0000
0000
0301
1000
0001
0000
2000
0000
0000
0000
0000
0000
,
3010
0000
0200
0000
0000
0000
0301
1000
0010
0000
0100
0000
0001
1000
0100
0000
,
0010
0000
0001
0000
1000
0000
0001
1000
0100
0000
0010
0000
0001
1000
0100
0000
,
1000
0000
0001
0000
0100
0000
2010
0000
0000
0000
0001
0000
3100
0010
0100
0000
,
0020
0000
0000
0000
0000
0000
1030
0001
1000
0000
0002
0000
0000
0000
0000
0000
,
0103
0000
0020
0000
0000
0000
1030
0001
0100
0000
0010
0000
1000
0001
0010
0000
,
0100
0000
1000
0000
0001
0000
1000
0001
0010
0000
0100
1000
0001
1000
0100
0010
,
0100
1000
0010
1000
0010
0100
0002
0000
0000
0000
1000
0000
0013
0100
0010
0000
,
0200
0000
0000
0000
0000
0000
0301
1000
0001
0000
2000
0000
0000
0000
0000
0000
,
3010
0000
0200
0000
0000
0000
0301
1000
0010
0000
0100
0000
0001
1000
0100
0000
,
0010
0000
0001
0000
1000
0000
0001
1000
0100
0000
0010
0000
0001
1000
0100
0000
,
1000
0001
0010
0001
0100
1000
0100
0001
,
0100
1000
0100
0001
0010
1000
0010
0001
,
0010
1000
0010
0001
1000
0010
1000
0001
,
0010
0000
0001
0000
1000
0000
0010
0100
0010
0100
0001
1000
0001
1000
0010
0100
,
0010
1000
0100
0010
0001
0010
0100
0000
1000
0000
0000
0000
0001
0000
0010
0000
,
0000
0000
0001
0000
0100
0000
0000
0000
0010
0000
0000
0000
1000
0001
1000
0000
,
0000
0010
0000
0100
0010
0000
0010
1000
,
0001
1000
1001
0000
0000
0000
0000
0000
;

//---------------dance-single - ----------------
#NOTES:
     dance-single:
     :
     Medium:
     12:
     0.615102,0.628861,0.083932,0.394481,0.008393,456.000000,10.000000,47.000000,0.000000,0.000000,0.000000,0.615102,0.628861,0.083932,0.394481,0.008393,456.000000,10.000000,47.000000,0.000000,0.000000,0.000000:
0000
0000
0000
0000
,
0000
0000
0000
0000
,
0000
0000
0000
0000
,
0000
0000
0000
0000
,
0000
0000
0000
0000
,
0000
0000
1000
1000
0000
0010
0010
0000
,
0100
0100
0000
0001
0000
1000
0010
0000
,
0100
0000
0001
0001
0000
1000
1000
0000
,
0100
0100
0000
0010
0000
0001
0000
1000
,
0001
1000
0001
0010
0000
0010
0100
0000
,
0100
1000
0000
1000
0001
0000
0100
0000
,
0010
0000
1000
0001
0000
0001
1000
0000
,
1000
0100
0000
0100
0010
0001
0000
1000
,
0100
1000
0010
0100
0000
0100
0010
0000
,
0010
1000
0000
1000
0001
0000
0010
0000
,
0100
0000
1000
0100
0010
0100
1000
1000
,
0001
1000
0000
0000
0000
0000
0000
0000
,
0000
0000
1001
0000
0001
1000
0001
1000
,
0010
0000
0100
0000
0001
0010
0001
0010
,
0100
0000
1000
0000
0001
1000
0001
1000
,
0100
0000
1000
0010
0100
0001
0010
0100
,
1000
0001
0100
0000
0010
1000
0001
1000
,
0010
0000
0100
0000
0001
0010
0100
1000
,
0100
0000
1000
0000
0001
1000
0001
0010
,
0100
0000
0010
0001
0010
0100
1000
0001
,
1001
0000
1000
0010
0000
0100
0100
0000
,
0001
0100
0000
0010
0010
0000
1001
0000
,
1100
0000
1000
0100
0000
0010
0010
0000
,
0001
1000
0000
0001
0010
0001
1000
0100
,
1000
0001
0100
0010
0000
1000
1000
0000
,
0001
0010
0000
0100
0100
0000
1100
0000
,
1001
0000
0001
0001
0001
1000
1000
1000
,
0010
0020
0000
2030
0000
3002
0000
0103
,
0001
1000
0002
0000
1003
0020
0000
0230
,
0000
0000
0302
0000
2003
0000
0000
3100
,
0020
0000
0031
1000
0001
0010
0100
1000
,
0000
0000
1000
0001
1000
0100
0010
0001
,
1000
0001
2000
0000
3001
0020
0000
0230
,
0000
0000
2300
0000
3002
0000
0000
0013
,
0200
0000
1300
0001
1000
0100
0010
0001
,
0000
0000
1000
0010
1000
0001
0010
0100
,
1000
0010
0200
0000
0301
2000
0000
3020
,
0000
0000
0230
0000
0302
0000
0000
1003
,
0200
0000
0310
0001
1000
0001
0010
0100
,
0000
0000
1000
0010
0100
0010
1000
0001
,
0100
0000
0010
0010
1000
1000
0001
0001
,
0100
0100
0001
0100
1000
0100
0001
0100
,
0010
1000
0001
1000
0000
0010
0010
0000
,
1000
0001
0000
1000
1000
0000
1100
0000
,
0011
0000
0001
0010
0000
0100
0100
0000
,
1000
0001
0100
0001
1000
0100
1000
0010
,
0100
0010
1000
0100
0000
0100
0010
0000
,
0010
0001
0000
0001
1000
0000
0010
0000
,
0100
0000
0001
1000
0000
1000
0001
0000
,
0001
0010
0000
0010
0100
1000
0000
0001
,
0010
0001
0100
0010
0000
0010
0100
0000
,
0100
0001
0000
0001
1000
0000
0100
0000
,
0010
0000
0001
0100
0000
0100
0010
0000
,
0010
1000
0000
1000
0001
0100
0000
0010
,
0100
0010
1000
2000
0000
3010
0020
0000
,
0130
0200
0000
0301
0002
0000
0013
0020
,
0000
0130
0200
0000
1300
2000
0001
3002
,
1000
1003
0010
0100
0010
0100
0010
1000
,
0001
0000
1000
0000
0010
0000
0100
0000
0000
0001
0000
0000
1000
0000
0010
0000
,
0010
1000
0001
2000
0000
3001
0200
0000
,
0320
0000
0000
2030
0000
3002
0000
0000
,
0013
0200
0000
1300
0001
1000
0100
0010
,
0001
0000
0000
0001
1000
0001
0010
0100
,
1000
0001
1000
0002
0000
1003
0200
0000
,
0320
0000
0000
0032
0000
2003
0000
0000
,
3100
0020
0000
0031
1000
0001
0010
0100
,
1000
0000
0000
0001
0100
0001
1000
0100
,
0010
0001
0100
0020
0000
1030
0002
0000
,
0203
0000
0000
0320
0000
2030
0000
0000
,
3001
0020
0000
0130
1000
0001
1000
0100
,
0010
0000
0000
0001
0100
0010
0100
0001
,
1000
0001
0000
1000
0010
1000
0010
0100
,
0001
0100
0001
0010
0100
0010
0100
1000
,
0100
0010
0001
0010
0100
1000
0001
1000
,
0010
0100
0010
1000
0001
0010
0001
1000
,
0100
1000
0010
0100
0100
0000
0001
1000
,
0000
0000
0010
0000
0010
0000
0000
0000
0110
0000
0000
0000
0100
0001
1000
0000
,
0000
0001
0000
1000
0010
0000
1000
0010
,
0100
0001
0101
0000
0000
0000
0000
0000
;

//---------------dance-single - ----------------
#NOTES:
     dance-single:
     :
     Easy:
     5:
     0.348918,0.349367,0.058752,0.235010,0.000000,256.000000,7.000000,28.000000,0.000000,0.000000,0.000000,0.348918,0.349367,0.058752,0.235010,0.000000,256.000000,7.000000,28.000000,0.000000,0.000000,0.000000:
0000
0000
0000
0000
,
0000
0000
0000
0000
,
0000
0000
0000
0000
,
0000
0000
0000
0000
,
0000
0000
0000
0000
,
0000
0000
1000
0000
0000
0010
0000
0000
,
0100
0000
0000
0001
0000
1000
0010
0000
,
0100
0000
0000
0001
0000
0000
1000
0000
,
0000
0100
0000
0010
0000
0001
0000
1000
,
0000
0000
0001
0000
0000
1000
0000
0000
,
0010
0000
0000
0100
0000
0000
0001
0000
,
1000
0000
1000
0000
0000
0001
0000
0000
,
1000
0000
0000
0100
0000
0010
0000
0000
,
0001
0000
1000
0000
0000
0100
0000
0000
,
0010
0000
0000
0001
0000
0000
1000
0000
,
0100
0000
1000
0000
0010
0000
0100
0100
,
0000
0010
0000
0000
0000
0000
0000
0000
,
0000
0000
1001
0000
1000
0000
0001
0100
,
0000
0000
0010
0000
1000
0000
0001
0010
,
0000
0000
0100
0000
1000
0000
0100
0010
,
0000
0001
0100
0010
,
1000
0000
0100
0000
0010
0000
0001
1000
,
0000
0000
0010
0000
0100
0000
0001
1000
,
0000
0000
0010
0000
1000
0000
0010
0100
,
0000
0000
0001
0000
1000
0000
0001
0100
,
0001
0000
0000
1000
0000
0000
0010
0000
,
0000
1000
0000
0000
0001
0000
1000
0000
,
1000
0000
0000
0010
0000
0000
0100
0000
,
0000
0001
0000
0000
0100
0000
0010
0000
,
1000
0001
0000
1000
,
0000
0001
0000
0000
0100
0000
0110
0000
,
0110
0000
0000
0001
0000
0000
1000
0000
,
0000
0002
0000
1000
0000
1000
0000
1003
,
0000
0000
0002
0000
1003
0000
0000
0020
,
0000
0000
0230
0000
0302
0000
0000
1003
,
0000
0000
0010
0000
0010
0000
0000
0100
,
0000
0000
0001
0000
0001
0000
0000
1000
,
0000
0000
0001
0000
0001
0000
0000
2000
,
0000
0000
3010
0000
0010
0000
0000
0200
,
0000
0000
0301
0000
0001
0000
0000
0020
,
0000
0130
1000
0100
,
0010
0000
0002
0000
1003
0000
0000
0020
,
0000
0000
1030
0000
0001
0000
0000
0200
,
0000
0000
0310
0000
1000
0000
0000
0100
,
0000
1000
0001
1000
,
0010
0100
0100
0100
,
0100
0001
0001
1000
,
1000
0000
0010
0100
0000
0000
0010
0000
,
0000
0001
0000
0000
1000
0000
1001
0000
,
1001
0000
0000
0010
0000
0000
0100
0000
,
0000
0001
0000
0000
1000
0000
0010
0000
,
0100
0000
0001
0000
0000
1000
0000
0000
,
0010
0000
0000
0100
0000
0000
0001
0000
,
1000
0000
1000
0000
0000
0001
0000
0000
,
1000
0000
0000
0100
0000
0010
0000
0000
,
0001
0000
1000
0000
0000
0100
0000
0000
,
0010
0000
0000
0001
0000
0000
1000
0000
,
0100
0000
1000
0000
0000
0100
0000
0000
,
0010
0000
0000
0001
0000
0100
0000
0001
,
1000
0000
0002
0000
0000
2003
0000
0000
,
3200
0000
0000
0320
0000
0000
0032
0000
,
0000
2003
0000
0000
3100
0000
0010
0000
,
0001
1000
0010
1000
,
0001
0200
0000
0010
,
0310
0000
0000
2000
0000
3001
0000
0000
,
0200
0000
0000
0320
0000
2030
0000
0000
,
3001
0000
0000
0100
0000
0100
0000
0000
,
0010
0000
0000
1000
0000
1000
0000
0000
,
0001
0000
0000
1000
0000
1000
0000
0000
,
0002
0000
0000
0103
0000
0100
0000
0000
,
0020
0000
0000
1030
0000
1000
0000
0000
,
0200
0000
0000
0310
0000
0001
0000
0010
,
0000
0100
0000
2000
0000
3001
0000
0000
,
0200
0000
0000
0301
0000
1000
0000
0000
,
0020
0000
0000
0130
0000
0001
0000
0000
,
0010
0000
0000
0001
0000
1000
0000
0001
,
0000
0100
0000
0010
0000
0010
0000
0010
,
0000
0010
0000
1000
0000
0001
0000
0100
,
0000
0001
0000
1000
0000
0100
0000
0010
,
0000
0001
0000
1000
0000
0100
0000
1000
,
0000
0001
0000
0100
0000
0000
0000
0010
,
0000
0000
1000
0000
1001
0000
0000
1000
,
0000
0001
0000
0000
0010
0000
0000
1000
,
0000
1001
0000
0000
;

//---------------dance-single - ----------------
#NOTES:
     dance-single:
     :
     Beginner:
     2:
     0.226617,0.244557,0.016786,0.025180,0.000000,184.000000,2.000000,3.000000,0.000000,0.000000,0.000000,0.226617,0.244557,0.016786,0.025180,0.000000,184.000000,2.000000,3.000000,0.000000,0.000000,0.000000:
// measure 0
0000
0000
0000
0000
,  // measure 1
0000
0000
0000
0000
,  // measure 2
0000
0000
0000
0000
,  // measure 3
0000
0000
0000
0000
,  // measure 4
0000
0000
0000
0000
,  // measure 5
0000
0001
0000
0000
,  // measure 6
0010
0000
0000
0100
,  // measure 7
0010
0000
0000
0001
,  // measure 8
0000
0000
0000
0000
,  // measure 9
0000
1000
0000
0000
,  // measure 10
0100
0000
0000
1000
,  // measure 11
0001
1000
0000
0000
,  // measure 12
0001
0000
0000
0000
,  // measure 13
1000
0001
0000
0000
,  // measure 14
0100
0000
0000
0001
,  // measure 15
1000
0001
0000
0100
,  // measure 16
0000
0100
0000
0000
0000
0000
0000
0000
,  // measure 17
0000
1001
0001
0000
,  // measure 18
0000
0100
0001
0000
,  // measure 19
0000
0010
0001
0000
,  // measure 20
0000
1000
0010
0000
,  // measure 21
0000
0010
0100
0000
,  // measure 22
0000
0100
0010
0000
,  // measure 23
0000
0100
0001
0000
,  // measure 24
0000
1000
0001
0000
,  // measure 25
1000
0000
0000
0001
0000
0000
0100
0000
,  // measure 26
0000
0001
0000
0000
1000
0000
0001
0000
,  // measure 27
0000
0000
0000
0100
0000
0000
0010
0000
,  // measure 28
0000
1000
0000
0000
0010
0000
0000
0000
,  // measure 29
0001
1000
0000
0001
,  // measure 30
0000
1000
0000
0000
0010
0000
0000
0000
,  // measure 31
0010
0000
0000
1000
0000
0000
0001
0000
,  // measure 32
0000
2000
0000
0000
0000
0000
0000
3000
,  // measure 33
0000
0000
0001
0000
0001
0000
0000
0100
,  // measure 34
0000
0000
0100
0000
0010
0000
0000
0001
,  // measure 35
0000
0000
1000
0000
1000
0000
0000
0010
,  // measure 36
0000
0000
1000
0000
1000
0000
0000
0001
,  // measure 37
0000
0000
0100
0000
0100
0000
0000
0001
,  // measure 38
0000
0000
0100
0000
0100
0000
0000
0010
,  // measure 39
0000
0000
1000
0000
1000
0000
0000
0100
,  // measure 40
0000
0010
0000
0001
,  // measure 41
0000
0000
1000
0000
0001
0000
0000
0100
,  // measure 42
0000
0000
0001
0000
1000
0000
0000
0010
,  // measure 43
0000
0000
0100
0000
0001
0000
0000
0010
,  // measure 44
0000
0001
0000
1000
,  // measure 45
0000
0010
0000
0100
,  // measure 46
0000
0010
0000
1000
,  // measure 47
0000
0100
0000
0001
,  // measure 48
0000
0000
0001
0000
,  // measure 49
1000
0000
0000
0100
0000
0000
0010
0000
,  // measure 50
0000
1000
0000
0000
0001
0000
0000
0000
,  // measure 51
0010
0000
0000
0000
0000
0001
0000
0000
,  // measure 52
0100
0000
0000
0010
0000
0000
1000
0000
,  // measure 53
0001
0000
0000
0000
0000
1000
0000
0000
,  // measure 54
0001
0000
0000
0010
0000
0100
0000
0000
,  // measure 55
1000
0000
0001
0000
0000
0010
0000
0000
,  // measure 56
0100
0000
0000
1000
0000
0000
0001
0000
,  // measure 57
0010
0000
0001
0000
0000
0010
0000
0000
,  // measure 58
0100
0000
0000
1000
0000
0010
0000
0000
,  // measure 59
0001
0000
1000
0000
0000
1000
0000
0000
,  // measure 60
0001
0000
0000
0001
0000
0000
0100
0000
,  // measure 61
0000
0100
0000
0000
0010
0000
0000
0000
,  // measure 62
1000
0001
0000
0001
,  // measure 63
0000
0020
0000
0000
,  // measure 64
0030
0000
0000
0001
0000
1000
0000
0000
,  // measure 65
0010
0000
0000
0100
0000
0001
0000
0000
,  // measure 66
1000
0000
0000
0010
0000
0010
0000
0000
,  // measure 67
0100
0000
0000
0001
0000
0001
0000
0000
,  // measure 68
1000
0000
0000
0001
0000
0001
0000
0000
,  // measure 69
1000
0000
0000
0010
0000
0010
0000
0000
,  // measure 70
0100
0000
0000
0001
0000
0001
0000
0000
,  // measure 71
0020
0000
0000
0130
0000
0000
0000
0100
,  // measure 72
0000
0000
0000
0001
0000
1000
0000
0000
,  // measure 73
0010
0000
0000
1000
0000
0001
0000
0000
,  // measure 74
0100
0000
0000
0010
0000
1000
0000
0000
,  // measure 75
0100
0000
0000
1000
0000
0000
0000
1000
,  // measure 76
0000
0000
0000
0100
0000
0000
0000
0100
,  // measure 77
0000
0000
0000
0001
0000
0000
0000
0010
,  // measure 78
0000
0000
0000
0001
0000
0000
0000
0100
,  // measure 79
0000
0000
0000
0001
0000
0000
0000
0001
,  // measure 80
0000
0000
0000
0010
0000
0000
0000
0100
,  // measure 81
0000
0000
0001
0000
0000
0000
0000
0001
,  // measure 82
0000
1000
0000
0000
0100
0000
0000
0001
,  // measure 83
0000
1001
0000
0000
;
