#TITLE:Vem brincar;
#SUBTITLE:;
#ARTIST:Caldeira feat. Téka Penteriche;
#TITLETRANSLIT:;
#SUBTITLETRANSLIT:;
#ARTISTTRANSLIT:Caldeira feat. Teka Penteriche;
#CREDIT:;
#BANNER:Vem brincar.png;
#BACKGROUND:Vem brincar-bg.png;
#LYRICSPATH:;
#CDTITLE:./CDTITLES/DanceDanceRevolution SuperNOVA2.png;
#MUSIC:Vem brincar.mp3;
#OFFSET:-0.058;
#SAMPLESTART:56.041;
#SAMPLELENGTH:15.000;
#SELECTABLE:YES;
#BPMS:0.000=135.000;
#STOPS:;
#BGCHANGES:0.000=Vem brincar.avi=1.000=1=0=0,
99999=-nosongbg-=1.000=0=0=0 // don't automatically add -songbackground-
;

//---------------dance-single - ----------------
#NOTES:
     dance-single:
     :
     Hard:
     7:
     0.458,0.488,0.368,0.310,0.092:
0000
0000
0000
0000
,
0000
0000
0000
0000
,
2000
0000
0200
3000
,
0020
0000
0300
0000
0002
0000
2030
0003
,
0002
0000
0000
3000
0100
0000
1000
0000
,
0200
0000
0000
0003
0010
0000
0001
0300
,
0020
0000
1000
0030
2000
0000
0100
3000
,
0200
0000
0000
0000
0310
0000
0000
0002
0000
0000
1003
0001
1000
0000
0000
0000
,
1010
0000
0001
0000
1010
0000
0010
0100
,
0101
0000
0010
0000
0101
0000
0001
0010
,
0011
0000
1000
0000
0011
0000
0001
0010
,
0100
0000
1100
0000
0010
0100
0001
0100
,
0020
0000
1000
0000
0001
0000
1030
0100
,
0020
0001
1000
0031
,
0011
1000
1010
0001
,
0220
0000
0000
0330
,
1002
0000
0010
0000
1000
0000
0103
0010
,
2000
0000
0001
0000
0010
0000
3100
0010
,
0002
0000
0100
0000
0010
0000
1003
0100
,
0002
0000
0100
0000
0010
0000
1003
0100
,
0020
0000
0001
0000
0100
0000
1030
0010
,
0200
0000
0001
0000
0010
0000
1300
0010
,
0001
0000
0001
0010
1000
0000
0001
1000
,
0100
0010
0001
0100
,
1010
1001
0010
0100
,
0011
0000
1001
0000
0100
0000
0110
0100
,
1001
0000
0011
0000
0200
1000
2300
0000
,
0010
0010
3010
0011
,
1010
0100
0001
1100
,
0101
0200
0020
0330
,
1001
0001
0110
0010
,
1000
0000
0010
0000
1000
0000
0010
0000
0100
0000
0001
0000
0100
0000
0000
0010
0000
0000
0010
0000
0000
0010
0000
0000
,
2000
0000
0100
0000
3002
0000
0103
0010
,
0200
0000
0010
0000
0302
0000
1003
0001
,
2000
0000
0010
0000
3002
0000
0013
0100
,
0020
0000
0001
0000
0130
0000
1000
0010
,
0100
0000
0001
0100
0000
0010
0000
1000
0000
0000
0000
0000
0000
0000
0000
0000
,
0001
0000
0010
0100
0000
0010
0000
0001
0000
0000
0000
0000
1000
0000
0010
0000
,
1010
0000
0100
0001
0101
0000
0010
0100
,
0110
0011
1001
0101
,
0110
0000
0010
0000
1000
0000
0010
1000
,
0100
0000
1000
0000
0100
0000
1000
0100
,
0001
0000
0100
0000
0001
0000
0100
0001
,
0010
0001
0010
0001
,
1000
0000
0010
0000
0000
1000
0000
0000
0001
0000
0100
0000
0000
0001
0000
0000
,
1000
0000
0001
0000
0000
0010
0000
0000
0001
0000
1000
0000
0000
0100
0000
0000
,
0000
0000
0010
0000
0000
0110
0000
0000
0000
0000
0001
0000
0000
1001
0000
0000
,
0100
0000
0000
0000
0010
0000
0000
0000
1000
0000
0100
0010
0100
0000
0000
0000
,
0010
0001
0100
0000
0100
0001
0010
0000
,
0100
0000
1000
0000
0010
0100
0001
0000
,
1000
0100
0001
0000
0001
0100
1000
0000
,
0001
0000
0010
0000
0001
1000
0100
0000
,
1000
1100
0001
0101
,
0100
0001
1000
0000
1000
0001
0010
0000
,
0011
0001
1010
1000
,
0001
0000
0100
0000
0010
1000
0100
0001
,
0110
0000
0000
0000
;

//---------------dance-double - ----------------
#NOTES:
     dance-double:
     :
     Hard:
     8:
     0.473,0.515,0.019,0.155,0.276:
00000000
00000000
00000000
00000000
,
00000000
00000000
00000000
00000000
,
00001000
00010000
00001000
00010000
,
00000100
00000000
00000000
00000000
00000010
00000000
00000000
00000001
00000000
00000000
00000100
00000000
00001000
00000000
00000000
00000000
,
00010000
00001000
00010000
00001000
,
01000000
00000000
00000000
00000000
00100000
00000000
00000000
10000000
00000000
00000000
01000000
00000000
00010000
00000000
00000000
00000000
,
00001000
00100000
00001000
00010000
,
00000010
00000000
00000000
00000000
00001000
00000000
00000000
00000001
00000000
00000000
00000010
00000100
00000010
00000000
00000000
00000000
,
00000100
00000000
00001000
00000000
00000000
00000001
00000000
00000010
00000000
00000100
00000000
00000000
00000010
00000000
00000001
00000000
,
00000100
00000000
00000010
00000000
00000000
00010000
00000000
00001000
00000000
00000100
00000000
00000000
00000010
00000000
00010000
00000000
,
00001000
00000000
00100000
00000000
00000000
01000000
00000000
10000000
00000000
00100000
00000000
00000000
01000000
00000000
00001000
00000000
,
00100000
00000000
01000000
00000000
00000000
10000000
00000000
00100000
00000000
01000000
00000000
00000000
00010000
00000000
00100000
00000000
,
00001000
00000000
00010000
00000000
00000000
00000010
00000000
00000100
00000000
00000001
00000000
00000000
00000010
00000000
00000100
00000000
,
00010000
00000000
00001000
00000000
00000000
00000100
00000000
00000001
00000000
00000010
00000000
00000000
00000100
00000000
00000010
00000000
,
00000001
00000100
00001000
00000100
00000010
00000100
00000001
00000010
,
00000100
00010000
00001000
01000000
00001000
00010000
01000000
10000000
,
00100000
01000000
00100000
01000000
,
00010000
10000000
01000000
00000000
10000000
00100000
01000000
00000000
,
00001000
00010000
00001000
00010000
,
00000100
00000010
00000001
00000000
00000100
00000010
00001000
00000000
,
00000100
00000010
00000100
00000010
,
00000001
00001000
00000100
00000000
00000010
00000001
00000100
00000000
,
00001000
00010000
00001000
00010000
,
01000000
00100000
00010000
00000000
10000000
00100000
01000000
00000000
,
00100000
10000000
01000000
10000000
00100000
01000000
00010000
00100000
,
00001000
00000000
01000000
00000000
00001000
00000000
00000000
00010000
00000000
00001000
00000000
00000000
00010000
00000000
00000100
00000000
,
00000010
00000001
00000100
00000001
00000010
00000100
00001000
00000010
,
00000100
00000000
00000010
00000000
00010000
00000000
00000000
00001000
00000000
00010000
00000000
00000000
00001000
00000000
00100000
00000000
,
01000000
10000000
00010000
10000000
01000000
00100000
00010000
10000000
,
00010000
00000000
00100000
00000000
00001000
00000000
00000000
00010000
00000000
00001000
00000000
00000000
00100000
00000000
01000000
00000000
,
20000000
00010000
30010000
00000000
00020000
01000000
01030000
00000000
,
00100000
00000000
10000000
00000000
00100000
00000000
01000000
00000000
00010000
00000000
01000000
00000000
00100000
00000000
00000000
00010000
00000000
00000000
00001000
00000000
00000000
00010000
00000000
00000000
,
00002000
00000100
00010000
00003100
,
00000020
00000000
00001000
00000000
00000001
00000000
00001030
00000100
,
00020000
01000000
00001000
01030000
,
00200000
00000000
00010000
00000000
10000000
00000000
00310000
10000000
,
02000000
00010000
10000000
03010000
,
00002000
00000000
00000100
00000000
00010000
00000000
00003100
00000001
,
00000011
00001000
00001010
00000001
,
00000100
00000000
00001000
00000000
00010000
00001000
00010000
00000000
,
01000000
00000000
10000000
00000000
00100000
00000000
00010000
00001000
,
00000010
00000000
00000001
00000000
00000100
00000000
00001000
00010000
,
00100000
00000000
10000000
00000000
01000000
00000000
00010000
00001000
,
00000100
00000001
00000010
00001000
,
00020000
00000000
00000100
00000000
00000000
00030100
00000000
00000000
00000020
00000000
00000001
00000000
00000000
00000031
00000000
00000000
,
00002000
00000000
00000010
00000000
00000000
00003010
00000000
00000000
00000200
00000000
00001000
00000000
00000000
00001300
00000000
00000000
,
00020000
00000000
01000000
00000000
00000000
01030000
00000000
00000000
20000000
00000000
00010000
00000000
00000000
30010000
00000000
00000000
,
00100000
00000000
00000000
00000000
01000000
00000000
00000000
00000000
10000000
00000000
00010000
01000000
00010000
00000000
00000000
00000000
,
00100000
00000000
01000000
00000000
00000000
10000000
00000000
00100000
00000000
01000000
00000000
00000000
00001000
00000000
00100000
00000000
,
00001000
00000000
00010000
00000000
00000100
00000010
00000000
00000001
00000000
00001000
00000000
00000000
00000001
00000000
00000100
00000000
,
00000010
00000000
00001000
00000000
00000000
00000001
00000000
00000010
00000000
00001000
00000000
00000000
00010000
00000000
00001000
00000000
,
01000000
00000000
00100000
00000000
10000000
01000000
00000000
00100000
00000000
00001000
00000000
00000000
00010000
00000000
01000000
00000000
,
10000000
00000000
00100000
00000000
00000000
01000000
00000000
00001000
00000000
00010000
00000000
00000000
00000010
00000000
00001000
00000000
,
00000001
00000000
00000100
00000000
00000010
00001000
00000000
00000100
00000000
00000010
00000000
00000000
00000001
00000000
00000100
00000000
,
00002000
00010000
00013000
00000000
00020000
00000100
00030100
00000000
,
00000010
00000000
00000001
00000000
00001000
00000100
00000010
00000001
,
00000100
00000000
00000000
00000000
;

//---------------dance-double - ----------------
#NOTES:
     dance-double:
     :
     Easy:
     3:
     0.259,0.271,0.087,0.203,0.000:
00000000
00000000
00000000
00000000
,
00000000
00000000
00000000
00000000
,
00000010
00000000
00000001
00000000
,
00000100
00000000
00001000
00000000
,
00010000
00000000
01000000
00000000
,
10000000
00000000
00100000
00000000
,
00200000
00300000
00020000
00030000
,
00002000
00000000
00000000
00003000
,
00010000
00010000
00001000
00010000
,
00000020
00000030
00002000
00003000
,
00000001
00000001
00001000
00000100
,
00002000
00003000
00000002
00000003
,
00001000
00001000
00000100
00010000
,
00002000
00003000
00020000
00030000
,
00010000
00000000
01100000
00000000
,
10000000
01000000
00200000
00300000
,
01000000
10000000
00010000
00100000
,
02000000
03000000
20000000
30000000
,
01000000
00010000
00001000
00000100
,
00000010
00000010
00000100
00000000
,
00000001
00000100
00001000
00010000
,
00002000
00003000
00010000
00000000
,
00001000
00001000
00100000
00100000
,
00020000
00000000
00030000
00000000
,
10000000
00010000
01000000
00010000
,
00100000
00001000
00010000
00000000
,
00100000
00001000
00010000
01000000
,
01000000
00000000
00000000
00000000
,
00100000
00001000
00010000
00000010
,
00001000
00000100
00000010
00000000
,
00000001
00000000
00001000
00000000
,
00010000
00001000
00011000
00000000
,
01000000
00010000
00100000
00100000
,
00010000
10000000
01000000
01000000
,
00010000
00001000
00010000
00010000
,
00001000
00000100
00000001
00000001
,
00001000
00000010
00000100
00000100
,
00000001
00000100
00001000
00001000
,
00011000
00000000
01100000
00000000
,
20020000
00000000
00000000
30030000
,
20010000
00000000
00000000
30000000
,
02000000
00000000
00000000
03000000
,
00020000
00000000
00000000
00030000
,
00002000
00000000
00000000
00003000
,
00010000
00000010
00010000
00001000
,
00010000
00000100
00001000
00000100
,
00000010
00000010
00000001
00000001
,
00001000
00000010
00000100
00000001
,
00000100
00001000
00010000
00001000
,
00100000
01000000
00100000
00000000
,
01000000
00010000
01000000
10000000
,
01000000
00010000
00001000
00000000
,
00010000
00010000
00001000
00010000
,
00000100
00000100
00002000
00003000
,
00001001
00000000
00000110
00000000
,
00000010
00000001
00000100
00001000
,
00011000
00000000
00000000
00000000
;

//---------------dance-double - ----------------
#NOTES:
     dance-double:
     :
     Medium:
     6:
     0.346,0.380,0.107,0.165,0.000:
00000000
00000000
00000000
00000000
,
00000000
00000000
00000000
00000000
,
00100000
00100000
00010000
00010000
,
00001000
00001000
00000100
00000100
,
00000002
00001000
00000103
00000000
,
00000100
00001000
00010000
01000000
,
20000000
00010000
30100000
00000000
,
10000000
00100000
01000000
01100000
,
10000000
00000000
01000000
00000000
00010000
00000000
00100000
00010000
,
00100000
00001000
00001000
00010000
,
00010000
00000000
00001000
00000000
00000100
00000000
00000001
00000010
,
00000001
00001000
00000100
00000010
,
00000001
00000000
00001000
00000000
00001000
00000000
00000100
00001000
,
00000010
00000000
00010000
00000000
00001000
00000000
00100000
00010000
,
01000000
01000000
01000000
01000000
,
00100000
00000000
10000000
00000000
00010000
10000000
01000000
00000000
,
10010000
10000000
01000000
00010000
,
00002000
00000000
00000000
00003200
00000000
00000000
00000301
00000000
,
00001000
00000100
00000010
00000001
,
00000200
00000000
00000000
00000310
,
00001000
00000100
00010000
00001000
,
02000000
00000000
00000000
03200000
00000000
00000000
10300000
00000000
,
00010000
01000000
10000000
01000000
,
00010000
00010000
00010000
00000000
,
11000000
01000000
00020000
00031000
,
00000100
00001000
00020000
00030000
,
01000000
00010000
00001000
00000010
,
00000002
00000000
00000000
00000003
,
00000100
00000001
00001000
00000100
,
00010000
00002000
02003000
03100000
,
10000000
01000000
01000000
00000000
00100000
00010000
00010000
00000000
,
10000000
00000000
01000000
00000000
00100000
00010000
10000000
01000000
,
00100000
01000000
00100000
01000000
,
00010000
00001000
00010000
00001000
,
00000100
00000010
00000100
00000010
,
00001000
00000100
00000001
00000010
,
00001000
00000100
00020000
00031000
,
00100000
00000000
00010000
00000000
01000000
00100000
10000000
00010000
,
10000000
10000000
00010000
00010000
,
00100000
00000000
01000000
00000000
10000000
00010000
10000000
00000000
,
20010000
00000000
32000000
00000000
,
03010000
00001000
00000010
00001000
,
00020000
00000000
00230000
00000000
,
00310000
00001000
00000100
00000001
,
00001001
00001000
00001000
00001000
,
00010100
00001000
00001000
00001000
,
00101000
00010000
00010000
00010000
,
11000000
01010000
10010000
01100000
,
01000000
01000000
00010000
00010000
,
10000000
01000000
10000000
00000000
00010000
01000000
00010000
00000000
,
00100000
00100000
00001000
00001000
,
00010000
00000100
00010000
00000000
00001000
00100000
00001000
00000000
,
00010000
00010000
00000010
00000010
,
00001000
00000100
00001000
00000000
00000001
00000100
00000001
00000000
,
00000010
00001000
00000100
00000001
,
00000010
00000000
00001000
00000000
00010000
00001000
00010000
00001000
,
00010000
00000000
00000000
00000000
;

//---------------dance-single - ----------------
#NOTES:
     dance-single:
     :
     Beginner:
     1:
     0.123,0.163,0.019,0.029,0.000:
0000
0000
0000
0000
,
0000
0000
0000
0000
,
1000
0000
0000
0000
,
1000
0000
0000
0000
,
1000
0000
0000
0000
,
1000
0000
0000
0000
,
0001
0000
0000
0000
,
0001
0000
0000
0000
,
1000
1000
0000
1000
,
0000
1000
0000
0000
,
0001
0001
0000
0001
,
0000
0001
0000
0000
,
0100
0100
0000
0100
,
0000
0100
0000
0000
,
0010
0010
0000
0010
,
0000
0010
0000
0000
,
1000
0000
1000
0000
,
1000
0000
0000
0000
,
0100
0000
0100
0000
,
0100
0000
0000
0000
,
0010
0000
0010
0000
,
0010
0000
0000
0000
,
0001
0000
0001
0000
,
0001
0000
0000
0000
,
1000
1000
0000
0000
,
1000
0000
1000
0000
,
0001
0001
0000
0000
,
0001
0000
0001
0000
,
0100
0100
0000
0000
,
0100
0000
0100
0000
,
0010
0000
0000
0000
,
0020
0000
0000
0030
,
0010
0000
0000
0000
,
0010
0000
0000
0000
,
1000
0000
1000
0000
,
1000
0000
0000
0000
,
0001
0000
0000
0000
,
0001
0000
0000
0000
,
0100
0000
0100
0000
,
0100
0000
0000
0000
,
0020
0000
0000
0030
,
0010
0000
0000
0000
,
2000
0000
0000
3000
,
1000
0000
0000
0000
,
0001
0000
0001
0000
,
0001
0000
0001
0000
,
1000
0000
1000
0000
,
1000
0000
0000
0000
,
1001
0000
0000
0001
,
0000
0001
0000
0001
,
0000
0010
0000
0010
,
0000
0010
0000
0000
,
0000
0100
0000
0100
,
0000
0100
0000
0000
,
1000
0000
1000
0000
,
0001
0000
0001
0000
,
1001
0000
0000
0000
;

//---------------dance-single - ----------------
#NOTES:
     dance-single:
     :
     Easy:
     4:
     0.284,0.298,0.184,0.320,0.000:
0000
0000
0000
0000
,
0000
0000
0000
0000
,
0010
0000
1000
0000
,
0100
0000
0001
0000
,
0010
0000
0001
0000
,
0100
0000
1000
0000
,
0020
0030
0200
0300
,
2000
3000
0002
0003
,
1000
1000
0100
1000
,
0001
0001
0020
0030
,
0001
0001
0100
0001
,
1000
1000
0020
0030
,
2000
3000
0002
0003
,
1000
0010
0200
0300
,
1001
0000
0110
0000
,
2002
0000
3003
0000
,
0001
1000
0001
0010
,
0200
0300
2000
3000
,
0010
0100
0001
1000
,
0100
0001
0010
0000
,
0010
0001
0100
1000
,
0020
0030
2000
3000
,
0001
0001
0010
0010
,
0200
0000
0300
0000
,
0010
1000
0100
0001
,
0100
1000
0001
0110
,
1001
0100
0010
0001
,
2000
0000
0000
3000
,
0010
0001
0100
1000
,
0100
0001
0020
0030
,
0110
0000
1001
0000
,
0110
1001
0110
0000
,
0100
0001
0010
0001
,
0020
0030
0200
0300
,
0010
1000
0100
1000
,
0020
0030
0200
0300
,
1000
0001
0200
0300
,
1000
0100
0002
0003
,
0110
0000
1001
0000
,
0220
0000
0000
0330
,
0001
0010
0100
0000
,
1000
0001
0100
0000
,
1000
0010
0100
0000
,
0001
1000
0100
0000
,
0020
0030
0002
0003
,
0200
0300
0020
0030
,
2000
3000
0200
0300
,
1001
0110
1001
0000
,
0010
1000
0100
1000
,
0010
0100
0001
0000
,
0010
0001
0100
0001
,
0010
0100
1000
0000
,
0001
0001
0100
0010
,
1000
1000
0002
0003
,
1001
0000
0110
0000
,
0010
1000
0100
0001
,
1001
0000
0000
0000
;

//---------------dance-single - ----------------
#NOTES:
     dance-single:
     :
     Medium:
     6:
     0.379,0.380,0.320,0.213,0.029:
0000
0000
0000
0000
,
0000
0000
0000
0000
,
0010
0001
0100
1000
,
0010
1000
0100
0000
,
0100
0001
0010
1000
,
0010
0001
0100
0000
,
0120
0000
0100
0130
,
1002
0000
1000
1003
,
0110
0001
0010
1000
,
0001
0000
0100
0000
1000
0100
1000
0000
,
0010
0001
0100
1000
,
0001
0000
0010
0000
1000
0010
1000
0000
,
2001
0100
3001
0000
,
1002
0100
1003
0000
,
1010
0000
0101
0000
,
0110
0010
1001
0000
,
0010
0000
0001
0000
1000
0010
0100
0000
,
0002
0013
0020
0130
,
1000
0000
1000
0000
0010
0100
0010
0000
,
0200
0001
0001
0301
,
0010
0000
1000
0000
0010
1000
0100
0000
,
0020
0130
0200
0310
,
0011
0011
0110
0110
,
2002
0000
0000
3003
,
0110
0000
1000
0000
0100
1000
0100
0000
,
0010
0000
0001
0000
0010
0001
0010
0000
,
0011
0000
0001
0000
0100
0001
0100
0000
,
0201
0001
0001
0301
,
0100
0010
0100
0000
0010
0000
1000
0000
,
0010
1000
0010
0000
2020
0000
3030
0000
,
0110
0000
0101
0000
,
0010
1000
0100
0001
0010
0000
0000
0000
,
0100
0000
0001
0000
0010
0001
0001
0000
,
0020
0130
0200
1300
,
0010
0000
1000
0000
0010
1000
1000
0000
,
0200
0310
0020
0031
,
1000
0001
1000
0000
0210
0000
0300
0000
,
0001
1000
0001
0000
0120
0000
0030
0000
,
0110
0010
0011
0010
,
0220
0000
0000
0330
,
0010
0000
0000
0001
0100
0000
1000
0000
,
0100
0000
0000
0010
1000
0000
0100
0000
,
0001
0000
0000
0100
0010
0000
0001
0000
,
1000
0000
0000
0001
0100
0000
0010
0000
,
0000
0000
1000
0000
0000
1000
0000
0000
0000
0000
0001
0000
0000
0001
0000
0000
,
0000
0000
0100
0000
0000
0100
0000
0000
0000
0000
0010
0000
0000
0010
0000
0000
,
0000
0000
1000
0000
0000
1000
0000
0000
0000
0000
0100
0000
0000
0100
0000
0000
,
1100
0010
0011
0000
,
0110
0010
0100
1001
,
1000
0001
1000
0000
0010
0100
0010
0000
,
1001
0001
1000
0110
,
0010
0100
0010
0000
1000
0001
1000
0000
,
0010
0010
0100
0001
,
1000
0100
1000
0000
0100
1000
0100
0000
,
1001
0010
1001
0100
,
0010
0000
1000
0000
0100
0001
0010
1000
,
0100
0000
0000
0000
;

//---------------dance-single - Copied from ----------------
#NOTES:
     dance-single:
     Copied from:
     Challenge:
     9:
     0.660,0.663,0.387,0.223,0.697: // measure 1
0000
0000
0000
0000
,  // measure 2
1000
0000
0100
0010
0000
0001
0000
1000
0000
0001
0100
0000
0001
0000
1000
0000
,  // measure 3
0010
0000
0100
0000
0010
1000
0000
0010
0000
0100
0001
0000
1000
0000
0010
0000
,  // measure 4
0100
0000
0010
0100
0000
0001
0000
1000
0000
0010
1000
0000
0001
0000
1000
0000
,  // measure 5
0010
0000
0100
0000
0010
0001
0000
0010
0000
1000
0100
0000
0010
0000
0001
0000
,  // measure 6
0100
0000
0001
1000
0000
0001
0000
1000
0000
0001
0100
0000
0010
0000
1000
0000
,  // measure 7
0100
0010
0100
0010
0100
0000
0000
0000
0001
1000
0001
1000
0001
0000
0000
0000
,  // measure 8
1000
0010
1000
0010
1000
0010
0100
0010
0100
0000
1000
0001
1000
0000
0000
0000
,  // measure 9
0110
0000
0110
0000
0100
0001
0000
1000
0000
0001
0000
0001
0100
0000
0010
0000
,  // measure 10
0100
0000
0010
0000
0010
1000
0000
0001
0000
1000
0000
1000
0001
0000
0010
0000
,  // measure 11
0100
0000
1000
0000
1000
0001
0000
1000
0000
0100
0000
0100
1000
0000
0010
0000
,  // measure 12
0100
0000
0001
0000
0001
1000
0000
0010
0000
0100
0000
0100
0001
0000
0100
0000
,  // measure 13
0010
0000
1000
0000
1000
0001
0000
1000
0000
0001
0000
0001
1000
0000
0100
0000
,  // measure 14
0010
0000
0001
0000
0001
1000
0000
0001
0000
0100
0000
0100
0001
0000
1000
0000
,  // measure 15
0010
0100
0010
0100
0010
0000
0000
0000
1000
0001
1000
0001
1000
0000
0100
0000
,  // measure 16
0010
0000
0001
0000
1000
0001
0000
1000
0000
0001
0000
0001
0100
0000
0010
0000
,  // measure 17
2002
3003
0010
0100
1000
0001
0100
0010
,  // measure 18
2000
0000
0000
0020
0000
0000
3000
0000
,  // measure 19
0000
0000
0130
0010
1000
0001
1000
0100
,  // measure 20
0002
0000
0000
0000
,  // measure 21
0000
0000
0103
1000
0100
1000
0010
0100
,  // measure 22
0020
0000
0000
0000
0000
0000
0100
0000
0000
0000
0000
0000
1030
0000
0000
0001
,  // measure 23
0000
0000
0001
1000
0010
0100
0001
1000
,  // measure 24
0100
0000
0100
0000
0100
0010
0000
0001
0000
0001
0000
1000
0100
0010
0100
0000
,  // measure 25
1010
0000
1001
0100
0010
0000
0100
0010
,  // measure 26
0011
0000
1001
0010
0100
0000
0110
0100
,  // measure 27
1001
0000
0011
0100
0200
1000
2300
0020
,  // measure 28
0000
0000
0000
0000
3030
0000
0011
0100
,  // measure 29
1010
0101
1001
1010
,  // measure 30
0101
0200
0020
0330
,  // measure 31
1001
0010
0100
0010
1000
0001
1000
0100
,  // measure 32
1000
0000
0010
0000
1000
0000
0010
0000
0100
0000
0001
0000
0100
0000
0000
0010
0000
0000
0010
0000
0000
0010
0000
0000
,  // measure 33
0100
0000
0010
0000
0100
0010
0000
1000
0000
0001
0000
0100
0001
0000
1000
0000
,  // measure 34
0001
0000
0100
0000
0010
0100
0000
1000
0000
0100
0000
0001
0010
0000
0100
0000
,  // measure 35
1000
0000
0010
0000
1000
0001
0000
1000
0000
0001
0000
1000
0010
0000
0001
0000
,  // measure 36
0010
0000
0100
0000
0010
0100
0000
0001
0000
1000
0000
0010
1000
0000
0001
0000
,  // measure 37
1000
0000
0010
0000
0100
0010
0000
0001
0000
0010
0000
1000
0100
0000
0010
0000
,  // measure 38
0001
0000
0100
0000
0001
1000
0000
0001
0000
1000
0000
0001
0100
0000
0010
0000
,  // measure 39
1000
0010
1000
0010
1000
0000
0000
0000
0001
0100
0001
0100
0001
0000
0000
0000
,  // measure 40
0110
0000
0101
0000
1001
0010
1001
0100
,  // measure 41
0220
0000
0000
0000
0030
0000
0000
0001
0000
0000
0001
0000
0000
0301
0000
0000
,  // measure 42
2002
0000
0000
0000
0003
0000
0000
0100
0000
0000
0100
0000
0000
3100
0000
0000
,  // measure 43
0022
0000
0000
0000
0030
0000
0000
0010
0000
0000
0010
0000
0000
0013
0000
0000
,  // measure 44
2020
0000
0000
0000
3000
0000
0000
0100
0000
0000
0100
0000
0000
0130
0000
0000
,  // measure 45
0100
0000
0110
0000
0000
0110
0000
0000
0010
0000
1001
0000
0000
1001
0000
0000
,  // measure 46
0100
0000
1010
0000
0000
1010
0000
0000
0010
0000
0101
0000
0000
0101
0000
0000
,  // measure 47
0100
0000
0110
0000
0000
0110
0000
0000
0010
0000
1001
0000
0000
1001
0000
0000
,  // measure 48
0200
0000
0000
0000
0320
0000
0000
0000
1030
0000
0100
0010
0100
0000
0000
0000
,  // measure 49
1001
0000
1001
0000
1000
0001
0000
1000
0000
0001
0000
0001
0010
0000
0100
0000
,  // measure 50
1000
0000
0010
0000
0010
0100
0000
0010
0000
0100
0000
0100
0001
0000
1000
0000
,  // measure 51
0010
0000
0100
0000
0100
0001
0000
1000
0000
0001
0000
0001
1000
0000
0010
0000
,  // measure 52
0100
0000
0010
0000
1000
0010
0000
1000
0000
0001
0000
0001
1000
0000
0100
0000
,  // measure 53
0010
0000
0001
0000
0001
1000
0000
0001
0000
0100
0000
0100
0010
0000
1000
0000
,  // measure 54
0100
0000
0001
0000
0001
0100
0000
1000
0000
0010
0000
0010
0100
0000
0010
0000
,  // measure 55
0100
0010
0100
0010
0100
0000
0000
0000
0010
1000
0010
1000
0010
0000
0100
0000
,  // measure 56
0001
0000
1000
0000
0100
0010
0000
0001
0000
0010
0000
0010
0100
0000
0010
0000
,  // measure 57
0220
0000
0000
0000
,  // measure 58
0330
0000
0000
0000
;
