#VERSION:0.83;
#TITLE:Turii ~Panta Rhei~;
#SUBTITLE:;
#ARTIST:Zektbach;
#TITLETRANSLIT:;
#SUBTITLETRANSLIT:;
#ARTISTTRANSLIT:;
#GENRE:;
#ORIGIN:;
#CREDIT:;
#BANNER:Turii ~Panta Rhei~.png;
#BACKGROUND:Turii ~Panta rhei~-bg.png;
#PREVIEWVID:;
#JACKET:Turii ~Panta Rhei~-jacket.png;
#CDIMAGE:;
#DISCIMAGE:;
#LYRICSPATH:;
#CDTITLE:;
#MUSIC:Turii ~Panta rhei~.mp3;
#OFFSET:1.590000;
#SAMPLESTART:65.250000;
#SAMPLELENGTH:12.000000;
#SELECTABLE:YES;
#BPMS:0.000=148.010;
#STOPS:;
#DELAYS:;
#WARPS:;
#TIMESIGNATURES:0.000=4=4;
#TICKCOUNTS:0.000=4;
#COMBOS:0.000=1;
#SPEEDS:0.000=1.000=0.000=0;
#SCROLLS:0.000=1.000;
#FAKES:;
#LABELS:0.000=Song Start;
#BGCHANGES:0.000=Turii ~Panta rhei~.avi=1.000=1=0=1===CrossFade==,
99999=-nosongbg-=1.000=0=0=0 // don't automatically add -songbackground-
;
#KEYSOUNDS:;
#ATTACKS:
;

//---------------dance-single - ----------------
#NOTEDATA:;
#CHARTNAME:;
#STEPSTYPE:dance-single;
#DESCRIPTION:;
#CHARTSTYLE:;
#DIFFICULTY:Challenge;
#METER:16;
#RADARVALUES:0.725877,1.022424,0.162658,0.518957,0.774563,656.000000,635.000000,21.000000,67.000000,0.000000,0.000000,0.000000,0.000000,0.000000,0.725877,1.022424,0.162658,0.518957,0.774563,656.000000,635.000000,21.000000,67.000000,0.000000,0.000000,0.000000,0.000000,0.000000;
#CREDIT:;
#NOTES:
// measure 0
0000
0000
0000
0000
,  // measure 1
0000
0000
0000
0000
,  // measure 2
0000
0000
0000
0000
,  // measure 3
0000
0000
0000
0000
,  // measure 4
0000
0000
0000
0000
,  // measure 5
0000
0000
0020
2030
,  // measure 6
3200
0000
0000
0320
0000
0000
0032
0000
0000
0013
0100
1000
,  // measure 7
0100
0010
0001
1000
0100
0010
0002
0000
0000
2003
0000
0000
,  // measure 8
3020
0000
0000
0230
0000
0000
0302
0000
0000
0103
0010
0100
,  // measure 9
0001
0000
1000
0000
0001
0000
1000
0000
0100
0000
0010
0000
0002
0000
0000
0003
0000
0000
1100
0000
0000
0000
0000
0000
,  // measure 10
0110
0000
0000
0011
0000
0000
2001
0000
0000
3010
0100
0001
,  // measure 11
1000
0000
0100
0000
0010
0000
0001
0000
0010
0000
0100
0000
2000
0000
0000
3000
0000
0000
1100
0000
0000
0000
0000
0000
,  // measure 12
0110
0000
0000
0011
0000
0000
1002
0000
0000
1003
0010
0100
,  // measure 13
0001
0000
0010
0000
1000
0000
0010
0000
0001
0000
0100
0000
0020
0000
0000
0000
0000
0000
0130
0000
0000
0001
0000
0000
,  // measure 14
2000
0000
3010
1000
0200
0000
0301
0100
,  // measure 15
2000
0000
3100
0010
0002
0000
0103
0010
,  // measure 16
1000
0001
2000
0000
0002
0000
0000
0000
,  // measure 17
0000
0000
0000
3000
0023
0000
0031
1000
,  // measure 18
0020
0000
0130
0001
2000
0000
3001
0010
,  // measure 19
0200
0000
1300
0100
0020
0000
0031
1000
,  // measure 20
0020
0000
0130
0001
2002
0000
0000
0000
,  // measure 21
0000
0000
0000
0000
0000
0000
0003
0000
3001
0010
0100
1000
0100
0010
0001
1000
,  // measure 22
0010
0100
0001
0010
0100
1000
0100
0010
0001
1000
0010
0100
0001
0010
0100
1000
,  // measure 23
0001
0100
0010
1000
0001
0000
0000
0000
1000
0001
0010
0100
1000
0100
0010
0001
,  // measure 24
0100
0010
0100
0001
1000
0100
0010
0100
1000
0001
1000
0010
0100
0010
1000
0001
,  // measure 25
0100
1000
0100
0010
2000
0000
0000
0000
3001
0000
0010
0000
0100
0000
1000
0000
,  // measure 26
0100
0010
0001
0010
1000
0010
0100
0001
,  // measure 27
0100
1000
0100
0010
0100
1000
0001
0100
,  // measure 28
1000
0100
0001
0000
2001
0000
0100
0000
,  // measure 29
3020
0100
1030
1010
,  // measure 30
0110
0000
0001
1000
0020
0000
1030
0001
,  // measure 31
0200
0000
0301
1000
0020
0000
1030
0010
,  // measure 32
0001
1000
0100
0001
0010
0010
1000
1000
,  // measure 33
0100
0100
0001
0001
2000
0000
3100
0010
,  // measure 34
0001
0000
1000
0000
0001
0010
0100
1000
0010
0000
0100
0000
0001
0000
1000
0000
,  // measure 35
0001
0010
0100
1000
0001
0010
0100
1000
0001
0000
1000
0000
0100
0000
0010
0000
,  // measure 36
0001
1000
0010
0100
0001
1000
0010
0100
0001
0000
0100
0000
0010
0000
1000
0000
,  // measure 37
0001
0010
0100
1000
0100
0010
0001
0010
0100
0000
1000
0000
0010
0000
1000
0000
,  // measure 38
0001
1000
0001
1000
0010
0100
0010
0100
0001
0000
1000
0000
0010
0000
0100
0000
,  // measure 39
0001
1000
0001
1000
0010
0100
0010
0100
0010
0000
1000
0000
0100
0000
0001
0000
,  // measure 40
0100
1000
0010
0100
0001
0010
0100
1000
,  // measure 41
0001
0000
0100
0000
0010
0000
0100
0010
1000
0100
0010
0001
1000
0010
0100
0001
,  // measure 42
0010
0100
1000
0001
0100
0010
1000
0001
0010
0100
1000
0100
0010
0001
0010
0100
,  // measure 43
1000
0001
0010
0100
1000
0001
0100
0010
0100
1000
0100
0001
0010
0100
1000
0010
,  // measure 44
1000
0001
0010
0100
1000
0100
0010
0001
1000
0001
0100
0010
1000
0100
1000
0010
,  // measure 45
0100
0001
1000
0010
0100
0000
0010
0000
0100
0010
1000
0100
0010
0001
1000
0010
,  // measure 46
0100
0001
0010
0100
1000
0001
0100
0010
1000
0001
0010
0100
1000
0100
0010
0001
,  // measure 47
0010
0100
1000
0001
0010
0100
1000
0001
0100
0010
1000
0001
0100
0010
1000
0100
,  // measure 48
0010
0001
1000
0010
0100
0001
0010
0100
0010
0001
1000
0010
0100
0001
1000
0010
,  // measure 49
0100
0001
0010
0100
1000
0000
0010
0000
0100
0001
1000
0010
0100
0001
1000
0001
,  // measure 50
0010
0100
1000
0010
1000
0001
0010
0100
1000
0100
0010
0001
1000
0001
0100
0010
,  // measure 51
1000
0100
1000
0010
0100
0000
0000
0000
0100
0001
0010
0100
1000
0100
0010
0001
,  // measure 52
1000
0010
1000
0010
0100
0001
0100
0001
1000
0001
1000
0001
0100
0010
0100
0010
,  // measure 53
1000
0100
0010
0001
0010
0000
0100
0000
1002
0000
0000
0000
2003
0000
0000
0000
,  // measure 54
3020
0230
2300
3200
,  // measure 55
0302
0023
2030
3002
,  // measure 56
0203
2300
3020
1000
,  // measure 57
0100
0001
0230
2300
,  // measure 58
3002
0023
2030
3002
,  // measure 59
0023
0230
0302
0203
,  // measure 60
0320
0000
2030
0000
3010
0002
2000
0000
,  // measure 61
0000
0000
0000
3003
0110
0100
0010
1000
,  // measure 62
0100
0000
0010
0001
0100
0000
1000
0100
0001
0000
0010
0000
1000
0000
0001
0000
,  // measure 63
0100
0000
0010
0001
1000
0000
0100
1000
0001
0000
0100
0000
0001
0000
0010
0000
,  // measure 64
0100
0000
1000
0100
0001
0000
1000
0010
0001
0000
0100
0000
0010
0000
0100
0000
,  // measure 65
0001
0000
0010
0100
1000
0000
0010
0100
1000
0000
0100
0000
0001
0000
0100
0000
,  // measure 66
0010
0000
1000
0010
0001
0000
1000
0100
0001
0000
0010
0000
0100
0000
1000
0000
,  // measure 67
0001
0000
0010
0001
0100
0000
0010
1000
0100
0000
0010
0000
0001
0000
0100
0000
,  // measure 68
1000
0000
0100
0001
1000
0000
0010
1000
0020
0000
0000
0000
0000
0000
0200
0000
,  // measure 69
0000
0000
0000
0000
0000
0000
0330
0000
1001
0000
1000
0000
0010
0000
0100
0010
,  // measure 70
0100
0000
0000
0001
0000
0000
1000
0000
0001
0000
0000
0100
0000
0000
0010
1000
,  // measure 71
0010
0000
0000
0100
0000
0000
0001
0000
1000
0000
0000
0010
0000
0000
1000
0001
,  // measure 72
0010
0000
0000
0100
0000
0000
1000
0000
0001
0000
0000
0010
0000
0000
0100
1000
,  // measure 73
0001
0000
0000
0011
0000
0000
0110
0000
1001
0000
0000
0001
0000
0000
1000
0010
,  // measure 74
0100
0000
0000
0001
0000
0000
1000
0000
0100
0000
0000
0001
0000
0000
0100
1000
,  // measure 75
0100
0000
0000
0010
0000
0000
0001
0000
0010
0000
0000
0100
0000
0000
1000
0001
,  // measure 76
0010
0000
0000
0100
0000
0000
1000
0000
0001
0000
0000
0100
0000
0000
0010
1000
,  // measure 77
0001
0000
0000
0101
0000
0000
0110
0000
2002
0000
0000
0000
0000
0000
0000
0000
,  // measure 78
0000
0000
0000
0000
,  // measure 79
0000
0000
0000
0000
,  // measure 80
3003
0000
0000
0000
;

//---------------dance-single - Copied from----------------
#NOTEDATA:;
#CHARTNAME:Copied from;
#STEPSTYPE:dance-single;
#DESCRIPTION:Copied from;
#CHARTSTYLE:;
#DIFFICULTY:Hard;
#METER:12;
#RADARVALUES:0.555473,0.681616,0.185895,0.395027,0.120057,502.000000,478.000000,24.000000,51.000000,0.000000,0.000000,0.000000,0.000000,0.000000,0.555473,0.681616,0.185895,0.395027,0.120057,502.000000,478.000000,24.000000,51.000000,0.000000,0.000000,0.000000,0.000000,0.000000;
#CREDIT:Copied from;
#NOTES:
0000
0000
0000
0000
,
0000
0000
0000
0000
,
0000
0000
0000
0000
,
0000
0000
0000
0000
,
0000
0000
0000
0000
,
0000
0000
0002
0023
,
0230
0000
2300
0000
3002
0000
0013
0100
,
1000
0001
0100
0010
0200
0000
0302
0000
,
2003
0000
3200
0000
0320
0000
0031
0010
,
0001
1000
0100
1000
0002
0000
2003
0000
,
3020
0000
2030
0000
3002
0000
1003
0010
,
0100
0001
1000
0010
0200
0000
0302
0000
,
2003
0000
3020
0000
0032
0000
0013
1000
,
0001
0100
0001
1000
0010
0000
1000
0001
,
0100
0000
0010
0100
0001
0000
0010
0100
,
1000
0000
0100
0010
0100
0000
0010
0001
,
0100
0001
2000
0000
0002
0000
0000
0000
,
0000
0000
0000
3000
0013
0000
0001
1000
,
0100
0000
0010
0001
1000
0000
0010
0100
,
1000
0000
0100
0010
1000
0000
0010
1000
,
0001
0000
1000
0001
2002
0000
0000
0000
,
0000
0000
0000
3003
0110
0010
1000
0001
,
0100
0010
1000
0001
0011
0010
0100
1000
,
1001
0001
0101
0100
0110
0010
1000
0010
,
0100
0001
0010
0100
1100
1000
0100
0010
,
0011
0001
1001
0000
0101
0001
1000
0010
,
0100
0010
1000
0001
0010
0100
1000
0001
,
0100
1000
0100
0001
0010
0000
0101
0000
,
1010
1001
0120
1000
,
0230
0010
0301
1010
,
0110
0000
0001
1000
0100
0000
0010
0001
,
1000
0000
0001
0100
0010
0000
0100
0010
,
1000
0000
0001
1000
1002
1000
0100
0100
,
0010
0010
0100
0103
0020
0000
0130
0010
,
1000
0000
0001
0000
1000
0010
1000
0010
1000
0000
0010
0000
0100
0000
0001
0000
,
1000
0010
1000
0000
0001
0100
0001
0000
1000
0000
0010
0000
0100
0000
0001
0000
,
1000
0010
0100
0000
0001
0100
0010
0000
1000
0000
0001
0000
0100
0000
0010
0000
,
0100
0010
0100
0000
0010
0100
0010
0000
0100
0000
0001
0000
0010
0000
0100
0000
,
1000
0001
0010
0000
0100
1000
0001
0000
1000
0000
0010
0000
0100
0000
0001
0000
,
0100
0010
1000
0000
0001
0100
0010
0000
1000
0000
0001
0000
0010
0000
0100
0000
,
1000
0001
0010
0100
1000
0001
0100
1000
,
0100
0001
0010
0100
1000
0010
1000
0100
,
0010
0001
0100
0001
0100
0010
1000
0010
,
0001
0000
0010
0000
1000
0000
0100
0000
0001
0100
1000
0000
0010
0100
0001
0000
,
1000
0010
0001
0000
0010
0000
1000
0000
0001
0000
0100
0000
0010
0000
1000
0000
,
0001
1000
0100
0010
0100
1000
0010
1000
,
0100
0010
0001
0100
0010
0001
0010
0100
,
0010
0000
1000
0000
0001
0000
0010
0000
0100
1000
0001
0000
0100
0010
1000
0000
,
0010
0100
0001
0000
0100
0000
0010
0000
1000
0000
0001
0000
0100
0000
1000
0000
,
0100
0001
1000
0010
0100
1000
0100
0001
,
0010
1000
0010
0001
0100
0010
0100
0001
,
1000
0010
0100
0001
0010
0000
0000
0000
0001
0000
0010
0000
1000
0000
0010
0000
,
0001
1000
0100
1000
0010
0100
0001
0010
,
0001
0010
0100
1000
0001
0000
1000
0000
1002
0000
0000
0000
1000
0000
0000
0000
,
0010
0103
0120
1000
,
0001
1030
2010
0001
,
0100
3001
0202
0000
,
0000
0303
0002
2003
,
3002
0023
0230
2300
,
3020
0230
0302
0203
,
0320
0000
2030
0000
3010
2000
0002
0000
,
0000
0000
0000
3003
0110
0100
0010
1000
,
0001
0100
1000
0100
0001
0010
1000
0001
,
0100
1000
0001
0010
1000
0010
0001
1000
,
0100
0010
0001
1000
0100
0010
0001
0100
,
0010
1000
0010
0100
0001
1000
0010
0100
,
0001
0010
0100
1000
0001
0100
0001
1000
,
0100
0010
0001
0100
1000
0100
0001
0010
,
0100
0000
1100
0000
0002
0000
0000
0200
,
0000
0000
0000
0000
0303
0000
0000
0000
0001
0000
0100
0000
0010
0000
1000
0010
,
0100
0000
0000
0000
0000
0000
0001
0000
1000
0000
0010
0000
0000
0000
1000
0010
,
0100
0000
0000
0000
0000
0000
0001
0000
0010
0000
0100
0000
0000
0000
1000
0100
,
0010
0000
0000
0000
0000
0000
0001
0000
1000
0000
0010
0000
0000
0000
0100
0010
,
1000
0000
0000
0000
0000
0000
0010
0000
0100
0000
0001
0000
0000
0000
1000
0010
,
0100
0000
0000
0000
0000
0000
0001
0000
1000
0000
0001
0000
0000
0000
0100
0010
,
0100
0000
0000
0000
0000
0000
0001
0000
1000
0000
0100
0000
0000
0000
0010
0001
,
1000
0000
0000
0000
0000
0000
0100
0000
0010
0000
0001
0000
0100
0000
1000
0100
,
0001
0000
0000
0100
0000
0000
0100
0000
2002
0000
0000
0000
0000
0000
0000
0000
,
0000
0000
0000
0000
,
0000
0000
0000
0000
,
3003
0000
0000
0000
;

//---------------dance-single - Copied from Copied f----------------
#NOTEDATA:;
#CHARTNAME:Copied from Copied f;
#STEPSTYPE:dance-single;
#DESCRIPTION:Copied from Copied f;
#CHARTSTYLE:;
#DIFFICULTY:Medium;
#METER:8;
#RADARVALUES:0.470271,0.588668,0.216878,0.480229,0.000000,425.000000,397.000000,28.000000,62.000000,0.000000,0.000000,0.000000,0.000000,0.000000,0.470271,0.588668,0.216878,0.480229,0.000000,425.000000,397.000000,28.000000,62.000000,0.000000,0.000000,0.000000,0.000000,0.000000;
#CREDIT:Copied from Copied f;
#NOTES:
0000
0000
0000
0000
,
0000
0000
0000
0000
,
0000
0000
0000
0000
,
0000
0000
0000
0000
,
0000
0000
0000
0000
,
0000
0000
2000
3002
,
0203
0320
2030
3001
,
0100
0000
0010
0100
0020
0000
2030
0000
,
3002
0203
0320
1030
,
0001
0000
0100
0001
2000
0000
3002
0000
,
0023
0230
2300
3001
,
0010
0000
0100
1000
0200
0000
0320
0000
,
0032
0203
0320
1030
,
0001
0000
1000
0010
0100
0000
0001
1000
,
0010
0000
0100
0010
1000
0000
0100
0010
,
0001
0000
0010
0100
0010
0000
0100
1000
,
0010
1000
0002
0000
2000
0000
0000
0000
,
0000
0000
0000
0003
3001
0000
1000
0001
,
0010
0000
0100
1000
0001
0000
0100
0010
,
0001
0000
0010
0100
0001
0000
0100
0001
,
1000
0000
0001
1000
2002
0000
0000
0000
,
0000
0000
0000
3003
0101
0001
0010
0100
,
1000
0100
0010
0000
0011
0001
0010
0100
,
1100
0000
1001
0000
0101
0001
0010
0100
,
1000
0001
0010
0000
0110
0100
0010
0001
,
0011
0000
1001
0000
0110
0010
0100
0001
,
1000
0010
0100
0001
0010
0000
0010
0001
,
0010
0100
1000
0001
0100
0000
1001
0000
,
1010
1001
1020
0000
,
0230
0010
0320
2030
,
3002
0000
1003
0010
0100
0000
0010
0100
,
0001
0000
1000
0010
0100
0000
0001
0010
,
0100
0000
1000
0001
1000
1000
0001
0001
,
0100
0100
0010
0010
0200
0000
0010
0000
,
1000
0000
0301
1000
0002
0000
1003
0000
,
0001
1000
0010
1000
0200
0000
1300
0000
,
0010
0100
0010
1000
0020
0000
1030
0000
,
0100
1000
0100
0010
0002
0000
1003
0000
,
0010
0100
0001
1000
0020
0000
0130
0000
,
0010
1000
0001
0010
0200
0000
1300
0000
,
1001
0000
0001
1000
0010
0000
0100
0010
,
1000
0000
0010
0100
0001
0010
0100
1000
,
0100
1000
0010
1000
0010
0100
0001
0100
,
0010
1000
0001
0000
0011
0000
0110
0000
,
1001
0001
1000
0010
0100
0001
0010
0100
,
1000
0001
0100
0010
1000
0001
0100
0001
,
0010
0100
1000
0010
0100
0001
1000
0100
,
0010
0001
0100
0000
0101
0000
0110
0000
,
1010
0010
0100
0010
1000
0001
0100
0001
,
1000
0100
0010
0001
0020
0000
0230
0000
,
2300
3002
0203
0320
,
1030
0100
0010
0000
0002
0000
2003
0000
,
3020
0230
0320
2030
,
3001
1000
0001
1000
1020
0000
0100
0000
,
0001
0130
0210
1000
,
0001
0310
2010
0001
,
0100
3001
2002
0000
,
0000
3003
0002
1000
,
0103
0200
0010
0301
,
0002
0100
1003
2000
,
0010
0000
3001
0000
0001
1000
0020
0000
,
0000
0000
0000
0030
1001
0000
0001
1000
,
0001
0100
0010
0100
0001
0000
1000
0001
,
0010
0100
1000
0010
1000
0000
0001
1000
,
0100
0010
0001
1000
0100
0000
0010
0001
,
0010
0100
1000
0100
0010
0000
0001
1000
,
0010
0100
0001
1000
0001
0000
1000
0010
,
1000
0010
0100
0001
1000
0000
0010
0100
,
0010
0000
0110
0000
0002
0000
0000
2000
,
0000
0000
3003
0000
0010
0100
0010
1000
,
0001
1000
0000
0001
1000
0010
0000
1000
,
0100
1000
0000
0001
0010
0100
0000
1000
,
0010
0100
0000
0001
1000
0010
0000
0100
,
0001
1000
0000
0010
0100
0001
0000
1000
,
0100
0010
0000
0001
0010
0100
0000
1000
,
0100
0001
0000
0001
0100
1000
0000
0010
,
1000
0010
0000
0100
0001
1000
0000
0010
,
0100
0001
0000
1000
2002
0000
0000
0000
,
0000
0000
0000
0000
,
0000
0000
0000
0000
,
3003
0000
0000
0000
;

//---------------dance-single - Copied from Copied f----------------
#NOTEDATA:;
#CHARTNAME:Copied from Copied f;
#STEPSTYPE:dance-single;
#DESCRIPTION:Copied from Copied f;
#CHARTSTYLE:;
#DIFFICULTY:Easy;
#METER:5;
#RADARVALUES:0.360725,0.464738,0.139421,0.224623,0.000000,326.000000,308.000000,18.000000,29.000000,0.000000,0.000000,0.000000,0.000000,0.000000,0.360725,0.464738,0.139421,0.224623,0.000000,326.000000,308.000000,18.000000,29.000000,0.000000,0.000000,0.000000,0.000000,0.000000;
#CREDIT:Copied from Copied f;
#NOTES:
0000
0000
0000
0000
,
0000
0000
0000
0000
,
0000
0000
0000
0000
,
0000
0000
0000
0000
,
0000
0000
0000
0000
,
0000
0000
0001
1000
,
0010
0100
0002
1000
,
0010
1003
0100
0010
,
0001
0010
0200
0001
,
1000
0310
0001
1000
,
0100
0010
0002
1000
,
0100
1003
0010
0100
,
0001
1000
0200
0010
,
0001
1300
0001
1000
,
0010
0000
0100
0010
1000
0000
0100
0000
,
0010
0000
0001
0100
0010
0000
0100
0000
,
0010
1000
2000
0000
,
0000
0000
0000
0000
3001
0000
1000
0001
,
0010
0000
0100
0000
1000
0000
0100
0010
,
0001
0000
0010
0000
0001
0000
0100
0001
,
1000
0001
0200
0000
,
0000
0000
0000
0300
0010
1000
1000
0000
,
0001
0100
0100
0000
0110
0000
0000
0000
,
0101
0000
1001
0000
0100
0010
0010
0000
,
1000
0001
0001
0000
0101
0000
0000
0000
,
0011
1001
0120
1000
,
2030
0010
3001
0100
,
0010
0000
1000
0001
0100
0000
0010
0000
,
0010
1010
0102
0000
,
2003
0000
3020
1000
,
0130
0000
0001
0000
1000
0000
0010
0100
,
0001
0000
0010
0000
0100
0000
1000
0010
,
0100
0000
0001
0100
2000
0000
3200
0000
,
0320
2030
3010
0010
,
1000
0000
0001
1000
0001
0000
0100
0000
,
0001
0000
0010
0100
1000
0000
0010
0000
,
0010
0000
0100
0001
0010
0000
0100
0000
,
0100
0000
0010
0001
1000
0000
0001
0000
,
0001
0000
1000
0010
0100
0000
0010
0000
,
0010
0000
1000
0001
0200
0000
0010
0000
,
0010
0010
0001
0010
,
0010
0000
0310
0100
0001
0000
0100
0010
,
1000
0000
0001
1000
0001
0000
1000
0010
,
0100
0100
0110
0101
,
1001
0000
1000
0010
0100
0000
0010
0100
,
0001
0000
0010
0100
1000
0000
0100
0010
,
0001
0000
1000
0001
1000
0000
0001
0100
,
0001
0001
0101
0110
,
1010
0000
1000
0010
0100
0000
0010
0100
,
0001
0000
1000
0001
0010
0000
0100
0000
,
1000
0001
0100
0010
,
1000
1000
1000
0000
0001
0000
1000
0000
,
0010
0100
0001
1000
,
0001
0001
0001
0000
2000
0000
3000
0000
,
0002
0003
0020
0030
,
0200
0300
2000
3000
,
0002
0003
2002
0000
,
0000
3003
1000
0001
,
0010
0010
0100
1000
,
1000
0010
0001
0001
,
0010
0000
1000
0000
1000
0001
2000
0000
,
0000
0000
0000
3000
1001
0000
0001
0000
,
0001
0000
1000
1000
1000
0000
0010
0000
,
0010
0000
0100
0100
0100
0000
0001
0000
,
1000
0000
0001
0001
0001
0000
0100
0000
,
0010
0000
0100
0100
0100
0000
0010
0000
,
1000
0000
0001
0001
0001
0000
0010
0000
,
0100
0000
1000
1000
1000
0000
0001
0000
,
0100
0000
0010
0000
2000
0000
0000
0002
,
0000
0000
0000
3003
0010
0100
0000
0100
,
0001
0000
0000
0001
1000
0000
0000
1000
,
0100
0000
0000
0010
0001
0000
0000
0001
,
1000
0000
0000
1000
0010
0000
0000
0010
,
0100
0000
0000
0100
0001
0000
0000
0001
,
1000
0000
0000
1000
0100
0000
0000
0100
,
0010
0000
0000
0010
0001
0000
0000
0001
,
1000
0000
0000
1000
0100
0000
0000
0100
,
0010
0000
0000
0001
2002
0000
0000
0000
,
0000
0000
0000
0000
,
0000
0000
0000
0000
,
3003
0000
0000
0000
;

//---------------dance-single - Copied from Copied f----------------
#NOTEDATA:;
#CHARTNAME:Copied from Copied f;
#STEPSTYPE:dance-single;
#DESCRIPTION:Copied from Copied f;
#CHARTSTYLE:;
#DIFFICULTY:Beginner;
#METER:2;
#RADARVALUES:0.213558,0.278843,0.015491,0.395027,0.000000,193.000000,191.000000,2.000000,51.000000,0.000000,0.000000,0.000000,0.000000,0.000000,0.213558,0.278843,0.015491,0.395027,0.000000,193.000000,191.000000,2.000000,51.000000,0.000000,0.000000,0.000000,0.000000,0.000000;
#CREDIT:Copied from Copied f;
#NOTES:
0000
0000
0000
0000
,
0000
0000
0000
0000
,
0000
0000
0000
0000
,
0000
0000
0000
0000
,
0000
0000
0000
0000
,
0000
0000
1000
1000
,
0010
0010
0100
0000
,
0000
0000
0010
0010
,
1000
1000
0001
0000
,
0000
0000
0010
0010
,
0100
0100
1000
0000
,
0000
0000
0001
0001
,
1000
1000
0010
0000
,
0000
0000
2000
3000
,
0020
0030
0200
0300
,
0002
0003
2000
3000
,
0020
0030
0200
0000
,
0000
0000
0302
0003
,
0200
0300
0020
0030
,
2000
3000
0002
0003
,
0200
0300
0020
0000
,
0000
0000
0000
0030
0010
0000
1000
0000
,
0001
0100
0020
0030
,
0200
0300
0002
0003
0200
0300
0010
0000
,
1000
0000
0001
0000
2000
3000
0000
0000
,
0020
0030
0200
0300
0020
0000
0000
0000
,
0030
0000
2000
3000
0002
0003
0100
0000
,
0000
0000
0010
0000
0000
0000
0200
0300
,
0020
0030
2000
3000
0002
0000
0000
0000
,
1003
0000
0010
1000
,
0001
0000
1000
0000
,
0001
0000
0100
0000
,
0000
0000
0001
0100
,
0010
1000
0100
0000
,
0000
0000
0020
0030
0002
0003
0000
0000
,
0001
0010
0100
1000
,
0010
0100
0010
0000
,
0200
0300
0000
0000
0010
0000
0100
0000
,
0001
0000
0100
0000
,
0010
0000
0200
0000
,
0000
0000
0001
0000
,
0000
0310
0010
0010
,
1000
1000
1000
0001
,
0001
0001
0200
0320
,
2030
3010
0010
0010
,
0100
0100
0100
0001
,
0001
0001
1000
1000
,
1000
0100
0200
0320
,
0032
0013
0010
0010
,
0100
0100
0100
1000
,
1000
1000
0001
0001
,
0001
1000
1000
1000
,
0010
0010
0010
0100
,
0100
0100
0002
0003
,
2000
3000
0200
0300
,
0020
0030
0002
0003
,
2000
3000
2002
0000
,
0000
3003
1000
0000
,
0010
0000
0100
0000
,
0001
0000
1000
0000
,
0010
0000
0000
0000
0100
0100
0200
0000
,
0000
0000
0000
0300
0001
0000
0001
0000
,
0001
0000
0010
0010
,
0010
0000
0100
0100
,
0100
0000
1000
1000
,
1000
0000
0001
0001
,
0001
0000
0100
0100
,
0100
0000
0010
0010
,
0010
0000
0000
0000
2000
0000
0000
0002
,
0000
0000
0000
3003
0100
0000
0000
0000
,
0010
0000
1000
0000
,
0100
0000
0010
0000
,
0001
0000
1000
0000
,
0001
0000
0100
0000
,
1000
0000
0010
0000
,
0001
0000
0100
0000
,
1000
0000
0010
0000
,
0001
0000
2002
0000
,
0000
0000
0000
0000
,
0000
0000
0000
0000
,
3003
0000
0000
0000
;
