#VERSION:0.83;
#TITLE:Tsubasa;
#SUBTITLE:;
#ARTIST:Yu Kobayashi;
#TITLETRANSLIT:;
#SUBTITLETRANSLIT:;
#ARTISTTRANSLIT:;
#GENRE:;
#ORIGIN:;
#CREDIT:;
#BANNER:Tsubasa-bn.png;
#BACKGROUND:Tsubasa-bg.png;
#PREVIEWVID:;
#JACKET:Tsubasa-jacket.png;
#CDIMAGE:;
#DISCIMAGE:;
#LYRICSPATH:;
#CDTITLE:;
#MUSIC:Tsubasa.mp3;
#OFFSET:-0.040000;
#SAMPLESTART:53.220047;
#SAMPLELENGTH:12.000000;
#SELECTABLE:YES;
#BPMS:0.000=148.060,
133.000=147.700,
197.000=148.300,
229.000=147.700,
261.000=148.400;
#STOPS:;
#DELAYS:;
#WARPS:;
#TIMESIGNATURES:0.000=4=4;
#TICKCOUNTS:0.000=4;
#COMBOS:0.000=1;
#SPEEDS:0.000=1.000=0.000=0;
#SCROLLS:0.000=1.000;
#FAKES:;
#LABELS:0.000=Song Start;
#BGCHANGES:;
#KEYSOUNDS:;
#ATTACKS:
;

//---------------dance-single - ----------------
#NOTEDATA:;
#CHARTNAME:;
#STEPSTYPE:dance-single;
#DESCRIPTION:;
#CHARTSTYLE:;
#DIFFICULTY:Hard;
#METER:13;
#RADARVALUES:0.649442,0.724240,0.235143,0.399743,0.344876,580.000000,550.000000,30.000000,51.000000,0.000000,0.000000,0.000000,0.000000,0.000000,0.649442,0.724240,0.235143,0.399743,0.344876,580.000000,550.000000,30.000000,51.000000,0.000000,0.000000,0.000000,0.000000,0.000000;
#CREDIT:;
#NOTES:
// measure 0
0000
0000
0000
0000
0010
1000
0010
0100
0001
0000
0100
0010
0000
0010
1000
0000
,  // measure 1
0200
0000
1300
0001
0100
0002
0000
0000
,  // measure 2
1003
0100
1000
0020
0000
0000
0130
0001
,  // measure 3
1000
0001
0010
0100
1000
0100
0010
0002
,  // measure 4
0000
1003
0010
0100
1000
0200
0000
0000
,  // measure 5
0000
0000
0310
1000
0001
2000
0000
0000
,  // measure 6
3001
0010
0100
2000
0000
0000
3001
1000
,  // measure 7
0001
0100
0010
0100
0001
1000
0100
1000
,  // measure 8
0100
0010
0001
0010
0100
1000
0001
0010
,  // measure 9
0100
1000
0001
0000
0010
0000
0100
1000
,  // measure 10
0001
0000
1000
0000
0100
0000
0010
0000
0001
0000
0100
0000
0010
1000
0000
0010
,  // measure 11
1000
0000
0100
0000
0010
0000
0001
0000
1000
0000
0100
0000
0010
0001
0000
0010
,  // measure 12
0001
0000
1000
0000
0010
0000
1000
0000
0001
0000
0100
0000
0010
1000
0000
0001
,  // measure 13
0100
0000
0010
0000
1000
0000
0001
0000
0100
0000
0001
1000
0010
1000
0000
0001
,  // measure 14
0100
0000
0010
0000
1000
0000
0100
0000
0010
0000
0100
1000
0001
1000
0000
0010
,  // measure 15
1000
0000
0100
0000
0010
0000
0001
0000
1000
0000
0001
0100
0001
1000
0000
0001
,  // measure 16
0010
0000
0100
0000
0010
0000
0001
0000
1000
0000
0010
0100
0010
1000
0001
1000
,  // measure 17
0001
0010
0100
1000
0100
0000
0100
0000
0000
0000
0010
0000
0000
0000
0001
0000
,  // measure 18
0000
1000
1000
1010
0200
0000
0302
0000
,  // measure 19
0023
0000
0031
0001
0011
1000
0000
0001
,  // measure 20
0000
1000
0100
0100
0120
0000
0032
0000
,  // measure 21
2003
0000
3010
0010
1010
0100
0000
0001
,  // measure 22
0000
1000
1000
1001
0010
0000
0100
0000
,  // measure 23
0001
0000
0010
0010
0110
1000
0001
0000
,  // measure 24
0010
0000
0100
0100
1001
0010
0000
1000
,  // measure 25
0001
0000
0001
0001
0101
1000
0000
0001
,  // measure 26
0000
1000
1000
1010
0200
0000
0320
0000
,  // measure 27
2030
0000
3001
0001
0011
1000
0000
0100
,  // measure 28
0000
1000
1000
1001
0020
0000
2030
0000
,  // measure 29
3002
0000
0103
0100
1001
0010
0000
0100
,  // measure 30
0000
0001
0001
1001
0010
0000
1000
0000
,  // measure 31
0100
2001
3020
0230
,  // measure 32
0302
0000
0000
0000
1003
0010
1000
0010
0100
0000
0001
0100
0000
0010
1000
0000
,  // measure 33
0001
0000
1000
0000
0110
0000
0000
0000
0010
0000
1000
0000
0001
1000
0000
0010
,  // measure 34
1000
0000
0100
0000
0010
0000
0001
0000
0100
0000
1000
0000
0100
0001
0000
0001
,  // measure 35
1000
0000
0100
0000
0010
0000
0001
0000
1000
0000
0010
0000
0100
0001
0000
1000
,  // measure 36
0010
0000
0100
0000
0001
0000
0010
0000
0100
0000
0010
0000
0001
1000
0000
1000
,  // measure 37
0100
0000
0010
0000
0100
0000
1000
0000
0001
0000
0100
0000
1000
0100
0000
0001
,  // measure 38
0100
0000
0010
0000
1000
0000
0001
0000
0010
0000
0001
0000
0100
0001
0000
0001
,  // measure 39
1000
0000
0010
0000
1000
0000
0100
0000
0010
0000
0001
0000
1000
0010
0000
0100
,  // measure 40
0010
2002
3003
2002
3003
0220
0330
0010
,  // measure 41
0010
0000
1000
0000
1001
0000
0000
0000
0100
0000
0001
0000
1000
0001
0000
0100
,  // measure 42
0001
0000
0010
0000
0100
0000
1000
0000
0010
0000
0001
0000
0010
1000
0000
1000
,  // measure 43
0001
0000
0010
0000
0100
0000
1000
0000
0001
0000
0100
0000
0010
1000
0000
0001
,  // measure 44
0100
0000
0010
0000
1000
0000
0100
0000
0010
0000
0100
0000
1000
0001
0000
0001
,  // measure 45
0010
0000
0100
0000
0010
0000
0001
0000
1000
0000
0010
0000
0001
0010
0000
1000
,  // measure 46
0010
0000
0100
0000
0001
0000
1000
0000
0100
0000
1000
0000
0010
1000
0000
1000
,  // measure 47
0001
0000
0100
0000
0001
0000
0010
0000
0100
0000
1000
0000
0001
0100
0000
0010
,  // measure 48
1000
0000
0001
0000
1000
0010
0100
0001
1000
0000
0010
0100
0000
0100
0010
0000
,  // measure 49
1001
1000
0001
0000
0100
0020
0000
0000
,  // measure 50
0000
0000
0130
0001
1000
0000
0010
0000
0100
0000
0001
1000
0010
0000
0100
0000
,  // measure 51
0001
0010
0100
1000
0010
0100
1000
0100
,  // measure 52
0001
0010
1000
0010
0001
1000
0001
1000
,  // measure 53
0020
0000
0000
0130
0001
0010
0001
0100
,  // measure 54
0010
0000
1000
0010
0100
0000
0001
0000
0010
0000
0100
0000
0010
0000
0001
0000
,  // measure 55
1000
0020
0000
0000
0130
0002
0000
0000
,  // measure 56
0000
0000
1003
0001
0100
0001
1000
0010
0100
1000
0100
0010
1000
0001
0100
0001
,  // measure 57
0010
0100
2000
0000
0000
3002
0000
0203
,  // measure 58
0000
0010
0320
0000
1030
2000
0000
3002
,  // measure 59
0000
0013
0020
0000
0000
0000
0000
0001
,  // measure 60
0000
0130
0200
0000
1300
2000
0000
3002
,  // measure 61
0000
0103
0200
0000
0000
0000
0000
0000
,  // measure 62
0000
0310
0020
0000
1030
2000
0000
3002
,  // measure 63
0000
2000
0000
0000
0000
0000
3003
1001
,  // measure 64
0110
1001
0000
0020
0000
0200
0330
1001
,  // measure 65
1001
0000
0000
0000
0110
0000
0000
0000
0010
0000
1000
0000
0001
1000
0000
0010
,  // measure 66
1000
0000
0100
0000
0010
0000
0001
0000
0100
0000
1000
0000
0100
0001
0000
0001
,  // measure 67
1000
0000
0100
0000
0010
0000
0001
0000
1000
0000
0010
0000
0100
0001
0000
1000
,  // measure 68
0010
0000
0100
0000
0001
0000
0010
0000
0100
0000
0010
0000
0001
1000
0000
1000
,  // measure 69
0100
0000
0010
0000
0100
0000
1000
0000
0001
0000
0100
0000
1000
0100
0000
0001
,  // measure 70
0100
0000
0010
0000
1000
0000
0001
0000
0010
0000
0001
0000
0100
0001
0000
0001
,  // measure 71
1000
0000
0010
0000
1000
0000
0100
0000
0010
0000
0001
0000
1000
0010
0000
0100
,  // measure 72
0001
0000
1000
0000
0001
0010
0100
1000
0001
0000
0100
0010
0000
0010
1000
0000
,  // measure 73
0001
0100
1001
0000
0000
0000
0110
0110
,  // measure 74
1001
0000
0000
0000
,  // measure 75
0000
0000
0000
0000
0000
0000
0001
0010
,  // measure 76
0100
1000
0001
0010
0100
1000
0010
0200
,  // measure 77
0300
0000
0000
0000
;

//---------------dance-single - ----------------
#NOTEDATA:;
#CHARTNAME:;
#STEPSTYPE:dance-single;
#DESCRIPTION:;
#CHARTSTYLE:;
#DIFFICULTY:Medium;
#METER:11;
#RADARVALUES:0.466927,0.513003,0.062705,0.384067,0.000000,417.000000,409.000000,8.000000,49.000000,0.000000,0.000000,0.000000,0.000000,0.000000,0.466927,0.513003,0.062705,0.384067,0.000000,417.000000,409.000000,8.000000,49.000000,0.000000,0.000000,0.000000,0.000000,0.000000;
#CREDIT:;
#NOTES:
0000
0000
0010
0000
0100
0000
0001
1000
,
0001
0000
0100
0010
1000
0020
0000
0000
,
1030
0001
0100
0002
0000
0000
1003
0100
,
1000
0001
0010
0001
1000
0100
1000
0020
,
0000
0130
0001
1000
0001
2000
0000
0000
,
0000
0000
3001
0100
0001
0020
0000
0000
,
0031
1000
0100
2000
0000
0000
3001
1000
,
0100
1000
0010
0100
0010
1000
0001
1000
,
0010
0100
0001
0010
0001
1000
0100
1000
,
0001
0100
0001
0000
0010
0000
0100
0000
,
1000
0000
0001
0100
0001
1000
0010
1000
,
0010
0100
0001
1000
,
0100
0000
1000
0001
1000
0010
0100
0010
,
0100
0001
1000
0010
,
1000
0000
0001
1000
0001
1000
0100
0010
,
0001
1000
0010
1000
,
0001
0000
1000
0100
1000
0001
0010
0001
,
1000
0010
0100
0100
0000
0010
0000
0001
,
0000
1000
1000
0010
0020
0000
0230
0000
,
0302
0000
1003
1000
0001
0001
0000
0100
,
0000
0010
0010
1000
2000
0000
3200
0000
,
0320
0000
0031
0001
0010
0010
0000
0001
,
0000
1000
1000
0001
0001
0000
0100
0000
,
0001
0000
0010
0010
0100
0100
1000
0000
,
0001
0000
0100
0100
0010
0010
0000
0000
,
1000
0000
0001
0001
0100
0100
0000
0001
,
0000
1000
1000
0001
0002
0000
2003
0000
,
3020
0000
0130
0100
0001
0001
0000
0010
,
0000
0100
0100
1000
2000
0000
3002
0000
,
0203
0000
0310
0010
1000
1000
0000
0001
,
0000
0010
0010
0001
0001
0000
2000
0000
,
3002
0023
0230
2300
,
3002
0000
1003
0001
0010
0001
1000
0100
,
1000
0001
1001
0000
0010
0000
1000
0001
,
1000
0000
0100
0000
0010
0000
0100
1000
,
0001
0000
0010
0000
0001
0000
0100
0010
,
1000
0000
0001
0000
1000
0000
0100
0010
,
0001
0000
0010
0000
0100
0000
1000
0001
,
1000
0000
0010
0000
0100
0000
0001
0100
,
0010
0000
1000
0000
0001
0000
1000
0010
,
1000
1002
0000
0203
0000
0320
0000
0130
,
0010
1000
1001
0000
0100
0000
0001
1000
,
0001
0000
0010
0000
0100
0000
0010
0001
,
1000
0000
0100
0000
1000
0000
0010
0100
,
0001
0000
1000
0000
0001
0000
0010
0100
,
1000
0000
0100
0000
0010
0000
0001
1000
,
0001
0000
0100
0000
0010
0000
1000
0010
,
0100
0000
0001
0000
1000
0000
0001
0100
,
0001
1000
0010
1000
0100
0010
0001
0100
,
0110
0000
0001
0000
1000
0002
0000
0000
,
0000
1003
0010
0000
1000
0000
0001
1000
,
0000
0001
0000
1000
0100
1000
0001
0100
,
0010
1000
0000
0001
0100
0001
1000
0001
,
0200
0000
0000
0301
1000
0001
1000
0100
,
0000
0010
0001
0010
0001
1000
0100
1000
,
0001
0200
0000
0000
0310
2000
0000
0000
,
0000
3001
0100
0001
1000
0100
1000
0010
,
0100
0001
0200
0000
0000
0320
0000
2030
,
0000
3001
0002
0000
1003
2000
0000
3200
,
0000
1300
2000
0000
0000
0000
0000
0010
,
0000
3001
0002
0000
0103
0200
0000
0320
,
0000
1030
2000
0000
0000
0000
0000
0000
,
0000
3001
0002
0000
0103
0200
0000
0302
,
0000
2000
0000
0000
0000
0000
3003
0010
,
0010
1001
0000
0020
0000
0200
0030
0001
,
0301
0000
1001
0000
0010
0000
1000
0001
,
1000
0000
0100
0000
0010
0000
0100
1000
,
0001
0000
0010
0000
0001
0000
0100
0010
,
1000
0000
0001
0000
1000
0000
0100
0010
,
0001
0000
0010
0000
0100
0000
1000
0001
,
1000
0000
0010
0000
0100
0000
0001
0100
,
0010
0000
1000
0000
0001
0000
1000
0010
,
1000
0001
0100
0001
0010
0100
1000
0010
,
0100
0001
1001
0000
0000
0000
0100
0100
,
0110
0000
0000
0000
,
0000
0000
0000
0000
0000
0000
0001
0100
,
0001
1000
0010
1000
0001
0100
0010
0200
,
0300
0000
0000
0000
;

//---------------dance-single - ----------------
#NOTEDATA:;
#CHARTNAME:;
#STEPSTYPE:dance-single;
#DESCRIPTION:;
#CHARTSTYLE:;
#DIFFICULTY:Easy;
#METER:4;
#RADARVALUES:0.319122,0.331943,0.054867,0.446771,0.000000,285.000000,278.000000,7.000000,57.000000,0.000000,0.000000,0.000000,0.000000,0.000000,0.319122,0.331943,0.054867,0.446771,0.000000,285.000000,278.000000,7.000000,57.000000,0.000000,0.000000,0.000000,0.000000,0.000000;
#CREDIT:;
#NOTES:
0000
0000
0000
0000
,
0000
0000
1000
0000
0001
0200
0000
0000
,
0310
0000
1000
0002
0000
0000
0103
0000
,
0010
0000
1000
0000
0001
0000
0100
0020
,
0000
0030
1000
0000
0001
0020
0000
0000
,
0000
0000
0130
0000
1000
0002
0000
0000
,
0103
0000
0001
2000
0000
0000
3001
0000
,
0100
0010
1000
0001
,
1000
0100
0010
0001
,
1000
2002
3003
0100
,
0001
0001
1000
0010
,
0010
0100
0001
0001
,
0010
0100
0100
1000
,
0010
0010
0100
0001
,
0001
1000
0010
1000
,
0100
0000
0010
0000
0001
0000
1000
0010
,
0000
0100
0000
0010
0000
1000
0000
0001
,
0000
0000
2000
0000
0000
3001
0000
0100
,
0000
0002
0000
0000
2003
0000
3020
0000
,
0230
0000
0302
0000
0000
2003
0000
3002
,
0000
0023
0000
0000
0230
0000
2300
0000
,
3002
0000
1003
0000
0000
0010
0000
0000
,
1000
0000
0000
0001
0000
0000
0100
0000
,
0001
0010
0000
1000
,
0001
0200
0020
0300
,
1030
0000
0001
0000
0000
0010
0000
0100
,
0000
2000
0000
0000
3200
0000
0320
0000
,
0032
0000
2003
0000
0000
3002
0000
0013
,
0000
0100
0000
0000
2000
0000
3002
0000
,
0203
0000
0320
0000
0000
1030
0000
0000
,
0001
0000
0000
1000
0000
0000
0020
0000
,
0230
0302
0023
0230
,
2300
3001
0100
0001
,
1000
1001
0001
1000
,
0010
1000
0001
0010
,
0100
1000
0001
0100
,
0001
1000
0100
1000
,
0010
0100
0010
1000
,
0001
0010
0001
1000
,
0100
1000
0010
1000
,
0001
0200
0000
0320
0000
2030
0000
0001
,
3001
1001
0100
0001
,
1000
0001
0010
0100
,
1000
0100
0010
0001
,
1000
0010
0100
0010
,
1000
0001
1000
0010
,
0100
0001
0010
0001
,
1000
0100
1000
0001
,
0100
0001
1000
0010
,
0110
0000
0100
0000
0001
1000
0000
0000
,
0000
0010
0100
0000
0001
0000
1000
0010
,
0000
0100
0000
0000
0001
0000
0001
0000
,
1000
0010
0000
0000
0001
0000
0100
0000
,
0020
0000
0000
1030
0001
0000
1000
0001
,
0000
0100
0100
0010
,
0010
0200
0000
0000
0310
0200
0000
0000
,
0000
0310
1000
0001
,
1000
1002
0000
0203
,
0000
0302
0000
2003
,
0000
0000
3002
0000
0000
0000
0000
0103
,
0000
1000
0010
0000
0100
0001
0000
2000
,
0000
0002
0000
0000
0000
0000
0000
3003
,
0000
0001
1000
0000
0010
0100
0000
0002
,
0000
2000
0000
0000
0000
0000
3003
0010
,
0100
0010
0000
0100
0000
0200
0000
0010
,
0310
2002
3003
1000
,
0001
1000
0100
1000
,
0100
0010
0100
1000
,
0010
0100
0001
1000
,
0001
0010
0001
1000
,
0010
1000
0001
0100
,
0001
0010
0100
0010
,
0001
1000
0001
0100
,
0010
0000
1001
0000
0000
0000
0100
0100
,
0100
0000
0000
0000
,
0000
0000
0000
0001
,
1000
0000
0010
0000
0100
0100
0000
0020
,
0030
0000
0000
0000
;

//---------------dance-single - ----------------
#NOTEDATA:;
#CHARTNAME:;
#STEPSTYPE:dance-single;
#DESCRIPTION:;
#CHARTSTYLE:;
#DIFFICULTY:Beginner;
#METER:2;
#RADARVALUES:0.186995,0.241413,0.047029,0.266495,0.000000,167.000000,161.000000,6.000000,34.000000,0.000000,0.000000,0.000000,0.000000,0.000000,0.186995,0.241413,0.047029,0.266495,0.000000,167.000000,161.000000,6.000000,34.000000,0.000000,0.000000,0.000000,0.000000,0.000000;
#CREDIT:;
#NOTES:
0000
0000
0000
0000
,
0000
0000
1000
0000
0000
2000
0000
0000
,
3001
0000
0000
0002
0000
0000
0103
0000
,
0010
0000
0000
0000
1000
0000
0000
0020
,
0000
0030
0100
0000
0000
0020
0000
0000
,
0000
0000
1030
0000
0000
0200
0000
0000
,
1300
0000
0000
2000
0000
0000
3001
0000
,
0001
0000
1000
0000
,
0001
0000
0100
0000
,
0001
0000
2002
3003
0000
0000
1000
0000
,
0000
0001
0000
0010
,
0000
0100
0000
1000
,
0000
0001
0000
1000
,
0000
0010
0000
0100
,
0000
0001
0000
0010
,
0000
0000
0100
0000
0000
0000
0000
1000
,
0000
0001
0000
0100
0000
0010
0000
0100
,
0000
0000
2000
0000
0000
3000
0000
0001
,
0000
0002
0000
0000
0003
0000
0000
0000
,
0000
0000
2000
0000
0000
3100
0000
0001
,
0000
0200
0000
0000
0300
0000
0000
0000
,
0000
0000
0001
0000
0000
0100
0000
0000
,
0010
0000
0000
1000
0000
0000
0001
0000
,
0001
0001
0000
1000
,
0000
0000
0000
0100
,
0000
0000
0001
0000
0000
1000
0000
1000
,
0000
2000
0000
0000
3000
0000
0000
0000
,
0000
0000
0200
0000
0000
0310
0000
0010
,
0000
0010
0000
0000
0000
0000
0000
0000
,
0000
0000
0200
0000
0000
0310
0000
0000
,
1000
0000
0000
0001
0000
0000
0100
0000
,
0100
0100
0001
1000
,
0001
0200
0000
0302
,
0000
0003
1001
0000
0000
0000
0001
0000
,
0000
1000
0000
0001
,
0000
0010
0000
0100
,
0000
1000
0000
0001
,
0000
0010
0000
0100
,
0000
1000
0000
0001
,
0000
0100
0000
0010
,
0000
0100
0000
0000
0000
0100
0000
0001
,
0001
1001
0000
1000
,
0000
0001
0000
0010
,
0000
0001
0000
1000
,
0000
0100
0000
1000
,
0000
0010
0000
0100
,
0000
0001
0000
1000
,
0000
0010
0000
0100
,
0000
0001
0000
1000
,
1001
0000
0100
0000
0000
0100
0000
0000
,
0000
0100
0000
0010
,
0000
0100
0000
0001
,
0000
1000
0000
0000
0001
0000
0000
0000
,
1000
0000
0000
0000
0001
0000
0000
0001
,
0000
0100
0000
0010
,
0000
2000
0000
0000
0000
3002
0000
0000
,
0000
0003
0010
0000
0000
0000
0001
0000
,
0000
2000
0000
3200
,
0000
0302
0000
2003
,
0000
0000
3002
0000
0000
0000
0000
0003
,
0000
0020
0000
2030
,
0000
3002
0000
0003
,
0000
2000
0000
3002
,
0000
0203
0000
0300
,
0000
0010
0000
0100
0000
0200
0000
0000
,
0300
0000
2002
3003
0000
0000
1000
0000
,
0000
0001
0000
1000
,
0000
0001
0000
0010
,
0000
0100
0000
1000
,
0000
0010
0000
0100
,
0000
0001
0000
1000
,
0000
0100
0000
1000
,
0000
0001
0000
0010
,
0000
1001
0000
0010
,
0010
0000
0000
0000
,
0000
0000
0000
0000
,
0000
0000
0000
0000
0000
0100
0000
0200
,
0300
0000
0000
0000
;
