#TITLE:The Sealer;
#SUBTITLE:;
#ARTIST:Zektbach;
#TITLETRANSLIT:;
#SUBTITLETRANSLIT:;
#ARTISTTRANSLIT:;
#GENRE:;
#CREDIT:;
#BANNER:;
#BACKGROUND:The Sealer-bg.png;
#LYRICSPATH:;
#CDTITLE:;
#MUSIC:The Sealer.mp3;
#OFFSET:0.100000;
#SAMPLESTART:34.320053;
#SAMPLELENGTH:12.000000;
#SELECTABLE:YES;
#BPMS:0.000000=137.000000
,29.000000=205.000000
;
#STOPS:
;
#BGCHANGES:;
#KEYSOUNDS:;
#ATTACKS:;

//---------------dance-single - ----------------
#NOTES:
     dance-single:
     :
     Hard:
     14:
     0.800547,0.786502,0.620127,0.499127,0.083188,593.000000,82.000000,66.000000,0.000000,0.000000,0.000000,0.800547,0.786502,0.620127,0.499127,0.083188,593.000000,82.000000,66.000000,0.000000,0.000000,0.000000:
0000
0000
0000
0000
,
0000
0000
1001
0000
0100
0010
0100
0000
,
2001
3020
0230
0301
,
0100
0010
0100
0000
0001
1000
0100
0000
,
0010
0000
1001
0000
0010
0001
0010
0000
,
0100
1000
0001
0000
0100
0010
0100
0001
,
1000
0010
0001
1000
0100
0001
0010
0100
,
1000
0000
0010
0000
2002
0000
3003
0000
0000
0010
1000
0000
0010
0000
0100
0000
,
0001
0000
0100
0000
0100
0000
0001
1000
0000
0000
0010
0000
0100
0000
0001
0000
,
0002
0000
1003
0100
0100
0000
0010
0001
,
0000
1000
0010
0000
0110
0000
0101
0000
,
1010
0000
0100
0010
0000
0010
2002
0000
,
0000
0000
0000
3003
0000
0000
0001
0000
0010
0000
0100
0000
1000
0000
0000
0000
0000
0000
0000
0000
1000
0000
0010
0000
,
0100
0000
0000
0001
1000
0010
0100
0001
0010
0100
1000
0001
,
0100
0000
0010
1000
0000
1000
0010
0000
,
1010
0000
0110
0000
0001
0000
0100
0001
,
0000
0001
1000
0000
0100
0010
0001
0000
,
1000
0000
0010
0100
0000
0001
1000
0000
,
1010
0000
0101
0000
1001
0000
0010
2000
,
0000
0001
0001
0000
3010
0000
1010
0000
,
1000
0000
0001
0100
0001
1000
1000
0000
,
1020
0000
0230
0000
0301
0000
1000
0001
,
0100
0010
0010
0000
0102
0000
2003
0000
,
3100
0000
0010
0001
1000
0001
0001
0000
,
1200
0000
0320
0000
1030
0000
0010
0001
,
1000
0100
0100
0010
0001
1000
1000
0010
,
0110
0000
0010
0100
1000
0100
0010
0000
,
0110
0000
0000
0001
1000
0000
1000
0010
,
0000
0010
0100
0000
0110
0000
1001
0000
,
1010
0000
0010
1000
0001
0100
0001
0000
,
0100
0000
0010
0000
1000
0000
0010
0100
,
0000
0001
1000
0000
1100
0000
0011
0000
,
0110
0000
0100
1000
0001
0010
0100
0000
,
1100
0000
0000
0010
0001
0000
0001
1000
,
0000
0010
0100
0000
0010
0000
1010
0000
,
0101
0000
0001
0010
1000
0001
0100
0000
,
1000
0000
0010
0000
0100
0000
0001
0100
,
0000
0010
1000
0000
0010
0110
0000
1000
,
1010
0000
0010
0100
0000
0010
1000
0000
,
0010
0100
0001
0010
0001
0000
0100
0010
,
0000
0100
0001
0000
0100
0010
0100
1000
,
0100
0000
0001
0010
0000
0100
1000
0000
,
0001
0010
0100
1000
0001
0000
0100
0010
,
0000
0100
0001
0000
0100
0010
1000
0100
,
1000
0000
0010
0100
0000
0001
0100
0000
,
0010
0100
0010
0001
0010
0000
1000
0100
,
0000
0010
0001
0000
1000
0100
0010
1000
,
0010
0000
0001
0100
0000
0100
1000
0000
,
0100
0001
0010
0100
0001
0000
0100
1000
,
0000
0001
0010
0000
0100
1000
0100
0010
,
0022
0000
0033
2200
0000
3300
1000
0100
,
0010
0010
0100
1000
0001
0100
0100
0010
,
0100
0001
1000
1000
0010
0100
0010
1000
,
2020
0000
3030
2200
0000
3300
0220
0300
,
0031
1000
0100
0100
0010
0001
1000
1000
,
0010
0001
1000
0100
0100
0010
0100
0001
,
2002
0000
3003
0220
0000
0330
0001
0010
,
0100
0100
0010
0001
1000
0010
0010
0100
,
0010
1000
0001
0001
0100
0010
0100
0001
,
0202
0000
0303
0022
0000
0033
0220
0030
,
1300
0001
0010
0010
0100
1000
0001
0001
,
0100
1000
0001
0010
0010
0100
0010
1000
,
0010
0010
0100
0100
0010
1000
0001
0000
,
0101
0000
0110
0000
1010
0000
1000
0010
,
0000
0010
0100
0000
0110
0000
0100
0000
,
0110
0010
1000
0001
0010
0100
1000
0000
,
0010
0000
0100
0000
0001
0000
1000
0100
,
0000
0100
1100
0000
1100
0000
1000
0000
,
1010
0010
0100
0001
1000
0010
0100
0000
,
0001
0000
0010
0000
0100
0000
1000
0100
,
0000
0100
0110
0000
0011
0000
0001
0000
,
0101
0100
0010
1000
0010
0100
1000
0000
,
0100
0000
0001
0000
1000
0000
0001
0010
,
0000
0100
1100
0000
1010
0000
0010
0000
,
0110
0000
0010
1000
0020
0100
0130
0000
,
0010
0100
0002
0010
0013
0000
0100
1000
,
0001
1000
1001
0000
2002
0000
0000
3003
,
1010
0000
1000
0001
0020
0100
0130
0000
,
0010
0001
2000
0010
3010
0000
0100
0001
,
0100
0010
1010
0000
0202
0000
0000
0303
,
1001
0000
0100
0001
0200
0010
0310
0000
,
0100
0010
2000
0100
3100
0000
0010
0001
,
1000
0001
1001
0000
2002
0000
0000
3003
,
0101
0000
0001
1000
0200
0010
0310
0000
,
0100
1000
0002
0100
0103
0000
0010
1000
,
0010
0100
0101
0000
2020
0000
0000
3030
,
0100
0001
1000
0010
0100
0100
0010
0000
,
1010
0000
0101
0000
0001
0010
0100
1000
,
1000
0010
0100
0000
0101
0000
0011
0000
,
0010
1000
0001
0100
0100
1000
0001
0000
,
0101
0000
0110
0000
0010
0100
1000
0001
,
0010
0010
1000
0000
0001
0000
0110
0000
,
1000
0010
0001
1000
0100
0001
0010
1000
,
0001
0100
1000
0000
0001
0010
1000
0010
,
0001
0100
0202
0303
2002
3003
0010
0100
,
1000
0001
0010
0100
1000
0100
0001
0010
,
0100
1000
0010
0100
1000
0100
0010
0001
,
1000
0100
0220
0330
2002
3003
0001
0100
,
1001
0000
1000
0010
0000
0010
0100
0000
,
0101
0000
0110
0000
2020
0000
3030
2002
,
0000
0000
0000
3003
0000
0000
0220
0000
0000
0000
0000
0000
0000
0000
0000
0000
0330
0000
0010
0000
1000
0000
0001
0000
,
0100
0000
0000
0000
0001
1000
0100
0000
0000
0010
0001
0010
,
0100
1000
0010
0001
0010
0100
2000
0000
0000
0000
0000
0000
,
0000
0000
0000
0000
,
3000
0000
0000
0000
;

//---------------dance-single - ----------------
#NOTES:
     dance-single:
     :
     Medium:
     11:
     0.501287,0.589877,0.310063,0.468876,0.000000,361.000000,41.000000,62.000000,0.000000,0.000000,0.000000,0.501287,0.589877,0.310063,0.468876,0.000000,361.000000,41.000000,62.000000,0.000000,0.000000,0.000000:
0000
0000
0000
0000
,
0000
0002
0100
1003
,
2000
0010
3002
0203
,
0000
0320
0000
0000
2030
0000
3200
0000
,
0320
0000
0032
0000
0000
2003
0000
0000
,
3200
2300
3020
0230
,
0302
0000
2003
0000
3010
0100
0010
0100
,
0010
0100
2002
0000
3003
0000
0000
0000
,
0000
0000
0000
0000
,
0000
0000
0010
0010
0010
0000
0100
0010
,
0000
0100
0010
0000
0100
0000
0100
0000
,
0100
0000
0000
0110
0000
0000
2002
0000
,
0000
3003
0001
0000
1000
0000
0000
0000
,
0010
0100
0000
0000
,
0001
0000
0000
1000
0000
0000
0001
0000
,
0100
0000
0100
0000
0001
0000
0000
1000
,
0000
0100
0010
0001
,
1000
0000
0000
0100
0000
0000
0010
0000
,
0001
0000
0001
0000
1000
0000
0000
0010
,
0000
0100
0100
0000
0010
0000
0200
0000
,
0000
0301
0001
0001
,
2000
3020
0130
0100
,
0010
0010
0200
0302
,
1003
1000
0001
0001
,
0200
0320
1030
1000
,
0001
0001
1000
1000
,
1001
0000
0010
0010
0000
0000
0200
0000
,
0310
0000
0000
0001
1000
0000
0001
1000
,
0000
0001
1000
0000
1010
0000
1010
0000
,
1010
0000
0100
0100
0000
0001
0001
0000
,
0200
0000
0320
0000
0130
0000
0010
0100
,
0000
0010
0100
0000
1001
0000
1001
0000
,
1001
0000
0100
0100
0000
0010
0010
0000
,
1000
0000
0000
0001
0100
0000
0001
0100
,
0000
0001
0100
0000
0101
0000
0101
0000
,
0101
0000
0100
0100
0000
0010
0010
0000
,
1000
0000
1000
0000
0010
0000
0000
0100
,
0000
0000
0010
0000
0000
1100
0000
0000
,
0101
0000
0000
0010
0000
0000
0100
0000
,
0001
0000
0001
0000
0001
0000
0000
1000
,
0000
0001
0100
0100
,
0100
0000
0000
0001
0000
0000
1000
0000
,
0010
0000
0010
0000
0010
0000
0000
0100
,
0000
0001
1000
1000
,
1000
0000
0000
0100
0000
0000
0010
0000
,
0001
0000
0001
0000
0001
0000
0000
1000
,
0000
0010
0100
0100
,
0100
0000
0000
0001
0000
0000
1000
0000
,
0010
0000
0010
0000
0010
0000
0000
0100
,
0000
0010
1000
0001
,
0002
0000
0000
2003
0000
0000
3001
0000
,
0001
0100
0100
0010
,
0010
1000
1000
0010
,
0020
0000
0000
2030
0000
0000
3002
0000
,
0103
0100
0010
0010
,
1000
1000
0001
0001
,
0002
0000
0000
0203
0000
0000
0310
0000
,
0010
1000
1000
0001
,
0001
0100
0100
0010
,
0020
0000
0000
2030
0000
0000
3002
0000
,
0003
0000
2002
0000
,
0000
0000
0000
0000
0000
0000
0000
3003
,
0010
1000
0001
1000
,
0010
0000
0100
0000
0001
0000
0000
1000
,
0000
0100
0110
0000
,
0110
0010
0001
1000
,
0100
0000
1000
0000
0001
0000
0000
0100
,
0000
0010
1010
0000
,
1010
0100
0001
0100
,
0010
0000
1000
0000
0100
0000
0000
0010
,
0000
0001
0011
0000
,
0011
0010
0001
1000
,
0100
0000
1000
0000
0001
0000
0000
0100
,
0000
0010
1001
0000
,
1001
0000
0010
0000
0000
0100
0100
0000
,
0001
0000
0000
0010
0010
0000
0100
0000
,
0000
1000
1000
0000
2200
0000
0000
3300
,
1000
0000
0010
0000
0000
0001
0001
0000
,
0100
0000
0000
0010
0010
0000
1000
0000
,
0000
0001
0001
0000
0202
0000
0000
0303
,
0001
0000
0100
0000
0000
0010
0010
0000
,
1000
0000
0000
0100
0100
0000
0010
0000
,
0000
0001
0001
0000
2002
0000
0000
3003
,
1000
0000
0001
0000
0000
0100
0100
0000
,
0010
0000
0000
1000
1000
0000
0001
0000
,
0000
0100
0100
0000
0220
0000
0000
0330
,
0100
0010
0100
0010
,
1001
1001
0010
0100
,
0010
0100
1010
1010
,
0001
0100
0001
0100
,
0101
0101
0010
1000
,
0010
1000
0010
0110
,
0110
0001
0001
0001
,
0001
1000
1000
1000
,
1000
0020
0230
0320
,
0130
0100
0100
0100
,
0010
0010
0010
0010
,
1000
0002
2003
3001
,
1001
0000
0000
0010
0000
0000
0100
0000
,
0100
0000
0110
0000
0220
0000
0330
2002
,
0000
0000
0000
3003
0000
0000
0220
0000
0000
0000
0000
0000
0000
0000
0000
0000
0330
0000
0010
0000
0000
0000
0000
0000
,
0100
0000
0001
1000
,
0000
0100
0020
0000
,
0000
0000
0000
0000
,
0030
0000
0000
0000
;

//---------------dance-single - ----------------
#NOTES:
     dance-single:
     :
     Easy:
     5:
     0.351117,0.432576,0.113438,0.347876,0.000000,264.000000,15.000000,46.000000,0.000000,0.000000,0.000000,0.351117,0.432576,0.113438,0.347876,0.000000,264.000000,15.000000,46.000000,0.000000,0.000000,0.000000:
0000
0000
0000
0000
,
0000
2000
0000
3000
,
0020
0000
0030
2000
,
0000
3000
0200
0000
,
0300
2000
0000
3000
,
0020
0000
0030
2000
,
0000
3000
0002
0000
,
0003
0200
0300
0000
,
0000
0000
0000
0000
,
0000
0000
0100
0000
0100
0000
0000
0010
,
0000
0100
0100
0010
,
0010
0000
0000
0100
0000
0000
2002
0000
,
0000
3003
0000
0000
0000
0000
0000
0000
,
0000
0000
0000
0000
,
0100
0000
0000
0010
,
0010
0010
0010
0000
,
0000
1000
1000
1000
,
1000
0000
0000
0001
,
0001
0000
0001
0000
0001
0000
0000
0100
,
0000
0010
0010
0020
,
0000
1030
0000
1000
,
0002
0203
0310
0000
,
0100
0000
0020
2030
,
3001
0000
1000
0000
,
0020
0230
0301
0000
,
1000
0000
0001
0000
,
0100
0000
0000
0100
0000
0000
0020
0000
,
0030
0000
0000
1000
0000
0000
1000
0000
,
0000
1000
0000
0000
0001
0000
0001
0000
,
0001
0000
0010
0000
0000
1000
0000
0000
,
0020
0230
0300
0100
,
0000
0010
0000
0000
1000
0000
1000
0000
,
1000
0000
0010
0000
0000
0100
0000
0000
,
0001
0000
0000
1000
0000
0000
1000
0000
,
0000
1000
0000
0000
0010
0000
0010
0000
,
0010
0000
0100
0000
0000
0100
0000
0000
,
0001
0000
0000
0000
0100
0000
0000
0010
,
0000
0000
0100
0000
0000
0100
0000
0000
,
0010
0000
0000
0010
0000
0000
1000
0000
,
0000
0000
1000
0000
0000
0000
0000
0001
,
0000
1000
0000
0010
,
0000
0000
0000
1000
0000
0000
0001
0000
,
0000
0000
0100
0000
0000
0000
0000
0010
,
0000
1000
0000
0001
,
0000
0000
0000
0010
0000
0000
0100
0000
,
0000
0000
1000
0000
0000
0000
0000
0001
,
0000
0100
0000
0010
,
0000
0000
0000
1000
0000
0000
0001
0000
,
0000
0000
0100
0000
0000
0000
0000
0010
,
0000
0100
0000
0010
,
2000
0000
0000
3002
0000
0000
1003
0000
,
0000
0010
0000
0100
,
0000
0001
0000
0100
,
0200
0000
0000
0302
0000
0000
2003
0000
,
3010
0000
0100
0000
,
0001
0000
1000
0000
,
2000
0000
0000
3020
0000
0000
0130
0000
,
0000
0001
0000
1000
,
0000
0010
0000
0100
,
0200
0000
0000
0302
0000
0000
2003
0000
,
3000
0000
2002
0000
,
0000
0000
0000
0000
0000
0000
0000
3003
,
0100
0100
0100
0010
,
0100
0000
0100
0000
0100
0000
0000
0001
,
0000
1000
1000
0000
,
1001
0001
0001
0100
,
0010
0000
0010
0000
0010
0000
0000
1000
,
0000
0001
0001
0000
,
0101
0100
0100
0010
,
1000
0000
1000
0000
1000
0000
0000
0010
,
0000
0100
0100
0000
,
0110
0010
0010
1000
,
0001
0000
0001
0000
0001
0000
0000
0100
,
0000
0010
0010
0000
,
1000
0000
0000
0000
0000
0010
0010
0000
,
0000
0000
0000
0100
0100
0000
0000
0000
,
0000
0001
0001
0000
0020
0000
0000
0000
,
0031
0000
0000
0000
0000
1000
1000
0000
,
0000
0000
0000
0100
0100
0000
0000
0000
,
0000
1000
1000
0000
0020
0000
0000
0000
,
1030
0000
0000
0000
0000
0100
0100
0000
,
0000
0000
0000
0010
0010
0000
0000
0000
,
0000
1000
1000
0000
0002
0000
0000
0000
,
1003
0000
0000
0000
0000
0010
0010
0000
,
0000
0000
0000
0001
0001
0000
0000
0000
,
0000
0010
0010
0000
0200
0000
0000
0000
,
1300
1000
1000
1000
,
1001
1001
0010
0010
,
0010
0010
0101
0101
,
0100
0100
0100
0100
,
1010
1010
0010
0010
,
0010
0010
0010
0110
,
0110
1000
1000
1000
,
1000
0001
0001
0001
,
0001
0200
0320
0230
,
0310
0010
0010
0010
,
0100
0100
0100
0100
,
0001
2000
3002
1003
,
1001
0000
0000
0100
0000
0000
0010
0000
,
0010
0000
0010
0000
0200
0000
0000
0310
,
0000
0000
0000
0220
0000
0000
0000
0000
0330
0000
0000
0000
,
0000
0000
0000
0000
,
0000
0100
0200
0000
,
0000
0000
0000
0000
,
0300
0000
0000
0000
;

//---------------dance-single - ----------------
#NOTES:
     dance-single:
     :
     Beginner:
     3:
     0.245242,0.314601,0.007563,0.340314,0.000000,181.000000,1.000000,45.000000,0.000000,0.000000,0.000000,0.245242,0.314601,0.007563,0.340314,0.000000,181.000000,1.000000,45.000000,0.000000,0.000000,0.000000:
// measure 0
0000
0000
0000
0000
,  // measure 1
0000
0002
0000
0003
,  // measure 2
0200
0000
0300
0002
,  // measure 3
0000
0003
0020
0000
,  // measure 4
0030
0002
0000
0003
,  // measure 5
0200
0000
0300
0002
,  // measure 6
0000
0003
2000
0000
,  // measure 7
3000
0020
0030
0000
,  // measure 8
0000
0000
0000
0000
,  // measure 9
0000
0000
0000
0000
0010
0000
0000
0100
,  // measure 10
0000
0010
0000
0100
,  // measure 11
0000
0000
0000
0010
0000
0000
0200
0000
,  // measure 12
0000
0300
0000
0000
,  // measure 13
0000
0000
0000
0000
,  // measure 14
0010
0000
0000
0100
,  // measure 15
0000
0100
0000
0000
,  // measure 16
0000
0001
0000
0001
,  // measure 17
0000
0000
0000
1000
,  // measure 18
0000
0000
1000
0000
0000
0000
0000
0010
,  // measure 19
0000
0100
0000
0200
,  // measure 20
0000
0300
0000
0001
,  // measure 21
2000
3020
0030
0000
,  // measure 22
0010
0000
0200
0302
,  // measure 23
0003
0000
0001
0000
,  // measure 24
0200
0320
0030
0000
,  // measure 25
0001
0000
1000
0000
,  // measure 26
0010
0000
0000
0010
0000
0000
0200
0000
,  // measure 27
0300
0000
0000
0001
0000
0000
0001
0000
,  // measure 28
0000
0001
0000
0000
1000
0000
0000
0000
,  // measure 29
1000
0000
0000
0000
0000
0001
0000
0000
,  // measure 30
0200
0320
0030
0000
,  // measure 31
0000
0100
0000
0000
0001
0000
0000
0000
,  // measure 32
0001
0000
0000
0000
0000
0010
0000
0000
,  // measure 33
1000
0000
0000
0001
0000
0000
0001
0000
,  // measure 34
0000
0001
0000
0000
0100
0000
0000
0000
,  // measure 35
0100
0000
0000
0000
0000
0010
0000
0000
,  // measure 36
1000
0000
0000
0000
0010
0000
0000
0100
,  // measure 37
0000
0010
0000
0000
,  // measure 38
0100
0000
0000
0100
0000
0000
0000
0000
,  // measure 39
0000
0000
0001
0000
0000
0000
0000
1000
,  // measure 40
0000
0001
0000
0000
,  // measure 41
0000
0000
0000
0001
0000
0000
1000
0000
,  // measure 42
0000
0000
0000
0000
0000
0000
0000
0100
,  // measure 43
0000
0001
0000
0000
,  // measure 44
0000
0000
0000
0100
0000
0000
0010
0000
,  // measure 45
0000
0000
0000
0000
0000
0000
0000
1000
,  // measure 46
0000
0010
0000
0000
,  // measure 47
0000
0000
0000
0001
0000
0000
1000
0000
,  // measure 48
0000
0000
0000
0000
0000
0000
0000
0100
,  // measure 49
0000
0010
0000
0000
,  // measure 50
0002
0000
0000
2003
0000
0000
3000
0000
,  // measure 51
0000
0100
0000
0010
,  // measure 52
0000
1000
0000
0000
,  // measure 53
0020
0000
0000
2030
0000
0000
3002
0000
,  // measure 54
0003
0000
0010
0000
,  // measure 55
1000
0000
0000
0000
,  // measure 56
0002
0000
0000
0203
0000
0000
0300
0000
,  // measure 57
0000
1000
0000
0001
,  // measure 58
0000
0100
0000
0000
,  // measure 59
0020
0000
0000
2030
0000
0000
3002
0000
,  // measure 60
0003
0000
2002
0000
,  // measure 61
0000
0000
0000
0000
0000
0000
0000
3003
,  // measure 62
0010
0000
0100
0000
,  // measure 63
0010
0000
0000
0000
0100
0000
0000
1000
,  // measure 64
0000
0001
0001
0000
,  // measure 65
1000
0000
0010
0000
,  // measure 66
0100
0000
0000
0000
0010
0000
0000
0100
,  // measure 67
0000
0001
0001
0000
,  // measure 68
1000
0000
0010
0000
,  // measure 69
0100
0000
0000
0000
0010
0000
0000
0100
,  // measure 70
0000
0001
0001
0000
,  // measure 71
0010
0000
0100
0000
,  // measure 72
1000
0000
0000
0000
0010
0000
0000
0010
,  // measure 73
0000
0100
0100
0000
,  // measure 74
0001
0000
0000
0000
0000
0100
0000
0000
,  // measure 75
0000
0000
0000
0010
0000
0000
0000
0000
,  // measure 76
0000
1000
0000
0000
0200
0000
0000
0000
,  // measure 77
0300
0000
0000
0000
0000
0001
0000
0000
,  // measure 78
0000
0000
0000
0010
0000
0000
0000
0000
,  // measure 79
0000
0001
0000
0000
0200
0000
0000
0000
,  // measure 80
0300
0000
0000
0000
0000
0010
0000
0000
,  // measure 81
0000
0000
0000
0100
0000
0000
0000
0000
,  // measure 82
0000
0001
0000
0000
2000
0000
0000
0000
,  // measure 83
3000
0000
0000
0000
0000
0100
0000
0000
,  // measure 84
0000
0000
0000
1000
0000
0000
0000
0000
,  // measure 85
0000
0100
0000
0000
0020
0000
0000
0000
,  // measure 86
0031
0000
0001
0000
,  // measure 87
1000
1000
0100
0000
,  // measure 88
0100
0000
0010
0010
,  // measure 89
0000
0001
0000
0001
,  // measure 90
0100
0100
0000
0010
,  // measure 91
0000
0010
1000
1000
,  // measure 92
0000
0010
0000
0100
,  // measure 93
0000
0001
0000
1000
,  // measure 94
0000
0020
0230
0320
,  // measure 95
0130
0000
0010
0000
,  // measure 96
0100
0000
0001
0000
,  // measure 97
1000
0002
2003
0000
,  // measure 98
3001
0000
0000
0010
0000
0000
0100
0000
,  // measure 99
0000
0000
1000
0000
0020
0000
0000
0230
,  // measure 100
0000
0000
0000
0320
0000
0000
0000
0000
0030
0000
0000
0000
,  // measure 101
0000
0000
0000
0000
,  // measure 102
0000
0000
0020
0000
,  // measure 103
0000
0000
0000
0000
,  // measure 104
0030
0000
0000
0000
;
