#TITLE:The Omen;
#SUBTITLE:;
#ARTIST:RoughSketch;
#TITLETRANSLIT:;
#SUBTITLETRANSLIT:;
#ARTISTTRANSLIT:;
#GENRE:;
#CREDIT:;
#BANNER:;
#BACKGROUND:;
#LYRICSPATH:;
#CDTITLE:;
#MUSIC:The Omen.mp3;
#OFFSET:0.460000;
#SAMPLESTART:78.639954;
#SAMPLELENGTH:12.000000;
#SELECTABLE:YES;
#BPMS:0.000000=185.020004
,146.500000=92.510002
,148.500000=185.020004
,152.500000=92.510002
,154.500000=185.020004
,158.500000=92.510002
,160.500000=185.020004
,168.500000=92.510002
,185.500000=185.020004
,263.500000=92.510002
,264.500000=185.020004
;
#STOPS:78.000000=0.380000,
168.500000=0.800000
;
#BGCHANGES:;
#KEYSOUNDS:;
#ATTACKS:;

//---------------dance-single - ----------------
#NOTES:
     dance-single:
     :
     Hard:
     16:
     0.775256,0.808979,0.352826,0.168012,0.655247,584.000000,42.000000,20.000000,0.000000,0.000000,0.000000,0.775256,0.808979,0.352826,0.168012,0.655247,584.000000,42.000000,20.000000,0.000000,0.000000,0.000000:
0000
0000
0000
0000
,
0000
0000
0000
0000
,
1000
0000
0010
0000
,
0100
0000
0000
0000
0000
0000
0001
0000
0000
0000
0000
0000
1000
0001
1000
0001
,
0100
0000
0010
0000
,
1000
0000
0000
0001
0000
0000
0100
0010
,
1000
0000
0100
0000
,
0010
0000
0002
0000
0000
0000
0103
0000
0000
0000
0000
0000
0001
0100
0001
0100
,
0010
0000
1001
0000
,
0200
0000
0000
0000
0000
0000
0000
0000
0310
1000
0010
1000
0001
0100
0001
0100
,
0020
0000
0000
2030
,
0002
0000
0000
0000
0000
0000
0000
3003
,
1001
0000
0000
0000
,
0100
0000
0000
0000
0000
0000
0010
0000
0000
0000
0000
0000
0100
0000
0000
0000
0000
0000
0001
0000
0000
0000
0000
0000
0010
0000
0000
0000
0001
0000
0000
0000
1000
0000
0000
0000
0001
0000
0000
1000
0000
0000
0001
0000
0000
1000
0000
0000
,
0020
0000
0000
0000
0000
0000
0000
0000
0000
0000
0000
0000
1030
0001
1000
0001
,
0100
0000
0010
0000
0100
0001
0100
0001
0010
0000
0100
0000
1000
0100
1000
0100
,
0020
0000
0000
0000
0000
0000
0000
0030
,
2002
0000
0000
0000
,
0000
0000
0000
0000
,
0000
0000
0000
3003
0110
0000
0010
1000
,
0001
0100
0001
0100
0010
1000
0010
1000
0001
0100
0001
0000
1000
0000
0010
0000
,
0100
0001
0100
0001
0010
0000
0100
0000
1000
0100
1000
0000
0001
0000
0100
0000
,
0001
0000
1000
0010
1000
0010
0100
0000
0001
0000
1000
0000
0010
0000
0100
0000
,
0002
0000
0000
0000
1003
0010
1000
0000
0001
0100
0001
0000
0010
0000
0100
0000
,
1000
0001
1000
0001
0100
0000
0010
0000
0100
0001
0100
0001
0010
0000
0100
1000
,
0100
0000
0010
0001
0010
0000
0100
0000
0100
0000
0100
0000
1000
0001
1000
0000
,
0100
0000
0010
0000
0001
0000
0010
0000
0100
0000
1000
0001
1000
0000
0010
0000
,
0100
0001
2000
0000
3002
0000
0203
0000
,
0301
0000
1000
0000
0001
0010
0001
0000
0100
0000
0010
0000
1000
0001
1000
0000
,
0010
0000
0100
0000
0001
0100
0001
0000
1000
0000
1000
0000
0001
0000
1000
0000
,
0100
0010
0100
0000
0010
0000
0001
0000
1000
0100
1000
0000
0001
0000
0100
0000
,
0001
0100
0001
0000
2000
0000
0000
0000
0000
0000
0000
0000
3001
0000
1000
0000
,
1001
0000
0010
0100
0110
0000
0001
1000
,
1100
0000
0100
0100
0100
0100
0110
0000
,
0011
0000
0001
0100
0101
0000
0010
0010
,
0010
0000
0010
0000
1000
0001
1000
0000
0010
0100
0010
0000
1000
0000
0001
0000
,
0100
0001
0100
0000
0010
0000
1000
0000
0100
0000
0110
0000
0010
0001
0000
1000
,
0000
0010
0000
0000
0110
0000
0000
0000
0100
0000
0001
0000
0000
0000
1000
0000
,
0000
0000
1001
0000
0001
1000
0000
0010
0000
0100
0000
0000
0110
0000
0000
0000
,
0010
0000
1000
0000
0000
0000
0001
0000
0000
0000
0101
0000
0100
0010
0000
1000
,
0000
0001
0000
0000
1001
0000
0000
0000
0001
0000
1000
0000
0000
0000
0010
0000
,
0000
0000
0101
0000
0000
0000
0100
0000
0010
0000
1000
0000
0001
0000
0000
0100
,
0000
0000
0110
0000
0010
1000
0001
0000
0000
0000
0100
0000
0010
1000
0001
0000
,
0001
0000
1000
0000
0010
0000
0100
0000
0001
1000
0000
0010
0000
0100
0000
0000
,
0000
0000
0001
0000
1000
0100
1000
0000
0000
0000
0000
0000
0010
0100
0010
0000
,
1000
0000
0100
0000
0010
0000
0001
1000
0010
1000
0000
0000
0100
0010
0100
0010
,
0000
0001
1000
0001
0010
0100
1000
0000
0000
0000
1000
0000
0100
0000
0000
0010
,
0000
0001
0000
0000
0100
0000
0000
0000
0000
0000
0010
0100
0010
0000
0000
1000
,
0000
0000
0001
0000
0000
0010
0000
0000
0000
0000
0100
0000
0000
1000
0000
0100
,
0000
0010
0000
0001
0000
0000
1000
0000
0000
0000
0001
0010
0100
1000
0100
0000
,
1000
0000
0010
0000
0100
0001
0100
0000
0000
0000
0001
0100
0010
0000
1000
0010
,
0100
0000
0001
0010
0100
0000
1000
0100
0010
0000
0001
1000
0100
0000
0010
0001
,
1000
0000
0010
1000
0001
0000
0100
0010
0100
0010
0100
0010
0100
0010
0100
0010
,
0100
0010
0100
0010
0100
0010
0200
0000
0000
0000
0000
0000
0000
0000
0301
0000
,
1000
0000
0001
0100
0001
0000
0100
0010
0100
0010
1000
0000
0001
0000
0010
0000
,
0100
0000
1000
0100
1000
0000
0001
1000
0001
1000
0100
0000
1000
0000
0100
0000
,
0010
0000
0001
0010
0001
0000
0010
0100
0010
0100
1000
0000
0001
0000
0100
0000
,
0001
0000
1000
0010
1000
0000
0001
0100
0001
0100
0010
0000
1000
0010
0000
0010
,
0000
0010
0000
0010
0100
0000
0001
1000
0001
1000
0100
0000
0010
0000
0001
0000
,
0010
0000
0100
0010
0100
0000
1000
0100
1000
0100
0010
0000
0001
0000
1000
0000
,
0010
0000
0100
0010
0100
0000
0001
0100
0001
0100
0010
0000
1000
0000
0001
0000
,
0100
0000
0010
1000
0010
0000
1000
0001
1000
0001
0100
0000
0001
1000
0000
1000
,
0000
1000
0000
1000
0001
0000
0100
0010
0100
0010
1000
0000
0001
0000
0010
0000
,
0100
0000
1000
0100
1000
0000
0001
1000
0001
1000
0100
0000
1000
0000
0100
0000
,
0010
0000
0001
0010
0001
0000
0010
0100
0010
0100
1000
0000
0001
0000
0100
0000
,
0001
0000
1000
0010
1000
0000
0001
0100
0001
0100
0010
1000
0001
1000
0010
0000
,
0000
0000
1000
0001
1000
0001
0010
0000
0100
0000
1000
0000
0010
0000
0100
0010
,
0100
0000
0001
1000
0001
1000
0100
0000
0010
0000
0001
0000
1000
0000
0001
0100
,
0001
0000
1000
0010
1000
0010
0100
0001
0100
0001
0010
0001
0010
0001
0010
0100
,
0010
0100
1000
0000
0010
0000
0010
0000
1000
0000
1000
0000
0001
0000
0001
0000
,
2000
0002
3003
0110
0000
0101
0000
0110
,
0000
1001
0000
1100
0000
0011
0000
1001
,
1000
1010
0000
0011
0000
1010
0000
0101
,
0000
1001
0000
1100
0000
1001
0001
0200
,
0000
0010
0310
1010
0000
0101
0000
0011
,
0000
0110
0000
0011
0000
1001
0000
1000
,
0010
0100
0110
0010
1000
0001
1001
1000
,
0010
1000
0001
1000
0001
0100
0010
0100
,
1001
2002
0000
0000
0000
0000
0000
0000
,
0000
0000
0000
0000
,
0000
3003
0000
0000
;

//---------------dance-single - ----------------
#NOTES:
     dance-single:
     :
     Challenge:
     18:
     1.000000,1.000000,0.529238,0.260419,1.000000,745.000000,63.000000,31.000000,0.000000,0.000000,0.000000,1.000000,1.000000,0.529238,0.260419,1.000000,745.000000,63.000000,31.000000,0.000000,0.000000,0.000000:
// measure 0
0000
0000
0000
0000
,  // measure 1
0000
0000
0000
0000
,  // measure 2
2001
0000
0002
3000
,  // measure 3
0200
0000
0003
0000
0000
0000
0020
0000
0300
0000
0000
0000
1030
0001
0100
0001
,  // measure 4
0200
0000
0002
0300
,  // measure 5
0020
0003
0000
0200
0030
0000
1300
0001
,  // measure 6
0020
0000
2000
0030
,  // measure 7
3010
0000
0002
0000
0000
0000
0200
0000
0003
0000
0000
0000
0301
0100
0001
0100
,  // measure 8
0020
0000
2000
0030
,  // measure 9
0002
0000
3000
0000
0000
0000
1003
0000
0001
0010
0100
1000
0001
0010
0100
1000
,  // measure 10
0002
0000
0000
0100
,  // measure 11
2000
0000
0000
0000
0000
0000
0000
3003
,  // measure 12
1001
0000
0000
0000
,  // measure 13
1000
0000
0000
0000
0000
0000
0001
0000
0000
0000
0000
0000
1000
0000
0000
0000
0000
0000
0001
0000
0000
0000
0000
0000
1000
0000
0000
0000
0010
0000
0000
0000
0100
0000
0000
0000
0001
0000
0000
0010
0000
0000
0100
0000
0000
1000
0000
0000
,  // measure 14
0002
0000
0000
0000
0000
0000
0000
0000
0000
0000
0000
0000
1003
0010
1000
0010
,  // measure 15
0100
0000
0001
0000
0010
0001
0010
0001
1000
0010
1000
0010
0100
0001
0100
0001
,  // measure 16
1000
0010
1000
0010
0100
0001
0010
0100
1000
0100
0010
0001
1000
0010
1000
0010
,  // measure 17
0200
0010
0010
0010
0010
0010
0010
0020
,  // measure 18
0000
0000
0000
0000
,  // measure 19
0000
0000
0000
0330
1001
0000
0001
1000
,  // measure 20
0001
0010
0001
1000
0100
1000
0001
0100
0001
0100
0010
0000
1000
0000
1000
0000
,  // measure 21
0001
0100
0001
0100
0010
0000
0010
0000
1000
0010
1000
0000
0001
0000
0001
0000
,  // measure 22
1000
0000
0100
1000
0100
0010
0001
0000
0001
0000
1000
0010
0000
0010
1000
0000
,  // measure 23
0001
0100
0001
0000
1000
0010
1000
0001
0010
0100
1000
0000
1000
0000
0001
0000
,  // measure 24
1000
0001
1000
0001
0100
0000
0100
0000
0010
1000
0010
1000
0001
0000
0001
0010
,  // measure 25
0100
0000
0100
1000
0010
0000
0110
0000
0101
0000
1001
0000
1000
0010
1000
0001
,  // measure 26
0100
0000
0010
0100
0000
0100
0001
0000
1000
0000
0010
1000
0010
0000
0100
0000
,  // measure 27
0100
0001
2001
0000
3001
0000
0210
0000
,  // measure 28
0301
0000
1000
0000
0001
0010
0001
0010
0100
1000
0100
1000
0001
0100
0001
0100
,  // measure 29
0010
0000
1000
0001
1000
0000
0010
0000
0110
0000
0100
0000
0001
0000
1000
0000
,  // measure 30
0100
0010
0100
0010
0100
1000
0001
0010
0100
1000
0010
0100
0001
0100
0010
1000
,  // measure 31
0010
0000
0000
0000
0000
0000
0100
0000
0000
0001
0000
0000
0100
0000
0000
0000
0000
0000
0000
0000
0010
0000
0000
0000
0000
0000
0000
0000
1000
0000
0001
0000
0000
0000
1000
0000
0000
0000
0000
0000
0000
0000
0010
0000
0000
0000
0000
0000
,  // measure 32
1002
0000
0000
0000
0103
0000
0100
0000
0120
0000
0000
0000
1030
0001
1000
0001
,  // measure 33
0100
0001
0010
0010
0010
0010
0110
0000
,  // measure 34
1100
0000
1000
0000
0001
0100
0001
0000
0100
0000
0010
0000
1000
0000
1000
0000
,  // measure 35
1000
0000
1000
0000
0010
1000
0010
0000
0100
0001
0100
0000
0001
0000
1000
0000
,  // measure 36
0100
0000
1000
0000
0100
0000
0000
0000
0010
0000
0000
0000
0001
0000
0000
0000
1000
0000
0000
0000
1001
0000
0000
0000
0001
0000
0010
0000
0100
0000
1000
0001
,  // measure 37
1000
0010
0100
0010
0100
0000
0000
0000
1010
0000
0000
0000
1000
0000
0000
0000
0001
0000
1000
0000
0010
0000
0000
0000
1000
0000
0000
0000
0100
0000
0000
0000
,  // measure 38
0010
0000
0000
0000
0011
0000
0000
0000
0001
0000
1000
0000
0001
0000
1000
0100
0010
0001
0010
0100
0010
0000
0000
0000
0011
0000
0000
0000
0001
0000
0000
0000
,  // measure 39
1000
0000
0001
0000
0100
0000
0000
0000
0010
0000
0000
0000
1000
0000
0000
0000
0001
0000
0000
0000
0101
0000
0000
0000
0100
0000
0010
0000
1000
0000
0001
0100
,  // measure 40
0001
0100
0010
0100
0001
0000
0000
0000
1001
0000
0000
0000
1000
0000
0000
0000
0010
0000
0100
0000
0001
0000
0000
0000
1000
0000
0010
0000
0100
0000
0000
0000
,  // measure 41
0001
0000
0201
0000
0000
0000
0310
0000
1000
0000
0001
0000
0101
0000
0000
0100
,  // measure 42
0000
0000
0000
0000
0110
0000
0000
0000
1000
0001
1000
0001
1000
0000
0000
0000
0000
0000
0000
0000
0001
0000
0000
0000
1000
0010
1000
0010
0100
0000
0000
0000
,  // measure 43
0001
0000
1000
0000
0010
0100
0100
0000
0001
1000
0000
0010
0000
0010
0000
0000
,  // measure 44
0000
0000
0000
0000
1000
0000
0001
0000
0100
0001
0100
0001
0100
0000
0000
0000
0000
0000
0000
0000
0000
0000
0000
0000
0010
0000
0100
0000
0010
0000
0000
0000
,  // measure 45
1000
0000
0000
0000
0100
0000
0000
0000
0010
0000
0001
1000
0001
0000
1000
0000
0010
0000
0100
0000
0000
0000
0000
0000
0001
0000
1000
0000
0100
0000
0010
0000
,  // measure 46
0000
0000
0001
1000
0010
0000
0100
0000
0001
0000
0010
0000
0100
0000
0000
0000
0000
0000
0000
0000
1100
0000
0000
0000
0100
0000
0000
0000
0000
0000
0010
0000
,  // measure 47
0000
0001
0000
0000
1000
0000
0000
0000
0000
0000
0010
1000
0001
0000
0000
1000
,  // measure 48
0000
0000
0010
0000
0000
0100
0000
0000
0000
0000
0010
0000
0000
1000
0000
0001
,  // measure 49
0000
1000
0000
0010
0000
0000
0100
0000
0000
0000
0001
1000
0001
1000
0100
0000
,  // measure 50
0010
0000
0001
0000
1000
0010
0100
0000
0000
0000
0001
0100
0001
0100
0010
1000
,  // measure 51
0010
1000
0001
0010
0001
0010
0100
1000
0100
1000
0100
0010
0100
0010
0001
1000
,  // measure 52
0001
1000
0010
0100
0010
1000
0100
0010
0001
0010
0100
0010
0001
1000
0010
1000
,  // measure 53
0001
0100
0001
0100
0010
1000
0020
0000
0000
0000
0000
0000
0000
0000
1030
0100
,  // measure 54
1000
0001
0010
0001
0100
0010
0100
0001
1000
0010
1000
0001
0100
0001
0010
0100
,  // measure 55
0010
0100
1000
0100
1000
0001
1000
0001
0100
0001
0100
0010
1000
0010
0100
0001
,  // measure 56
0010
0001
0010
0100
1000
0001
0010
0100
1000
0010
0100
0001
1000
0010
0100
0001
,  // measure 57
1000
0100
1000
0100
0010
0100
0010
0001
1000
0001
0100
0010
1000
0001
0000
0001
,  // measure 58
0000
0001
0000
0001
0100
0010
1000
0001
0100
0010
1000
0100
1000
0100
0010
0100
,  // measure 59
1000
0001
0010
0100
0001
0100
0010
0100
1000
0010
0100
1000
0100
0010
1000
0010
,  // measure 60
0100
0001
0100
0010
1000
0001
0100
0001
1000
0100
0010
0100
1000
0001
0010
0100
,  // measure 61
0010
0001
1000
0100
0010
0100
1000
0001
0010
0100
0010
0001
1000
0010
0000
0010
,  // measure 62
0000
0010
0000
0010
1000
0001
0100
0001
0100
0010
1000
0010
0100
0010
1000
0001
,  // measure 63
0100
0001
0010
0001
1000
0100
1000
0010
0100
0010
0100
0001
0010
1000
0010
0001
,  // measure 64
0100
1000
0100
0001
0010
0100
1000
0010
1000
0001
0100
0010
0100
0001
0010
0001
,  // measure 65
1000
0010
0001
1000
0100
0001
1000
0100
0001
1000
0010
0001
0010
0100
1000
0000
,  // measure 66
0000
0000
0001
1000
0100
0010
0100
1000
0100
0010
0001
0010
0100
0010
0001
0010
,  // measure 67
0100
1000
0010
0100
1000
0100
0010
1000
0100
0010
0001
0100
0010
0001
0010
0100
,  // measure 68
0001
0010
0100
0010
0001
1000
0100
0010
0100
1000
0010
0100
1000
0100
0010
1000
,  // measure 69
0001
1000
0010
0000
0110
0000
0110
0000
1010
0000
0101
0000
1001
0000
1100
0000
,  // measure 70
0200
0020
0330
0011
0000
1001
0000
1100
,  // measure 71
0000
1010
0000
0110
0000
0101
0000
1001
,  // measure 72
0110
1010
0000
0101
0000
0110
0000
1010
,  // measure 73
0000
0101
0000
0011
0000
1100
1000
0002
,  // measure 74
0000
1000
1003
1010
0000
0110
0000
0101
,  // measure 75
0000
0011
0000
0110
0000
1100
0000
1000
,  // measure 76
0001
0101
0101
1000
0010
1010
1010
0100
,  // measure 77
0010
1001
1001
1001
1001
0110
0110
0110
,  // measure 78
0110
2002
0000
0000
0000
0000
0000
0000
,  // measure 79
0000
0000
0000
0000
,  // measure 80
0000
3003
0000
0000
;

//---------------dance-single - ----------------
#NOTES:
     dance-single:
     :
     Medium:
     12:
     0.585642,0.606734,0.235217,0.193214,0.084006,437.000000,28.000000,23.000000,0.000000,0.000000,0.000000,0.585642,0.606734,0.235217,0.193214,0.084006,437.000000,28.000000,23.000000,0.000000,0.000000,0.000000:
0000
0000
0000
0000
,
0000
0000
0000
0000
,
1000
0000
0001
0000
,
0100
0000
0000
0010
0000
0000
1000
0001
,
1000
0000
0010
0000
,
1000
0000
0000
0001
0000
0000
0100
0010
,
0100
0000
0010
0000
,
1000
0200
0000
0310
0000
0000
0001
0010
,
0100
0000
1001
0000
,
2000
0000
0000
0000
3100
0010
0100
0010
,
0002
0000
0000
2003
,
0002
0000
0000
0000
0000
0000
0000
3003
,
0110
0000
0000
0000
,
0010
0100
0010
1000
0001
0000
1000
0001
,
0200
0000
0000
0000
0000
0000
0301
1000
,
0001
0100
0010
1000
0100
1000
0001
0100
,
0002
0000
0000
0000
0000
0000
0000
0003
,
2002
0000
0000
0000
,
0000
0000
0000
0000
,
0000
0000
0000
3003
0100
0000
0010
1000
,
0001
0100
0001
0100
0001
0010
0100
0100
,
1000
0100
0010
0010
0001
1000
0010
1000
,
0001
0100
0010
0100
0001
1000
0010
0100
,
0002
0000
1003
0001
1000
0100
0010
0100
,
1000
0001
0010
0100
0010
0001
1000
0010
,
1000
0001
0100
0010
0100
0001
1000
0010
,
1000
0001
0010
0001
0010
0100
1000
0010
,
0100
0001
2000
0000
3002
0000
0103
0000
,
1001
0000
0001
0100
0001
0000
1000
0010
,
1000
0000
0001
0100
0001
0000
0010
0100
,
1000
0000
0100
0010
0001
0000
1000
0010
,
0100
0000
0102
0000
0000
0000
1003
0010
,
0100
0000
0010
0100
0001
0000
0100
0001
,
1000
0000
0001
0001
0001
0001
1001
0000
,
0110
0000
0010
1000
0001
0000
0100
0100
,
0100
0100
0001
1000
0001
0100
0010
0100
,
0001
0010
0001
1000
0100
2100
0000
0000
,
0000
3001
0000
0000
0101
0000
0000
0000
0100
0000
0010
0000
0000
0000
1000
0000
,
0000
0000
1002
0000
0000
0000
0000
0000
0000
0013
0000
0000
0110
0000
0000
0000
,
0100
1000
0000
0010
0000
0210
0000
0000
,
0000
0301
0000
0000
1001
0000
0000
0000
0001
0000
0100
0000
0000
0000
0010
0000
,
0000
0000
1010
0000
0000
0000
1000
0000
0001
0000
0100
0000
0010
0000
0000
0010
,
0000
0000
0010
0000
0100
0001
0100
0000
0000
0000
0010
0000
1000
0001
1000
0000
,
0010
0000
0100
0000
0001
0000
0010
0000
0100
1000
0000
0100
0000
0010
0000
0000
,
0000
0000
0001
0000
0010
0000
0001
0000
0000
0000
0000
0000
1000
0010
1000
0000
,
0001
0000
0100
0000
0001
0000
0100
0000
0010
1000
0000
0000
0001
0000
0100
0010
,
0000
1000
0001
0100
0000
0010
0100
0000
,
0000
0000
0000
0000
0001
0000
0000
0000
0000
0000
1000
0000
1000
0000
0000
0001
,
0000
0000
0001
0000
0000
0001
0000
0000
0000
0000
0100
0000
0000
0020
0000
0000
,
0000
0000
0000
0130
0000
0000
0100
0000
0000
0000
0010
0000
1000
0000
0100
0000
,
0010
0001
0010
0100
0000
1000
0001
1000
,
0100
0001
0100
1000
0010
0001
0010
1000
,
0010
0001
0010
0100
0010
0100
0010
0100
,
0010
0100
0010
2000
0000
0000
0000
3001
,
1000
0010
1000
0001
0001
0010
0100
0010
,
0100
1000
0010
0100
0100
0001
1000
0001
,
1000
0010
0100
0001
0001
1000
0001
0100
,
0010
0000
1000
0000
0100
0000
0010
0000
0010
0000
0001
0000
1000
0010
0000
0000
,
0000
0000
0000
0010
0100
0000
0001
0000
0001
0000
1000
0000
0010
0000
1000
0000
,
0001
0100
0001
1000
1000
0100
0010
0001
,
0010
0100
1000
0100
0100
0010
0001
1000
,
0001
0000
0100
0000
0001
0000
0010
0000
0010
0000
0100
0000
1000
0001
0000
0000
,
0000
0000
0000
0001
0100
0000
0010
0000
0100
0000
0010
0000
1000
0000
0001
0000
,
0100
0010
1000
0001
0001
0100
0010
1000
,
1000
0001
0010
0100
0010
0001
1000
0010
,
1000
0001
0100
0001
0010
0100
0100
1000
,
0000
0001
1000
0010
0100
1000
0100
0010
,
0100
0001
0100
0001
1000
0010
0010
0010
,
0010
1000
0001
0100
0001
0010
0100
1000
,
0010
0100
0001
0010
0100
1000
0010
0010
,
2000
0002
3003
1001
0000
0100
0000
0110
,
0000
0010
0000
1010
0000
1000
0000
1001
,
0001
0101
0000
0010
0000
1010
0000
1000
,
0000
1001
0000
0001
0000
0101
0000
0200
,
0000
0301
1000
1001
0000
0100
0000
0101
,
0000
0010
0000
1010
0000
0100
0000
0010
,
1000
0001
0101
0100
0010
1000
1001
0001
,
0010
0100
1000
0010
0100
0001
0010
0100
,
1000
2002
0000
0000
0000
0000
0000
0000
,
0000
0000
0000
0000
,
0000
3003
0000
0000
;

//---------------dance-single - ----------------
#NOTES:
     dance-single:
     :
     Easy:
     5:
     0.336024,0.337074,0.084006,0.176413,0.016801,249.000000,10.000000,21.000000,0.000000,0.000000,0.000000,0.336024,0.337074,0.084006,0.176413,0.016801,249.000000,10.000000,21.000000,0.000000,0.000000,0.000000:
0000
0000
0000
0000
,
0000
0000
0000
0000
,
0001
0000
1000
0000
,
0010
0000
0000
0001
,
0001
0000
0100
0000
,
0001
0000
0000
0010
,
0010
0000
0100
0000
,
0001
0000
0000
0100
0000
0000
0000
0000
,
0010
0000
1000
0000
,
0002
0000
0013
0000
,
2000
0000
0000
3001
,
0200
0000
0000
0000
0000
0000
0000
0300
,
1001
0000
0000
0000
,
0100
0100
1000
0001
,
0020
0000
0000
1030
,
1000
0100
0010
1000
,
2000
0000
0000
0000
0000
0000
0000
3000
,
2002
0000
0000
0000
,
0000
0000
0000
0000
,
0000
0000
0000
3003
0010
0000
0100
0000
,
1000
1000
1000
0010
,
0001
0100
1000
0100
,
1000
0100
1000
0100
,
2000
3001
0001
0100
,
0001
0100
0100
0001
,
0001
0010
0010
0001
,
0001
0100
0100
0001
,
0010
0002
2003
3010
,
1001
1000
1000
0001
,
0001
1000
1000
0100
,
0001
0010
1000
0001
,
0010
2010
0000
3001
,
0010
0100
1000
0010
,
0001
1000
1000
1001
,
0110
0100
1000
0010
,
0010
1000
1000
0100
,
1000
0000
1000
0000
0010
0002
0000
0000
,
0000
1003
0000
0000
0010
0000
0000
0000
0000
0000
0100
0000
0000
0000
0001
0000
,
0000
0000
2000
0000
0000
0000
0000
0000
0000
3100
0000
0000
0010
0000
0000
0000
,
0000
0001
0000
0100
0000
0020
0000
0000
,
0000
1030
0000
0000
0001
0000
0000
0000
0000
0000
0010
0000
0000
0000
0100
0000
,
0000
1000
0000
0001
0000
1000
0010
0000
,
0000
0100
0000
0010
0000
0100
0000
0010
,
0000
0000
1000
0000
0000
0000
0001
0000
0000
0000
0000
0000
0000
0100
0000
0000
,
0000
0000
0000
1000
0000
0000
0000
0001
,
0000
0010
0000
0100
0000
0000
0000
1000
,
0000
0001
0000
1000
0000
0010
0000
0000
,
0000
1000
0000
0001
,
0000
1000
0000
0000
0000
0010
0000
0000
,
0000
0000
0000
0010
0000
0000
0000
0010
,
0000
1000
0000
0010
0000
0000
0000
0001
,
0000
1000
0000
0001
0000
1000
0000
0001
,
0000
1000
0000
0010
0000
0100
0000
0010
,
0000
1000
0000
0002
0000
0000
0000
1003
,
0000
0100
0000
1000
0000
0100
0000
0100
,
0000
0001
0000
0010
0000
1000
0000
1000
,
0000
0100
0000
1000
0000
0001
0000
0010
,
0000
0001
0000
0100
0000
1000
0002
0000
,
0000
0000
0000
1003
0000
0001
0000
0001
,
0000
0010
0000
0001
0000
0010
0000
1000
,
0000
0010
0000
0010
0000
0100
0000
0001
,
0000
0010
0000
0100
0000
0010
0002
0000
,
0000
0000
0000
0103
0000
0010
0000
1000
,
0000
0100
0000
1000
0000
0010
0000
0100
,
0000
0001
0000
0010
0000
0100
0000
1000
,
0000
0100
0000
1000
0000
0010
0000
0200
,
0000
0310
0000
1000
0000
0001
0000
0100
,
0000
0001
0000
1000
0000
0010
0000
0100
,
0000
0001
0000
0010
0000
0100
0000
1000
,
0000
0010
0000
1000
0000
0001
0000
0100
,
0000
0010
0000
1001
0000
0010
0000
0100
,
0000
0100
0000
0001
0000
0001
0000
1000
,
0000
1010
0000
0100
0000
0001
0000
0001
,
0000
1000
0000
1000
0000
0010
0000
0020
,
0000
1030
0000
1001
0000
0010
0000
0010
,
0000
0100
0000
0001
0000
0010
0000
0100
,
0000
1000
0000
0010
0000
0001
0000
1000
,
0000
0010
0000
0100
0000
1000
0000
0010
,
0000
2002
0000
0000
0000
0000
0000
0000
,
0000
0000
0000
0000
,
0000
3003
0000
0000
;

//---------------dance-single - ----------------
#NOTES:
     dance-single:
     :
     Beginner:
     3:
     0.198014,0.202245,0.050404,0.134410,0.000000,143.000000,6.000000,16.000000,0.000000,0.000000,0.000000,0.198014,0.202245,0.050404,0.134410,0.000000,143.000000,6.000000,16.000000,0.000000,0.000000,0.000000:
0000
0000
0000
0000
,
0000
0000
0000
0000
,
0001
0000
1000
0000
,
0010
0000
0000
0001
,
0000
0000
0100
0000
,
0001
0000
0000
0010
,
0000
0000
0100
0000
,
0001
0000
0000
0100
0000
0000
0000
0000
,
0010
0000
1000
0000
,
0001
0000
0010
0000
,
1000
0000
0000
0001
,
0200
0000
0000
0000
0000
0000
0000
0300
,
1001
0000
0000
0000
,
0100
0000
1000
0000
,
0020
0000
0000
1030
,
0000
0100
0000
1000
,
0020
0000
0000
0000
0000
0000
0000
0030
,
2002
0000
0000
0000
,
0000
0000
0000
0000
,
0000
0000
0000
3003
0010
0000
0100
0000
,
0000
1000
0000
0010
,
0000
0100
0000
0100
,
0000
0100
0000
0100
,
0000
0001
0000
0100
,
0000
0100
0000
0001
,
0000
0010
0000
0001
,
0000
0100
0000
0001
,
0000
0002
2000
3003
,
1001
0000
1000
0000
,
0001
0000
1000
0000
,
0001
0000
1000
0000
,
0010
2000
0000
3001
,
0000
0100
0000
0010
,
0000
1000
0000
0001
,
0000
0100
0000
0010
,
0000
1000
0000
0100
,
0000
0000
1000
0000
0000
0002
0000
0000
,
0000
0003
0000
0000
0010
0000
0000
0000
0000
0000
0000
0000
0000
0000
0001
0000
,
0000
0000
2000
0000
0000
0000
0000
0000
0000
3000
0000
0000
0010
0000
0000
0000
,
0000
0000
0000
0100
0000
0020
0000
0000
,
0000
0030
0000
0000
0001
0000
0000
0000
0000
0000
0000
0000
0000
0000
0100
0000
,
0000
1000
0000
0000
0000
0000
0010
0000
,
0000
0100
0000
0010
0000
0000
0000
0010
,
0000
0000
0000
0001
0000
0000
0000
0000
,
0000
0000
0000
1000
0000
0000
0000
0001
,
0000
0000
0000
0100
0000
0000
0000
1000
,
0000
0000
0000
1000
0000
0010
0000
0000
,
0000
1000
0000
0000
,
0000
1000
0000
0000
0000
0000
0000
0000
,
0000
0000
0000
0010
0000
0000
0000
0010
,
0000
0000
0000
0010
0000
0000
0000
0000
,
0000
0000
0000
0001
0000
0000
0000
0000
,
0000
1000
0000
0000
0000
0000
0000
0000
,
0000
1000
0000
0002
0000
0000
0000
1003
,
0000
0000
0000
1000
0000
0000
0000
0100
,
0000
0000
0000
0010
0000
0000
0000
1000
,
0000
0000
0000
1000
0000
0000
0000
0010
,
0000
0000
0000
0100
0000
0000
0002
0000
,
0000
0000
0000
1003
0000
0000
0000
0001
,
0000
0000
0000
0001
0000
0000
0000
1000
,
0000
0000
0000
0010
0000
0000
0000
0001
,
0000
0000
0000
0100
0000
0000
0002
0000
,
0000
0000
0000
0103
0000
0000
0000
1000
,
0000
0000
0000
1000
0000
0000
0000
0100
,
0000
0000
0000
0010
0000
0000
0000
1000
,
0000
0000
0000
1000
0000
0000
0000
0100
,
0000
0100
0000
0000
0000
0001
0000
0000
,
0000
0001
0000
0000
0000
0010
0000
0000
,
0000
0001
0000
0000
0000
0100
0000
0000
,
0000
0010
0000
0000
0000
0001
0000
0000
,
0000
0001
0000
0000
0000
0010
0000
0000
,
0000
0100
0000
0000
0000
0001
0000
0000
,
0000
1010
0000
0000
0000
0001
0000
0000
,
0000
1000
0000
0000
0000
0010
0000
0000
,
0000
1000
0000
1001
0000
0000
0000
0010
,
0000
0000
0000
0001
0000
0000
0000
0100
,
0000
0000
0000
0010
0000
0000
0000
1000
,
0000
0000
0000
0100
0000
0000
0000
0010
,
0000
2002
0000
0000
0000
0000
0000
0000
,
0000
0000
0000
0000
,
0000
3003
0000
0000
;
