#VERSION:0.81;
#TITLE:Tabibito Rerun;
#SUBTITLE:;
#ARTIST:XOGO BRYKK;
#TITLETRANSLIT:;
#SUBTITLETRANSLIT:;
#ARTISTTRANSLIT:;
#GENRE:;
#ORIGIN:;
#CREDIT:;
#BANNER:Tabibito Rerun-bn.png;
#BACKGROUND:Tabibito Rerun-bg.png;
#PREVIEWVID:;
#JACKET:Tabibito Rerun-jacket.png;
#CDIMAGE:;
#DISCIMAGE:;
#LYRICSPATH:;
#CDTITLE:;
#MUSIC:Tabibito Rerun.mp3;
#OFFSET:0.000000;
#SAMPLESTART:44.099998;
#SAMPLELENGTH:12.000000;
#SELECTABLE:YES;
#BPMS:0.000=155.000;
#STOPS:206.000=1.000;
#DELAYS:;
#WARPS:;
#TIMESIGNATURES:0.000=4=4;
#TICKCOUNTS:0.000=4;
#COMBOS:0.000=1;
#SPEEDS:0.000=1.000=0.000=0;
#SCROLLS:0.000=1.000;
#FAKES:;
#LABELS:0.000=Song Start;
#BGCHANGES:;
#KEYSOUNDS:;
#ATTACKS:
;

//---------------dance-single - ----------------
#NOTEDATA:;
#CHARTNAME:;
#STEPSTYPE:dance-single;
#DESCRIPTION:;
#CHARTSTYLE:;
#DIFFICULTY:Hard;
#METER:15;
#RADARVALUES:0.783560,0.772336,0.203749,0.334148,0.525672,607.000000,25.000000,41.000000,0.000000,0.000000,0.000000,0.000000,0.000000,0.783560,0.772336,0.203749,0.334148,0.525672,607.000000,25.000000,41.000000,0.000000,0.000000,0.000000,0.000000,0.000000;
#CREDIT:;
#NOTES:
// measure 0
0000
0000
0000
0000
1000
0001
0010
0100
2000
0000
0000
0000
0000
0000
3001
0100
,  // measure 1
0002
0000
0000
0000
0000
0000
0103
0010
0200
0000
0000
0000
0000
0000
0310
1000
,  // measure 2
0002
0000
0000
0000
0000
0000
0003
0000
0201
0000
0000
0000
0000
0000
0301
1000
,  // measure 3
0020
0000
0000
0000
0000
0000
1030
0010
0200
0000
0000
0000
0000
0000
0301
1000
,  // measure 4
0020
0000
2030
3002
,  // measure 5
0023
0230
2300
3200
,  // measure 6
0320
0032
0023
2030
,  // measure 7
3200
0301
1010
0110
,  // measure 8
1001
0000
0000
0000
0010
0000
0000
0000
1000
0000
0001
0100
0010
0000
1000
0100
,  // measure 9
0010
0000
0001
0010
0100
0000
1000
0100
1000
0000
0001
0100
0001
0000
1000
0010
,  // measure 10
0100
0000
0001
0000
1000
0000
0010
0000
0010
0000
1000
0010
0100
0000
0001
0010
,  // measure 11
0100
0000
1000
0100
0010
0000
0001
0010
0001
0000
1000
0010
1000
0000
0001
0100
,  // measure 12
0010
0000
1000
0000
0001
0000
0001
0000
1000
0000
0001
0100
0001
0000
1000
0010
,  // measure 13
1000
0000
0001
0010
0100
0000
1000
0010
0100
0000
0001
0100
1000
0000
0001
0010
,  // measure 14
1000
0000
0001
0000
0100
0000
0010
0000
0100
0000
0010
1000
0100
0000
0010
0001
,  // measure 15
0100
0000
1000
0100
0001
0000
1000
0100
0001
0000
1000
0010
0001
0010
0100
1000
,  // measure 16
0100
0010
0001
0100
0001
1000
0010
0000
0100
0000
0000
0000
1001
0000
0000
0000
,  // measure 17
1001
0000
0000
0010
0200
0000
1000
0000
,  // measure 18
0310
1000
0001
0000
0101
0000
0010
0000
,  // measure 19
1010
0100
1001
0010
,  // measure 20
1000
0100
1000
0000
0002
0000
0103
0000
,  // measure 21
1001
0000
0000
0001
0020
0000
0100
0000
,  // measure 22
0031
1000
0100
0000
0110
0000
0010
0001
,  // measure 23
0200
0000
0310
1000
0002
0000
1003
0010
,  // measure 24
0100
0000
0010
0000
1001
0000
0000
0000
0010
0000
1000
0010
1000
0000
0010
0100
,  // measure 25
0010
0000
0100
0001
0100
0000
0001
0010
0001
0000
0010
0100
1000
0000
0100
1000
,  // measure 26
0020
0000
1000
0000
2030
0000
0001
0000
3001
0000
1000
0010
0001
0000
1000
0100
,  // measure 27
0001
0000
0010
0100
1000
0000
0010
0100
0001
0000
1000
0010
1000
0000
0001
0100
,  // measure 28
0002
0000
1000
0000
2003
0000
0010
0000
3010
0000
1000
0010
1000
0000
0010
0100
,  // measure 29
0010
0000
0100
0001
0100
0000
0001
0010
0001
0000
0010
0100
1000
0000
0100
1000
,  // measure 30
0020
0000
1000
0000
2030
0000
0001
0000
3001
0000
1000
0010
0001
0000
1000
0100
,  // measure 31
0001
0000
0010
0100
1000
0000
0010
0100
0001
0000
1000
0010
1000
0010
0100
0001
,  // measure 32
0100
0001
1000
0010
0100
0000
0010
0000
2002
0000
0000
0000
3003
0000
0100
0010
,  // measure 33
0200
0000
0000
0301
1000
0000
0010
1000
,  // measure 34
0001
0000
1000
0010
0100
0000
0010
1000
,  // measure 35
0001
0000
0100
0010
0100
0000
1001
0000
,  // measure 36
0110
0000
0000
0000
0101
0000
0010
0000
2000
0000
0000
0000
0000
0000
3100
0010
,  // measure 37
0002
0000
0000
1003
0010
0000
0100
0010
,  // measure 38
0001
0000
1000
0100
0001
0000
1000
0010
,  // measure 39
0001
0000
0000
0000
0010
0000
1000
0000
0001
0000
0000
0010
0100
0000
1000
0000
,  // measure 40
0001
0000
0000
0100
0010
0000
1000
0000
0100
0000
0000
0010
0001
0000
1000
0000
,  // measure 41
0010
0000
0000
0100
0001
0000
0010
0000
0100
0000
0000
1000
0100
0000
0001
0000
,  // measure 42
0100
0000
0000
1000
0001
0000
0010
0000
0001
0000
0000
0100
0010
0000
1000
0000
,  // measure 43
0001
0000
0100
0000
2002
0000
0003
0000
3001
0000
0010
0000
0100
0000
1000
0010
,  // measure 44
0100
0000
0001
0000
0100
0000
1000
0000
0100
0000
0010
1000
0100
0000
0010
0000
,  // measure 45
0001
0000
0010
0000
1000
0000
0010
0000
0011
0000
0001
0000
0100
0000
0010
1000
,  // measure 46
0001
0000
0010
0000
0100
0000
1000
0000
0100
0000
0010
0001
0010
0000
0100
0000
,  // measure 47
1000
0000
0001
0000
0100
0000
0010
0000
1010
0000
1000
0000
0100
0000
1000
0010
,  // measure 48
0100
0000
0001
0000
0100
0000
1000
0000
0100
0000
0010
1000
0100
0000
0010
0000
,  // measure 49
0001
0000
0010
0000
1000
0000
0010
0000
0001
0000
1000
0000
0010
0000
0100
0001
,  // measure 50
1000
0000
0100
0000
0010
0000
0001
0000
0010
0000
0100
1000
0100
0000
0010
0000
,  // measure 51
0001
1000
0010
0100
2002
0000
3003
0001
,  // measure 52
0010
0000
0100
0000
1000
0010
0100
0000
0001
0000
0100
0000
1000
0000
0100
0000
,  // measure 53
0010
1000
0100
0000
0010
0000
0010
0000
0001
0000
0001
0000
0100
0000
0100
0000
,  // measure 54
0001
0000
0100
0000
0010
1000
0001
0000
0010
0000
0100
0000
1000
0000
0100
0000
,  // measure 55
0010
0001
0010
0000
0100
0000
1000
0000
0001
0000
0100
0000
0010
0000
1010
0000
,  // measure 56
1000
0000
0001
0000
1000
0010
0100
0000
0001
0000
0100
0000
1000
0000
0100
0000
,  // measure 57
0010
1000
0100
0000
0010
0000
0001
0000
0010
0000
1000
0000
0010
0000
0001
0000
,  // measure 58
1000
0000
0010
0000
0100
0001
1000
0000
0100
0000
0010
0000
0001
0000
0010
0000
,  // measure 59
0100
1000
0100
0000
0010
0001
0010
0100
1000
0000
0001
0000
0100
0000
1001
0000
,  // measure 60
0000
0001
0010
0000
0001
1000
0010
0000
0000
0010
0100
0000
0001
1000
0100
0000
,  // measure 61
0000
0100
1000
0000
0001
1000
0010
0000
0000
0010
1000
0000
0100
0010
0001
0000
,  // measure 62
0000
0001
0010
0000
1000
0010
0001
0000
0000
0001
0010
0000
0100
1000
0010
0000
,  // measure 63
0000
0010
0100
0000
0001
1000
0100
0000
0000
0100
0010
0000
0001
0010
0001
0000
,  // measure 64
0000
0001
0100
0000
0001
1000
0100
0000
0000
0100
0010
0000
0001
1000
0010
0000
,  // measure 65
0000
0010
1000
0000
0001
0100
0001
0000
0000
0001
1000
0000
0010
0100
0010
0000
,  // measure 66
0000
0010
0100
0000
1000
0100
0001
0000
0000
0001
1000
0000
0001
0000
1000
0010
,  // measure 67
0100
0001
0010
0100
1000
0010
1000
0001
0100
0001
0010
0100
0010
0001
1000
0000
,  // measure 68
0000
0010
0000
0100
0000
0001
0000
1000
,  // measure 69
0010
1000
0000
0001
0000
0100
0000
0001
,  // measure 70
0010
1000
0000
0010
0000
0001
0000
1001
,  // measure 71
0000
0010
0000
0110
0000
1000
0000
0010
,  // measure 72
1000
0002
0000
0100
0000
0013
0000
1000
,  // measure 73
0010
0200
0000
0001
0000
0310
0000
0100
,  // measure 74
1000
0100
0000
0010
0000
1000
0000
1001
,  // measure 75
0000
0000
0010
0000
0000
0000
1000
0001
1000
0001
1000
0001
1000
0001
0000
0000
;

//---------------dance-single - Copied from----------------
#NOTEDATA:;
#CHARTNAME:Copied from;
#STEPSTYPE:dance-single;
#DESCRIPTION:Copied from;
#CHARTSTYLE:;
#DIFFICULTY:Medium;
#METER:13;
#RADARVALUES:0.562347,0.495518,0.179299,0.334148,0.101874,420.000000,22.000000,41.000000,0.000000,0.000000,0.000000,0.000000,0.000000,0.562347,0.495518,0.179299,0.334148,0.101874,420.000000,22.000000,41.000000,0.000000,0.000000,0.000000,0.000000,0.000000;
#CREDIT:Copied from;
#NOTES:
0000
0000
0000
0000
1000
0001
1000
0001
0200
0000
0000
0000
0000
0000
0310
0000
,
0020
0000
0000
1030
2000
0000
0000
3001
,
0002
0000
0000
0000
0023
0000
0000
0130
,
0200
0000
0000
1300
2000
0000
0000
3001
,
0002
0000
0023
0230
,
2300
3002
2003
3020
,
0230
0302
0023
0032
,
2003
3001
1001
0110
,
1001
0000
0010
0000
0100
0001
0010
0100
,
1000
0100
0010
0001
0010
0001
1000
0001
,
1000
0010
0100
0001
1000
0010
0100
0001
,
1000
0010
1000
0001
0100
0001
0010
0100
,
0010
0001
1000
0100
1000
0010
0100
0001
,
0010
0001
1000
0010
1000
0100
0010
0100
,
0010
0001
1000
0001
0100
1000
0100
0001
,
1000
0100
0010
0100
1000
0100
0010
0001
,
0010
0100
1000
0001
0200
0000
0302
0000
,
0103
0000
0000
0010
0010
0000
1001
0000
,
0010
0100
0010
0000
1001
0000
0010
0000
,
0100
0001
0010
0100
,
1000
0100
1000
0000
1100
0000
0100
0000
,
0010
0000
0000
0001
0001
0000
0010
0000
,
0100
1000
0001
0000
0101
0000
0100
0010
,
1000
0000
0001
1000
0010
0000
0100
0001
,
1000
0000
0010
0000
0110
0000
0000
0000
0010
0000
0000
0010
1000
0000
0000
1000
,
0010
0000
0000
0010
0100
0000
0000
0100
0001
0000
0000
0001
1000
0000
0000
1000
,
0010
0000
0100
0000
0001
0000
1000
0000
0001
0000
0000
0001
1000
0000
0000
1000
,
0100
0000
0000
0100
0010
0000
0000
0010
0001
0000
0000
0001
1000
0000
0000
1000
,
0100
0000
0010
0000
0001
0000
0010
0000
0100
0000
0000
0100
1000
0000
0000
1000
,
0100
0000
0000
0100
0010
0000
0000
0010
0001
0000
0000
0001
1000
0000
0000
1000
,
0010
0000
0100
0000
0001
0000
0010
0000
0100
0000
0000
0100
0010
0000
0000
0010
,
0001
0000
0000
0001
1000
0000
0000
1000
0001
0000
0000
0001
0100
0000
0010
0000
,
1000
0010
0100
0001
0002
0000
0000
1003
,
2000
0000
0000
3010
0100
0000
0001
0100
,
0010
0000
1000
0010
1000
0000
0001
0010
,
0100
0000
1000
0010
0100
0000
0001
0000
,
1000
0000
0001
0010
0200
0000
0000
0310
,
0002
0000
0000
1003
0010
0000
0100
0001
,
1000
0000
0001
1000
0001
0000
0100
0010
,
0100
0000
0010
1000
0001
0000
1000
0010
,
0100
0000
0001
0010
1000
0000
0010
0001
,
1000
0000
0001
0100
0010
0000
1000
0010
,
0100
0000
0001
1000
0010
0000
0100
0001
,
1000
0010
0020
0000
1030
0010
0100
0000
,
0001
1000
0010
0000
0100
0001
0010
0000
,
0100
1000
0100
0010
0011
0000
0001
0010
,
0100
0000
1000
0100
0010
0000
0001
1000
,
0001
1000
0100
0010
0110
0000
1001
0000
,
2000
0000
3001
0100
0000
0000
1010
0000
,
0020
0000
0130
0001
0000
0000
0101
0000
,
0002
0000
1003
0100
0000
0000
0100
0010
,
0001
0010
0100
1000
0002
0000
0000
1003
,
0010
0100
0000
0001
1000
0010
0000
0100
,
0001
0010
0000
0100
1000
0100
0010
0012
,
0000
0023
0000
0130
0000
1000
0000
0010
,
0000
0100
0000
0001
0000
0100
0000
0110
,
0000
1010
0000
0000
0000
0101
0000
0010
,
0000
0000
0100
1000
0100
0001
0100
0010
,
0000
1000
0000
0001
0000
0100
0000
0010
,
0000
1000
0000
0001
0100
0010
1000
1001
,
0000
0001
0100
0002
0000
0010
0000
1003
,
0000
1000
0001
0200
0000
1000
0000
0301
,
0000
0001
1000
0020
0000
1000
0000
0130
,
0000
0100
0001
2000
0000
0010
0000
3001
,
0000
0001
0100
0002
0000
0010
0000
0103
,
0000
0100
0001
0020
0000
1000
0000
0031
,
0000
0001
0010
0200
0000
1000
0000
0310
,
0001
0010
0100
1000
0001
0010
0100
1000
,
0000
0010
0000
0100
0000
0001
0000
1000
,
0010
1000
0000
0001
0000
0100
0000
0001
,
0010
1000
0000
0010
0000
0001
0000
1001
,
0000
0010
0000
0110
0000
0100
0000
0001
,
1000
0010
0000
0000
0000
0000
0000
0100
,
0001
1000
0000
0000
0000
0000
0000
0100
,
0010
0001
0000
0000
0000
0000
0000
0011
,
0000
0000
0000
2002
0000
0000
0000
0000
,
3003
0000
0000
0000
;

//---------------dance-single - Copied from Copied f----------------
#NOTEDATA:;
#CHARTNAME:Copied from Copied f;
#STEPSTYPE:dance-single;
#DESCRIPTION:Copied from Copied f;
#CHARTSTYLE:;
#DIFFICULTY:Easy;
#METER:8;
#RADARVALUES:0.423798,0.464548,0.097800,0.309698,0.000000,314.000000,12.000000,38.000000,0.000000,0.000000,0.000000,0.000000,0.000000,0.423798,0.464548,0.097800,0.309698,0.000000,314.000000,12.000000,38.000000,0.000000,0.000000,0.000000,0.000000,0.000000;
#CREDIT:Copied from Copied f;
#NOTES:
0000
0000
1002
0000
,
0203
0000
0302
0000
,
2003
0000
3200
0000
,
0320
0000
0032
0000
,
2003
0000
3200
0320
,
0032
2003
3002
0203
,
0320
2030
3200
2300
,
3002
1003
1001
1001
,
1001
1001
0010
1000
,
0001
0010
0100
1000
,
0001
1000
0001
1000
0001
0000
0100
0000
,
0010
1000
0100
0010
,
0100
0010
0100
0010
0100
0000
1000
0000
,
0001
0100
0010
1000
,
0100
1000
0001
1000
0010
0000
0100
0000
,
0001
1000
0100
1000
,
0001
0100
0001
1000
0001
0000
2001
0000
,
3010
0000
0000
0010
0010
0000
0200
0000
,
0301
1000
0001
0000
1000
0000
0100
0000
,
0010
0001
0100
0010
,
1000
0010
0100
0000
0000
0000
0010
0000
,
0100
0000
0000
0001
0001
0000
0100
0000
,
0010
1000
0010
0000
1000
0000
0001
0100
,
0001
0000
1000
0001
1000
0000
0001
1000
,
0001
0100
0020
0000
0130
0000
0001
0000
,
0100
0010
1000
0001
,
0100
0010
1000
0001
1000
0000
0001
0000
,
0010
0100
1000
0001
,
0010
0100
1000
0100
0010
0000
0001
0000
,
0010
0100
1000
0001
,
0100
0010
1000
0100
0010
0000
0100
0000
,
1000
0000
0001
0000
1000
0000
0010
0100
,
0001
0100
0010
1000
2000
0000
0000
3001
,
0002
0000
0000
0103
0100
0000
0010
0010
,
0010
0000
1000
1000
1000
0000
0001
1000
,
0001
0000
0100
0010
0100
0000
0010
0000
,
1000
0000
0001
0100
0002
0000
0000
1003
,
0020
0000
0000
1030
0001
0000
1000
0010
,
0100
0000
1000
0001
1000
0000
0000
0010
,
0100
0010
1000
0001
,
1000
0010
0100
0010
,
1000
0001
0010
0100
,
1000
0100
0010
0001
,
1000
1000
1010
0000
0010
0000
0100
0000
,
0001
0010
0100
1000
,
0100
0000
0010
0010
0010
0000
0001
0000
,
1000
0010
0100
0001
,
1000
0000
0100
0010
0010
0000
1001
0000
,
0000
0000
1000
0010
0000
0000
0100
0000
,
0000
0000
0010
1000
0000
0000
1000
0000
,
0000
0000
0001
0010
0000
0000
0100
0000
,
1000
0000
0001
0000
2000
0000
0000
3001
,
0000
0100
0000
0010
0000
1000
0000
0100
,
0000
0010
0000
0001
0000
0010
0100
1000
,
0000
0001
0000
1001
0000
1000
0000
0010
,
0000
1000
0000
0001
0000
0010
0000
0100
,
0000
0100
0000
0000
0000
1100
0000
0000
,
0000
0000
0001
0000
1000
0001
1000
0010
,
0000
0100
0000
0010
0000
1000
0000
0001
,
0000
1000
0000
0010
0000
0100
0001
0001
,
0000
1000
0000
2000
0000
0000
0000
3010
,
0000
0100
0000
0020
0000
0000
0000
1030
,
0000
0001
0000
0200
0000
0000
0000
0310
,
0000
1000
0000
0002
0000
0000
0000
1003
,
0000
0010
0000
2000
0000
0000
0000
3001
,
0000
1000
0000
0200
0000
0000
0000
1300
,
0000
0100
0000
0020
0000
0000
0000
0031
,
0000
0100
0000
0001
0000
0010
0000
0001
,
0000
1000
0000
0001
0000
0100
0000
0010
,
0100
0010
0000
1000
0000
0001
0000
1000
,
0100
0010
0000
0100
0000
0010
0000
0002
,
0000
0103
0000
0020
0000
0130
0000
0010
,
1000
0010
0000
0000
0000
0000
0000
1000
,
0001
0100
0000
0000
0000
0000
0000
0010
,
0100
0001
0000
0000
0000
0000
0000
1001
,
0000
0000
0000
2002
0000
0000
0000
0000
,
3003
0000
0000
0000
;

//---------------dance-single - Copied from Copied from Copied f----------------
#NOTEDATA:;
#CHARTNAME:Copied from Copied from Copied f;
#STEPSTYPE:dance-single;
#DESCRIPTION:Copied from Copied from Copied f;
#CHARTSTYLE:;
#DIFFICULTY:Beginner;
#METER:3;
#RADARVALUES:0.203749,0.247759,0.024450,0.162999,0.000000,152.000000,3.000000,20.000000,0.000000,0.000000,0.000000,0.000000,0.000000,0.203749,0.247759,0.024450,0.162999,0.000000,152.000000,3.000000,20.000000,0.000000,0.000000,0.000000,0.000000,0.000000;
#CREDIT:Copied from Copied from Copied f;
#NOTES:
0000
0000
0200
0000
,
0300
0000
0002
0000
,
0003
0000
2000
0000
,
3000
0000
0002
0000
,
0003
0000
0020
0030
,
0002
0003
0020
0030
,
0200
0300
2000
3000
,
0002
0103
0000
0100
,
0000
0100
0010
0000
,
1000
0000
0001
0000
,
0100
0000
0010
0000
,
1000
0000
0001
0000
,
0100
0100
0010
0000
,
1000
0000
0001
0000
,
1000
1000
1000
0000
,
0001
0000
0010
0000
,
0001
0001
0001
0000
,
1000
0000
0010
0100
,
0000
0001
0000
0100
,
0000
0001
0000
1000
,
0000
0001
0000
0010
,
0100
0000
0001
0100
,
0000
0010
0000
1000
,
0000
0001
1000
0000
,
0010
0010
0000
0100
,
0000
0001
0000
1000
,
0000
0001
0001
0000
,
0010
0000
1000
0000
,
0001
0001
0000
0100
,
0000
0001
0000
0010
,
0000
0100
0100
0000
,
0001
0000
1000
0000
,
0001
1000
0010
0000
,
0100
0000
0100
0000
,
0001
0000
1000
0000
,
0001
0000
0100
0000
,
0010
0000
0100
0000
,
0001
0000
1000
0000
,
0010
0000
1000
0000
,
0100
0010
0001
0000
,
0000
0000
0000
0000
,
0000
0000
0000
0000
,
0000
0000
0000
0000
,
0100
0100
0100
0000
0010
0000
0000
0000
,
1000
0000
0001
0000
,
1000
0000
0100
0000
,
0010
0000
0001
0000
,
0010
0000
0001
0001
,
0000
1000
0000
0100
,
0000
0010
0000
1000
,
0000
0100
0000
0001
,
0000
0000
0000
0000
0010
0000
0000
0000
0200
0300
0000
0000
0000
0000
0001
0000
,
0000
0000
0000
0010
0000
0000
0000
0000
,
0000
0000
0000
0001
0000
0000
0000
1000
,
0000
0000
0000
0001
0000
0000
0000
1000
,
0000
0000
0000
0100
0000
0000
0000
0010
,
0000
0001
0000
0000
0000
1000
0000
0000
,
0000
0000
0000
0001
0000
0000
0000
1000
,
0000
0100
0000
0010
0000
0000
0000
0001
,
0000
0000
0000
0010
0000
0000
0000
0100
,
0000
0000
0000
2000
0000
0000
0000
3010
,
0000
0000
0000
0020
0000
0000
0000
0130
,
0000
0000
0000
0200
0000
0000
0000
0301
,
0000
0000
0000
0002
0000
0000
0000
1003
,
0000
0000
0000
2000
0000
0000
0000
3100
,
0000
0000
0000
0200
0000
0000
0000
0310
,
0000
0000
0000
0020
0000
0000
0000
0031
,
0000
0000
0000
0000
0000
0000
0000
1001
,
0000
0000
0000
0000
0000
0000
0000
0010
,
0000
0010
0000
0000
0000
0000
0000
0100
,
0000
0100
0000
0000
0000
0000
0000
0001
,
0000
0000
0000
1000
0000
0000
0000
0001
,
0000
0001
0000
0000
0000
0000
0000
1000
,
0000
1000
0000
0000
0000
0000
0000
0010
,
0000
0010
0000
0000
0000
0000
0000
1001
,
0000
0000
0000
2002
0000
0000
0000
0000
,
3003
0000
0000
0000
;
