#TITLE:旅の終わりと祝祭の夜;
#SUBTITLE:;
#ARTIST:月船古書堂;
#TITLETRANSLIT:Tabi no owari to shukusai no yoru;
#SUBTITLETRANSLIT:;
#ARTISTTRANSLIT:Gessen kosho-dō;
#GENRE:;
#CREDIT:;
#BANNER:;
#BACKGROUND:;
#LYRICSPATH:;
#CDTITLE:;
#MUSIC:Tabi no owari to shukusai no yoru.mp3;
#OFFSET:0.860000;
#SAMPLESTART:45.819996;
#SAMPLELENGTH:12.000000;
#SELECTABLE:YES;
#BPMS:0.000000=148.000000
;
#STOPS:
;
#BGCHANGES:;
#KEYSOUNDS:;
#ATTACKS:;

//---------------dance-single - ----------------
#NOTES:
     dance-single:
     :
     Hard:
     17:
     0.849623,0.947683,0.430027,0.219070,1.748507,733.000000,680.000000,53.000000,27.000000,0.000000,0.000000,0.849623,0.947683,0.430027,0.219070,1.748507,733.000000,680.000000,53.000000,27.000000,0.000000,0.000000:
// measure 0
0000
0000
0000
0000
,  // measure 1
0000
0000
0000
0000
,  // measure 2
0000
0000
0000
0000
,  // measure 3
0000
0000
0000
0000
,  // measure 4
0000
0000
0000
0000
0000
0000
0000
0000
0000
0001
1000
0001
,  // measure 5
0000
0000
0100
0000
0010
0000
0000
0000
1000
0100
0010
0000
0001
0000
1000
0000
0010
0000
1000
0000
0001
0000
0010
0000
,  // measure 6
0000
0100
1000
0001
1000
0001
0100
0010
0100
0010
1000
0001
,  // measure 7
0000
1000
0100
0000
0010
0001
1000
0100
1000
0000
0100
0010
,  // measure 8
0000
0000
0001
0010
0100
0000
0000
0000
1000
0010
0100
0000
0000
0000
0000
1001
0000
0000
0100
0000
0001
0000
1000
0000
,  // measure 9
0000
0000
0001
0000
0100
0000
0000
0000
0010
0100
0001
0000
1000
0000
0010
0000
0100
0000
0001
0000
0010
0000
0001
0000
,  // measure 10
0000
0100
0010
1000
0100
0010
0100
1000
0001
0000
0000
0100
,  // measure 11
0010
0000
1000
0001
1000
0000
0100
0000
0010
0000
0100
0000
0010
0000
0001
0100
0001
0000
1000
0000
0001
0000
0010
0000
,  // measure 12
0000
0100
1000
0000
0001
0100
0000
0000
0000
0010
1000
0001
,  // measure 13
0000
0000
0100
0000
0010
0000
0000
0000
1000
0100
0010
0000
0001
0000
1000
0000
0010
0000
1000
0000
0001
0000
0010
0000
,  // measure 14
0000
0100
1000
0001
1000
0001
0100
0010
0100
0010
1000
0001
,  // measure 15
0000
1000
0100
0000
0010
0001
1000
0100
1000
0000
0100
0010
,  // measure 16
0000
0000
0001
1000
0100
0000
0000
0000
1000
0001
0010
0000
0000
0000
0000
1001
0000
0000
0001
0000
1000
0000
0100
0000
,  // measure 17
0000
0000
0000
0000
0010
0000
0001
0000
1000
0001
0010
0000
0100
0000
1000
0000
0010
0000
0100
0000
1000
0000
0100
0000
,  // measure 18
0001
0010
0100
1000
0001
1000
0010
0100
1000
0000
0000
0100
,  // measure 19
0001
0000
1000
0010
1000
0000
0100
0000
0010
0000
0001
0000
1000
0000
0010
0100
0010
0000
1000
0000
0000
0010
0000
1000
,  // measure 20
0000
0010
0000
0100
0000
0010
0000
0001
0000
0010
0000
1000
0000
0100
0000
0010
0000
0100
0000
1000
0000
0020
0000
0000
,  // measure 21
0000
0000
0000
0000
0000
1030
0000
0001
0000
0100
0010
0100
0010
0100
0010
0100
0010
0100
0010
0100
0010
0100
0000
0000
,  // measure 22
0000
0000
0000
1010
0000
0000
0000
0000
0000
1100
0000
0000
0000
0000
0000
0110
0000
0000
0000
0000
0000
0001
0010
0001
,  // measure 23
0010
0001
0010
0001
0000
0000
0000
0010
0000
0100
0000
0000
0000
0000
0000
0000
0000
1000
0000
0001
0000
0100
0000
0000
,  // measure 24
0000
1001
0000
0000
0000
1000
0000
0001
0000
0010
0000
0000
0000
0000
0000
0001
0000
1000
0000
0100
0000
0010
0000
0001
,  // measure 25
0000
0000
0000
0000
0000
0010
0000
0100
0000
1000
0100
1000
0100
1000
0100
1000
0100
1000
0100
1000
0100
1000
0000
0000
,  // measure 26
0000
0002
0000
0023
0000
0230
0000
1300
,  // measure 27
0000
1010
0000
0000
0000
0101
0000
0000
0000
1010
0000
0000
0000
1001
0000
0000
0000
0100
0000
0010
0000
0100
0000
0100
,  // measure 28
0000
0000
0000
0001
0000
0000
0000
1000
0000
0020
0000
0000
0000
0000
0000
0130
0000
0000
0000
0000
0000
1001
0000
0000
,  // measure 29
0000
0100
0001
1000
0100
0010
0001
1000
0010
0100
0000
0000
0000
0101
0000
0000
0000
1010
0000
0000
0000
0110
0000
0000
,  // measure 30
0000
0010
1000
0001
1000
0100
0010
0001
1000
0010
0000
0000
0000
1001
0000
0000
0000
1100
0000
0000
0000
0110
0000
0000
,  // measure 31
0000
0010
0001
0010
0100
1000
0010
1000
0001
0100
0000
0000
0000
0101
0000
0000
0000
1010
0000
0000
0000
1001
0000
0000
,  // measure 32
0000
0001
0010
0100
1000
0001
0010
0100
1000
0100
0000
0000
0000
1100
0000
0000
0000
0011
0000
0000
0000
1001
0000
0000
,  // measure 33
0000
0100
0001
1000
0100
0010
0001
1000
0010
0100
0000
0000
0000
0101
0000
0000
0000
1000
0000
0010
0000
0110
0000
0000
,  // measure 34
0000
0010
1000
0001
1000
0100
0010
0001
1000
0010
0000
0100
0000
0001
0000
0000
0000
1100
0000
0000
0000
0101
0000
0000
,  // measure 35
0000
0010
0001
0010
0100
1000
0010
1000
0001
0100
0000
0000
0000
0011
0000
0000
0000
1100
0000
0000
0000
0100
0000
1000
,  // measure 36
0000
0001
0000
0010
0000
0001
0000
1000
0000
0001
0000
0001
0000
0001
0000
0010
0000
0100
0000
1000
0000
0002
0000
0000
,  // measure 37
0000
0000
0000
0000
0000
1003
0000
0010
0000
0200
0000
0000
0000
0000
0000
0020
0000
0000
0300
0000
0000
1030
0001
1000
,  // measure 38
0001
1000
0001
1000
0001
1000
0000
0010
0000
0200
0000
0000
0000
0000
0000
0000
0000
0000
0000
0000
0000
0020
0000
0000
,  // measure 39
0000
0300
0000
0000
0000
1030
0000
0001
0000
0200
0000
0000
0000
0000
0000
0002
0000
0000
0300
0000
0000
0020
0000
0000
,  // measure 40
0000
0000
0000
0003
0000
0000
0000
0000
0000
0200
0000
0000
0000
0030
0000
0000
0000
1300
0000
0100
0000
0020
0000
0000
,  // measure 41
0000
0000
0000
0000
0000
0031
0000
1000
0000
0200
0000
0000
0000
0000
0000
2000
0000
0000
0300
0000
0000
0002
0000
0000
,  // measure 42
0000
3000
0000
0000
0000
1003
0000
0010
0000
0200
0000
0000
0000
0000
0000
0001
0000
0000
0000
0000
0000
0020
0000
0000
,  // measure 43
0000
0000
0000
0300
0000
0031
0000
0010
0000
1000
0000
0000
0000
0001
0000
0000
0000
1000
0000
0000
0000
0200
0000
0000
,  // measure 44
0000
0000
0000
0000
0000
0000
0000
0000
0000
0020
0000
0000
0000
0000
0000
0000
0000
0000
0000
0300
0000
0031
0000
0100
,  // measure 45
0000
0010
0000
1000
0000
0010
0000
0100
0000
1000
0000
0100
0001
0100
0000
0010
0000
0000
0000
0101
0000
0000
0000
1010
,  // measure 46
0000
0000
0000
1000
0000
0001
0000
0100
0000
0010
0000
0001
0000
0010
0000
1000
0000
0100
0010
0100
0000
1000
0000
0010
,  // measure 47
0000
0100
0000
0001
0000
1000
0000
0000
0000
0010
0000
1000
0001
1000
0000
0001
0000
0100
0000
0001
0000
1000
0000
0010
,  // measure 48
0100
0010
0000
1000
0000
0001
0000
1000
0000
0000
0000
1100
0000
0000
0000
0001
0000
0100
0010
1000
0000
0001
0000
0100
,  // measure 49
0000
0010
0000
1000
0000
0100
0010
0001
0000
1000
0000
0010
0000
0100
0000
0000
0000
0110
0000
0000
0000
0010
0000
1000
,  // measure 50
0001
1000
0000
0001
0000
0100
0000
0010
0000
0001
0000
0010
1000
0010
0000
0100
0000
0010
0000
1000
0000
0010
0000
0100
,  // measure 51
0000
0000
0000
0001
0000
1000
0001
1000
0000
0100
0000
1000
0000
0100
0000
0010
0000
0001
0100
0001
0000
1000
0000
0010
,  // measure 52
0000
0100
0000
0001
0000
1000
0000
0000
0000
0010
0000
1000
0001
1000
0000
0001
0000
0100
0000
0001
0000
1000
0000
0010
,  // measure 53
0100
0010
0000
1000
0000
0001
0000
1000
0000
0010
0000
1000
0000
0000
0000
0001
0000
0100
0010
1000
0000
0001
0000
0100
,  // measure 54
0000
0010
0000
1000
0000
0100
0010
0001
0000
1000
0000
0010
0000
0200
0000
0000
0000
0002
0000
0300
0000
2000
0000
0003
,  // measure 55
0000
0000
0000
3010
0000
0000
0000
0100
0000
0010
0000
0000
0000
1010
0000
0000
0000
0101
0000
0000
0000
1100
0000
0000
,  // measure 56
0000
0010
0000
0001
0000
0000
0000
0001
0000
1000
0000
0000
0000
1001
0000
0000
0000
0100
0000
0001
0000
1000
0001
0100
,  // measure 57
0010
0100
0000
0010
0000
1000
0000
0001
0000
1000
0000
0000
0000
0010
0000
0100
0000
0001
0000
0000
0000
1010
0000
0000
,  // measure 58
0000
0101
0000
0000
0000
0100
0000
0001
0000
1000
0000
0000
0000
0010
0000
0100
0000
0001
0000
1000
0000
0100
0000
0000
,  // measure 59
0000
0110
0000
0000
0000
0011
0000
0000
0000
1100
0000
0000
0000
0100
0000
0010
0000
0001
0000
0000
0000
1001
0000
0000
,  // measure 60
0000
1000
0000
0010
0000
0100
0000
0001
0000
0100
0000
0000
0000
0010
0000
0100
0000
1000
0000
0100
0000
0001
0000
0000
,  // measure 61
0000
0101
0000
0000
0000
0100
0000
0001
0000
0010
0000
0000
0000
0100
0000
1000
0000
0010
0000
1000
0000
0001
0000
0000
,  // measure 62
0000
0011
0000
0000
0000
0010
0000
0100
0000
1000
0000
0000
0000
0001
0000
0010
0000
1000
0000
0010
0000
0001
0000
0000
,  // measure 63
0000
1001
0000
0000
0000
1010
0000
0000
0000
0110
0000
0000
0000
0010
0000
0100
0000
1000
0000
0000
0000
1100
0000
0000
,  // measure 64
0000
0100
0000
0001
0000
0010
0000
0100
0000
1000
0000
0000
0000
0001
0000
0100
0000
1000
0000
0100
0000
0001
0000
0000
,  // measure 65
0000
1001
0000
0000
0000
0110
0000
0000
0000
0100
0000
0100
0000
0010
0000
1000
0000
0001
0000
0100
0000
0010
0000
0010
,  // measure 66
0000
1000
0000
0100
0000
0010
0000
0001
0000
1000
0000
1000
0000
0100
0000
0001
0000
1000
0000
0010
0000
0001
0000
0001
,  // measure 67
0000
0100
0000
0000
0000
0001
0000
0010
0000
0100
0000
0100
0000
0001
0000
0100
0000
1000
0000
0100
0000
0001
0000
0001
,  // measure 68
0000
1000
0000
0010
0000
0001
0000
0100
0000
1000
0000
1000
0000
0100
0000
0001
0000
0010
0000
0100
0000
0010
0000
0000
,  // measure 69
0000
0110
0000
0100
0000
1000
0000
0010
0000
1000
0000
0001
0000
0100
0000
0001
0000
1000
0000
0010
0000
0100
0000
0001
,  // measure 70
0000
0010
0000
0100
0000
1000
0000
0100
0000
0010
0000
0001
0000
0100
0000
1000
0000
0100
0000
0010
0000
1000
0001
1000
,  // measure 71
0000
0001
0000
0000
0000
0100
0000
0001
0000
1000
0000
0010
0000
1000
0000
0001
0000
0000
0000
0000
0000
0000
0000
1000
,  // measure 72
0000
0100
0000
0010
0000
0001
0000
0100
0000
0010
0000
1000
0000
0001
0000
0100
0010
0100
0000
2002
0000
0000
0000
0000
,  // measure 73
3003
0000
0000
0000
;

//---------------dance-single - ----------------
#NOTES:
     dance-single:
     :
     Medium:
     14:
     0.520437,0.710762,0.275867,0.283980,1.111580,449.000000,415.000000,34.000000,35.000000,0.000000,0.000000,0.520437,0.710762,0.275867,0.283980,1.111580,449.000000,415.000000,34.000000,35.000000,0.000000,0.000000:
0000
0000
0000
0000
,
0000
0000
0000
0000
,
0000
0000
0000
0000
,
0000
0000
0000
0000
,
0000
0000
0000
0000
0000
0000
0000
0000
0000
0000
0001
1000
,
0000
0000
0010
0000
0000
1000
0000
0000
0100
0000
0000
0010
,
0000
0000
0001
0000
0000
1000
0000
0000
0010
0000
0000
0100
,
0000
0000
0010
0000
0000
1000
0000
0000
0001
0000
0100
0010
,
0000
0010
1000
0000
1000
0001
0000
0000
0000
0000
0100
0010
,
0000
0000
1000
0000
0000
0001
0000
0001
1000
0000
0000
0100
,
0000
0000
0010
0000
0000
0100
0000
0100
1000
0000
0000
0100
,
0000
0100
0010
0000
0000
0010
0000
0010
0001
0000
0001
1000
,
0000
1000
0001
0000
0001
0100
0000
0000
0000
0000
0010
1000
,
0000
0000
1000
0000
0001
0010
0000
0010
0100
0000
0000
1000
,
0000
0000
0100
0000
0010
0001
0000
0001
1000
0000
0000
0010
,
0000
0000
0100
0000
0001
0100
0000
0100
0010
0000
0010
1000
,
0000
1000
0100
0000
0100
0010
0000
0000
0000
0001
1000
0001
,
0000
0000
0010
0000
0000
0100
1000
0100
1000
0000
0000
0001
,
0010
0001
0010
0000
0000
0100
0010
0100
0010
0000
0000
0001
,
1000
0000
0001
0000
1000
0000
0000
0000
0000
0000
0010
0000
0100
0000
0010
0000
0100
0000
0000
0000
0000
0001
0000
0010
,
0000
0001
0000
0010
0000
0100
0000
1000
0000
0100
0000
1000
0000
0010
0000
0100
0000
0010
0000
0100
0000
0002
0000
0000
,
0000
0000
0000
0003
0000
1000
0000
0001
0000
2000
0000
0000
0000
0000
0000
0000
0000
0000
0000
0000
0000
0000
0000
0000
,
3000
0002
0000
0203
0000
0310
0000
0220
,
0000
0000
0000
0330
0000
0000
0000
0001
0000
1000
0000
0000
0000
0000
0000
0000
0000
0001
0000
0100
0000
0001
0000
0000
,
0000
1000
0000
0000
0000
0000
0000
0010
0000
0100
0000
0000
0000
0000
0000
0001
0000
0000
0000
1000
0000
0100
0000
0000
,
0000
0000
0000
0000
0000
0010
0000
0001
0000
0020
0000
0000
0000
0000
0000
0000
0000
0000
0000
0000
0000
0000
0000
0000
,
0000
0230
0000
2300
0000
3002
0000
0103
,
0000
0100
0000
0000
0000
0010
0000
0000
0000
0010
0000
0000
0000
1001
0000
0000
0000
1000
0000
0000
0000
0001
0000
0010
,
0000
0000
0000
0100
0000
0000
0000
0010
0000
0002
0000
0000
0000
0000
0000
0003
0000
0000
0000
0000
0000
0101
0000
0000
,
0000
0100
0000
0000
0000
0010
0000
0000
0000
1000
0000
0000
0000
1100
0000
0000
0000
1100
0000
0000
0000
0110
0000
0000
,
0000
0010
0000
0000
0000
0100
0000
0000
0000
0010
0000
0000
0000
0011
0000
0000
0000
0011
0000
0000
0000
0101
0000
0000
,
0000
0100
0000
0000
0000
0010
0000
0000
0000
1000
0000
0000
0000
1010
0000
0000
0000
1010
0000
0000
0000
1100
0000
0000
,
0000
0100
0000
0000
0000
0010
0000
0000
0000
0001
0000
0000
0000
1001
0000
0000
0000
1001
0000
0000
0000
0110
0000
0000
,
0000
0100
0000
0000
0000
0001
0000
0000
0000
1000
0000
0000
0000
1100
0000
0000
0000
1000
0000
0001
0000
1000
0000
0000
,
0000
0010
0000
0000
0000
0100
0000
0000
0000
0001
0000
0100
0000
0001
0000
0000
0000
0101
0000
0000
0000
0101
0000
0000
,
0000
0100
0000
0000
0000
0001
0000
0000
0000
0100
0000
0000
0000
0110
0000
0000
0000
0110
0000
0000
0000
0020
0000
0000
,
0000
0000
0000
0000
0000
0000
0000
0000
0000
1030
0000
0001
0000
1000
0000
0000
0000
0000
0000
0010
0000
0200
0000
0000
,
0000
0000
0000
0000
0000
0301
0000
1000
0000
0002
0000
0000
0000
0000
0000
2003
0000
0000
0000
0000
0000
3200
0000
0000
,
0000
0000
0000
0000
0000
0310
0000
0001
0000
2000
0000
0000
0000
0000
0000
0000
0000
0000
0000
0000
0000
3002
0000
0000
,
0000
0000
0000
0000
0000
0013
0000
0001
0000
2000
0000
0000
0000
0000
0000
3200
0000
0000
0000
0000
0000
0320
0000
0000
,
0000
0000
0000
0000
0000
0000
0000
0000
0000
0032
0000
0000
0000
0000
0000
0000
0000
0013
0000
0100
0000
0020
0000
0000
,
0000
0000
0000
0000
0000
0031
0000
1000
0000
0002
0000
0000
0000
0000
0000
0203
0000
0000
0000
0000
0000
0320
0000
0000
,
0000
0000
0000
0000
0000
0130
0000
0001
0000
2000
0000
0000
0000
0000
0000
3002
0000
0000
0000
0000
0000
0203
0000
0000
,
0000
0000
0000
0000
0000
0310
0000
1000
0000
0010
0000
0000
0000
0100
0000
0000
0000
0001
0000
0000
0000
2000
0000
0000
,
0000
0000
0000
3002
0000
0000
0000
0103
,
0000
0000
0000
0010
0000
0000
0000
0000
0000
1000
0000
0000
0000
0000
0000
0001
0000
0000
0000
0011
0000
0000
0000
1100
,
0000
1000
0000
0100
0000
0010
0000
0001
,
0000
0101
0000
0000
0000
1010
0000
0000
0000
0010
0000
0000
0000
0100
0000
0001
0000
0000
0000
0000
0000
0100
0000
0000
,
0000
0010
0000
1000
0000
0000
0000
1010
0000
0000
0000
1100
0000
0000
0000
0100
0000
0000
0000
0010
0000
0001
0000
0000
,
0000
0000
0000
0100
0000
0000
0000
0010
0000
1000
0000
0000
0000
0110
0000
0000
0000
1010
0000
0000
0000
1000
0000
0000
,
0000
0001
0000
1000
0000
0000
0000
0000
0000
0100
0000
0000
0000
0010
0000
0001
0000
0000
0000
0011
0000
0000
0000
1001
,
0000
0000
0000
1000
0000
0000
0000
0010
0000
0100
0000
0000
0000
0000
0000
0010
0000
0000
0000
0100
0000
0001
0000
0000
,
0000
1001
0000
0000
0000
1010
0000
0000
0000
0010
0000
0000
0000
0100
0000
0001
0000
0000
0000
0000
0000
0100
0000
0000
,
0000
0010
0000
1000
0000
0000
0000
1001
0000
0000
0000
1001
0000
0000
0000
0001
0000
0000
0000
0001
0000
0100
0000
0000
,
0000
0100
0000
0010
0000
0000
0000
0010
0000
1000
0000
0000
0000
2000
0000
0000
0000
3020
0000
0000
0000
0230
0000
0000
,
0000
0000
0000
0310
0000
0000
0000
0100
0000
0010
0000
0000
0000
1000
0000
0000
0000
1000
0000
0000
0000
0001
0000
0000
,
0000
0010
0000
0100
0000
0000
0000
1000
0000
0001
0000
0000
0000
0001
0000
0000
0000
0100
0000
0010
0000
1000
0000
0010
,
0000
0100
0000
0001
0000
1000
0000
0001
0000
1000
0000
0000
0000
0010
0000
0000
0000
0100
0000
0000
0000
0001
0000
0000
,
0000
0001
0000
0000
0000
0100
0000
0000
0000
0010
0000
0000
0000
1000
0000
0000
0000
0001
0000
0000
0000
0010
0000
0000
,
0000
0010
0000
0000
0000
0100
0000
0000
0000
0100
0000
0000
0000
1000
0000
0000
0000
0010
0000
0000
0000
0100
0000
0000
,
0000
0001
0000
0000
0000
0010
0000
0000
0000
0001
0000
0000
0000
0100
0000
0000
0000
0001
0000
0000
0000
1000
0000
0000
,
0000
1000
0000
0000
0000
0000
0000
0000
0000
0010
0000
0000
0000
0100
0000
0000
0000
0010
0000
0000
0000
1000
0000
0000
,
0000
1000
0000
0000
0000
0001
0000
0000
0000
0010
0000
0000
0000
0100
0000
0000
0000
0010
0000
0000
0000
0001
0000
0000
,
0000
0010
0000
0000
0000
0010
0000
0000
0000
0100
0000
0000
0000
0100
0000
0000
0000
1000
0000
0000
0000
0010
0000
0000
,
0000
0100
0000
0000
0000
0001
0000
0000
0000
1000
0000
0000
0000
0001
0000
0000
0000
1000
0000
0000
0000
0010
0000
0000
,
0000
0010
0000
0000
0000
0000
0000
0000
0000
0100
0000
0001
0000
0100
0000
0000
0000
0010
0000
0000
0000
1000
0000
0001
,
0000
1000
0000
0000
0000
0100
0000
0000
0000
0010
0000
0001
0000
0010
0000
0000
0000
0100
0000
0000
0000
1000
0000
0100
,
0000
1000
0000
0000
0000
0010
0000
0000
0000
0100
0000
0010
0000
0100
0000
0000
0000
0001
0000
0000
0000
1000
0000
0001
,
0000
1000
0000
0000
0000
0010
0000
0000
0000
0100
0000
0010
0000
0100
0000
0000
0000
0001
0000
0000
0000
1000
0000
0000
,
0000
0001
0000
0010
0000
0100
0000
1000
0000
0000
0000
0001
0000
0100
0000
0001
0000
0100
0000
0010
0000
0100
0000
0010
,
0000
0100
0000
0001
0000
1000
0000
0001
0000
1000
0000
0010
0000
1000
0000
0010
0000
1000
0000
0100
0000
0010
0000
0100
,
0000
0010
0000
0000
0000
0001
0000
0000
0000
0010
0000
0000
0000
0100
0000
1000
0000
0000
0000
0000
0000
0000
0000
0001
,
0000
0000
0000
0010
0000
0000
0000
0001
0000
0000
0000
1000
0000
0000
0000
0010
0000
0100
0000
0002
0000
0000
0000
0000
,
0003
0000
0000
0000
;

//---------------dance-single - ----------------
#NOTES:
     dance-single:
     :
     Easy:
     7:
     0.333822,0.384996,0.048682,0.316435,0.636927,288.000000,282.000000,6.000000,39.000000,0.000000,0.000000,0.333822,0.384996,0.048682,0.316435,0.636927,288.000000,282.000000,6.000000,39.000000,0.000000,0.000000:
0000
0000
0000
0000
,
0000
0000
0000
0000
,
0000
0000
0000
0000
,
0000
0000
0000
0000
,
0000
0000
0000
0000
0000
0000
0000
0000
0000
0000
0010
0000
,
0000
0000
1000
0000
0000
0001
0000
0000
0100
0000
0000
0010
,
0000
0000
1000
0000
0000
0001
0000
0000
1000
0000
0000
0010
,
0000
0000
0100
0000
0000
0001
0000
0000
1000
0000
0000
0100
,
0000
0000
0001
0000
0000
1000
0000
0000
0000
0000
0000
0100
,
0000
0000
0001
0000
0000
1000
0000
0000
0001
0000
0000
0010
,
0000
0000
0100
0000
0000
0010
0000
0000
0001
0000
0000
0010
,
0000
0000
0100
0000
0000
0100
0000
0000
1000
0000
0000
0001
,
0000
0000
1000
0000
0000
0010
0000
0000
0000
0000
0000
0100
,
0000
0000
0001
0000
0000
0100
0000
0000
0010
0000
0000
0001
,
0000
0000
0010
0000
0000
1000
0000
0000
0001
0000
0000
0100
,
0000
0000
0010
0000
0000
0010
0000
0000
0100
0000
0000
0001
,
0000
0000
0010
0000
0000
0100
0000
0000
0000
1000
0000
0001
,
0000
0000
0000
0000
0000
0010
0000
0000
0001
0000
0000
1000
,
0000
0000
0100
0000
0000
0010
0000
0000
0100
0000
0000
1000
,
0000
0000
0000
0000
0001
0000
0000
0000
0000
0000
0100
0000
0000
0000
0000
0000
0010
0000
0000
0000
0000
1000
0000
0000
,
0000
0100
0000
0010
0000
0100
0000
2000
,
0000
3000
0000
0002
0000
0000
0000
0000
,
0003
2000
0000
3020
0000
0130
0000
0220
,
0000
0000
0000
0330
0000
0000
0000
1000
0000
0001
0000
0000
0000
0000
0000
0000
0000
1000
0000
0000
0000
0000
0000
0000
,
0000
0001
0000
0000
0000
0000
0000
0000
0000
0010
0000
0000
0000
0000
0000
1000
0000
0000
0000
0000
0000
0010
0000
0000
,
0000
0000
0000
0000
0000
0100
0000
0000
0000
0200
0000
0000
0000
0000
0000
0000
0000
0000
0000
0000
0000
0000
0000
0000
,
0000
0320
0000
0032
0000
2003
0000
3010
,
0000
0010
0000
0000
0000
0000
0000
0000
0000
1000
0000
0000
0000
1000
0000
0000
0000
0000
0000
0000
0000
1000
0000
0000
,
0000
0010
0000
2000
0000
3000
0000
2020
,
3030
0000
0000
0000
0000
0000
0000
0000
0000
0001
0000
0000
0000
0001
0000
0000
0000
0001
0000
0000
0000
0220
0000
0000
,
0330
0000
0000
0000
0000
0000
0000
0000
0000
1000
0000
0000
0000
1000
0000
0000
0000
1000
0000
0000
0000
2002
0000
0000
,
3003
0000
0000
0000
0000
0000
0000
0000
0000
0100
0000
0000
0000
0100
0000
0000
0000
0100
0000
0000
0000
0220
0000
0000
,
0330
0000
0000
0000
0000
0000
0000
0000
0000
1000
0000
0000
0000
1000
0000
0000
0000
1000
0000
0000
0000
0110
0000
0000
,
0000
0000
0000
0000
0000
0000
0000
0000
0000
0001
0000
0000
0000
0001
0000
0000
0000
0100
0000
0000
0000
0020
0000
0000
,
0030
0000
0000
0000
0000
0000
0000
0000
0000
1000
0000
0000
0000
1000
0000
0000
0000
0010
0000
0000
0000
0020
0000
0000
,
0030
0000
0000
0000
0000
0000
0000
0000
0000
0010
0000
0000
0000
0010
0000
0000
0000
0010
0000
0000
0000
0200
0000
0000
,
0000
0000
0000
0000
0000
0000
0000
0000
0000
0301
0000
0000
0000
0001
0000
0000
0000
0000
0000
0000
0000
0020
0000
0000
,
0000
0000
0000
0000
0000
0030
0000
0000
0000
2000
0000
0000
0000
0000
0000
3000
0000
0000
0000
0000
0000
0020
0000
0000
,
0000
0000
0000
0000
0000
0030
0000
0000
0000
0002
0000
0000
0000
0000
0000
0000
0000
0000
0000
0000
0000
2003
0000
0000
,
0000
0000
0000
0000
0000
3000
0000
0000
0000
0002
0000
0000
0000
0000
0000
0003
0000
0000
0000
0000
0000
0200
0000
0000
,
0000
0000
0000
0000
0000
0000
0000
0000
0000
2300
0000
0000
0000
0000
0000
0000
0000
3000
0000
0000
0000
0200
0000
0000
,
0000
0000
0000
0000
0000
0300
0000
0000
0000
2000
0000
0000
0000
0000
0000
3000
0000
0000
0000
0000
0000
0200
0000
0000
,
0000
0000
0000
0000
0000
0300
0000
0000
0000
0002
0000
0000
0000
0000
0000
0003
0000
0000
0000
0000
0000
0020
0000
0000
,
0000
0000
0000
0000
0000
0030
0000
0000
0000
0200
0000
0000
0000
0000
0000
0300
0000
0000
0000
0000
0000
0002
0000
0000
,
0000
0000
0000
2003
0000
0000
0000
3010
,
0000
0000
0000
0100
0000
0000
0000
0000
0000
0001
0000
0000
0000
0000
0000
1000
0000
0000
0000
1000
0000
0000
0000
0001
,
0000
0001
0000
0010
0000
0100
0000
1000
,
0000
1000
0000
0000
0000
0100
0000
0000
0000
0100
0000
0000
0000
0000
0000
1000
0000
0000
0000
0000
0000
0010
0000
0000
,
0000
0000
0000
0001
0000
0000
0000
0001
0000
0000
0000
0010
0000
0000
0000
0010
0000
0000
0000
0000
0000
1000
0000
0000
,
0000
0000
0000
0010
0000
0000
0000
0000
0000
0100
0000
0000
0000
0100
0000
0000
0000
0001
0000
0000
0000
0001
0000
0000
,
0000
0000
0000
0001
0000
0000
0000
0000
0000
0010
0000
0000
0000
0000
0000
1000
0000
0000
0000
1000
0000
0000
0000
0001
,
0000
0001
0000
0010
0000
0100
0000
1000
,
0000
1000
0000
0000
0000
0100
0000
0000
0000
0100
0000
0000
0000
0000
0000
1000
0000
0000
0000
0000
0000
0010
0000
0000
,
0000
0000
0000
0001
0000
0000
0000
0001
0000
0000
0000
1000
0000
0000
0000
1000
0000
0000
0000
0000
0000
0010
0000
0000
,
0000
0000
0000
0100
0000
0000
0000
0000
0000
0001
0000
0000
0000
0001
0000
0000
0000
1000
0000
0000
0000
1000
0000
0000
,
0000
0000
0000
0100
0000
0000
0000
0000
0000
0100
0000
0000
0000
0000
0000
0000
0000
0001
0000
0000
0000
1000
0000
0000
,
0000
0000
0000
0010
0000
0000
0000
0000
0000
1000
0000
0000
0000
1000
0000
0000
0000
0010
0000
0000
0000
0001
0000
0000
,
0000
1000
0000
0000
0000
0001
0000
0000
0000
0100
0000
0000
0000
0100
0000
0000
0000
0010
0000
0000
0000
1000
0000
0000
,
0000
1000
0000
0000
0000
0010
0000
0000
0000
0100
0000
0000
0000
0001
0000
0000
0000
1000
0000
0000
0000
0100
0000
0000
,
0000
0100
0000
0000
0000
0010
0000
0000
0000
0010
0000
0000
0000
0001
0000
0000
0000
0100
0000
0000
0000
0010
0000
0000
,
0000
1000
0000
0000
0000
0100
0000
0000
0000
1000
0000
0000
0000
0010
0000
0000
0000
1000
0000
0000
0000
0001
0000
0000
,
0000
0001
0000
0000
0000
0000
0000
0000
0000
0100
0000
0000
0000
0010
0000
0000
0000
0100
0000
0000
0000
0001
0000
0000
,
0000
0001
0000
0000
0000
1000
0000
0000
0000
0100
0000
0000
0000
0010
0000
0000
0000
0100
0000
0000
0000
1000
0000
0000
,
0000
0100
0000
0000
0000
0100
0000
0000
0000
0010
0000
0000
0000
0010
0000
0000
0000
0001
0000
0000
0000
0100
0000
0000
,
0000
0010
0000
0000
0000
1000
0000
0000
0000
0001
0000
0000
0000
1000
0000
0000
0000
0001
0000
0000
0000
0100
0000
0000
,
0000
0100
0000
0000
0000
0000
0000
0000
0000
0010
0000
0000
0000
0010
0000
0000
0000
0100
0000
0000
0000
0001
0000
0000
,
0000
0001
0000
0000
0000
0010
0000
0000
0000
0100
0000
0000
0000
0100
0000
0000
0000
0010
0000
0000
0000
0001
0000
0000
,
0000
0001
0000
0000
0000
0100
0000
0000
0000
0010
0000
0000
0000
0010
0000
0000
0000
1000
0000
0000
0000
0001
0000
0000
,
0000
0001
0000
0000
0000
0100
0000
0000
0000
0010
0000
0000
0000
0010
0000
0000
0000
1000
0000
0000
0000
0001
0000
0000
,
0000
1000
0000
0000
0000
0010
0000
0000
0000
0000
0000
0000
0000
0100
0000
0000
0000
0010
0000
0000
0000
1000
0000
0000
,
0000
0010
0000
0000
0000
0001
0000
0000
0000
1000
0000
0000
0000
0010
0000
0000
0000
0001
0000
0000
0000
0100
0000
0000
,
0000
0010
0000
0000
0000
1000
0000
0000
0000
0100
0000
0000
0000
0010
0000
0000
0000
0000
0000
0000
0000
0000
0000
1000
,
0000
0000
0000
0001
0000
0000
0000
1000
0000
0000
0000
0010
0000
0000
0000
0100
0000
0000
0000
2000
0000
0000
0000
0000
,
3000
0000
0000
0000
;

//---------------dance-single - ----------------
#NOTES:
     dance-single:
     :
     Beginner:
     4:
     0.161115,0.207306,0.000000,0.251525,0.158218,139.000000,139.000000,0.000000,31.000000,0.000000,0.000000,0.161115,0.207306,0.000000,0.251525,0.158218,139.000000,139.000000,0.000000,31.000000,0.000000,0.000000:
0000
0000
0000
0000
,
0000
0000
0000
0000
,
0000
0000
0000
0000
,
0000
0000
0000
0000
,
0000
0000
0000
0000
0000
0000
0000
0000
0000
0000
0010
0000
,
0000
0000
0000
0000
0000
0001
0000
0000
0000
0000
0000
0010
,
0000
0000
0000
0000
0000
0001
0000
0000
0000
0000
0000
0010
,
0000
0000
0000
0000
0000
0001
0000
0000
0000
0000
0000
0100
,
0000
0000
0000
0000
0000
1000
0000
0000
0000
0000
0000
0100
,
0000
0000
0000
0000
0000
1000
0000
0000
0000
0000
0000
0010
,
0000
0000
0000
0000
0000
0010
0000
0000
0000
0000
0000
0010
,
0000
0000
0000
0000
0000
0100
0000
0000
0000
0000
0000
0001
,
0000
0000
0000
0000
0000
0010
0000
0000
0000
0000
0000
0100
,
0000
0000
0000
0000
0000
0100
0000
0000
0000
0000
0000
0001
,
0000
0000
0000
0000
0000
1000
0000
0000
0000
0000
0000
0100
,
0000
0000
0000
0000
0000
0010
0000
0000
0000
0000
0000
0001
,
0000
0000
0000
0000
0000
0100
0000
0000
0000
1000
0000
0001
,
0000
0000
0000
0000
0000
0010
0000
0000
0000
0000
0000
1000
,
0000
0000
0000
0000
0000
0010
0000
0000
0000
0000
0000
1000
,
0000
0000
0000
0000
0000
0000
0000
0000
0000
0000
0100
0000
0000
0000
0000
0000
0000
0000
0000
0000
0000
1000
0000
0000
,
0000
0000
0000
0010
0000
0000
0000
2000
,
0000
3000
0000
0002
0000
0000
0000
0000
,
0003
0000
0000
0020
0000
0030
0000
0200
,
0000
0000
0000
0300
0000
0000
0000
0000
0000
0001
0000
0000
0000
0000
0000
0000
0000
1000
0000
0000
0000
0000
0000
0000
,
0000
0000
0000
0010
0000
0000
0000
0010
,
0000
0000
0000
0200
0000
0000
0000
0000
,
0000
0300
0000
0002
0000
0003
0000
0010
,
0000
0000
0000
1000
0000
0000
0000
1000
,
0000
0000
0000
2000
0000
3000
0000
0020
,
0030
0000
0000
0000
0000
0000
0000
0000
0000
0001
0000
0000
0000
0000
0000
0000
0000
0001
0000
0000
0000
0200
0000
0000
,
0300
0000
0000
0000
0000
0000
0000
0000
0000
1000
0000
0000
0000
0000
0000
0000
0000
1000
0000
0000
0000
0002
0000
0000
,
0003
0000
0000
0000
0000
0000
0000
0000
0000
0100
0000
0000
0000
0000
0000
0000
0000
0100
0000
0000
0000
0020
0000
0000
,
0030
0000
0000
0000
0000
0000
0000
0000
0000
1000
0000
0000
0000
0000
0000
0000
0000
1000
0000
0000
0000
0010
0000
0000
,
0000
0000
0000
0000
0000
0000
0000
0000
0000
0001
0000
0000
0000
0000
0000
0000
0000
0100
0000
0000
0000
0020
0000
0000
,
0030
0000
0000
0000
0000
0000
0000
0000
0000
1000
0000
0000
0000
0000
0000
0000
0000
0010
0000
0000
0000
0020
0000
0000
,
0030
0000
0000
0000
0000
0000
0000
0000
0000
0010
0000
0000
0000
0000
0000
0000
0000
0010
0000
0000
0000
0200
0000
0000
,
0000
0000
0000
0301
0000
0000
0000
0020
,
0000
0000
0000
0000
0000
0030
0000
0000
0000
2000
0000
0000
0000
0000
0000
3000
0000
0000
0000
0000
0000
0020
0000
0000
,
0000
0000
0000
0000
0000
0030
0000
0000
0000
0002
0000
0000
0000
0000
0000
0000
0000
0000
0000
0000
0000
2003
0000
0000
,
0000
0000
0000
0000
0000
3000
0000
0000
0000
0002
0000
0000
0000
0000
0000
0003
0000
0000
0000
0000
0000
0200
0000
0000
,
0000
0000
0000
0000
0000
0000
0000
0000
0000
2300
0000
0000
0000
0000
0000
0000
0000
3000
0000
0000
0000
0200
0000
0000
,
0000
0000
0000
0000
0000
0300
0000
0000
0000
2000
0000
0000
0000
0000
0000
3000
0000
0000
0000
0000
0000
0200
0000
0000
,
0000
0000
0000
0000
0000
0300
0000
0000
0000
0002
0000
0000
0000
0000
0000
0003
0000
0000
0000
0000
0000
0020
0000
0000
,
0000
0000
0000
0000
0000
0030
0000
0000
0000
0200
0000
0000
0000
0000
0000
0300
0000
0000
0000
0000
0000
0002
0000
0000
,
0000
0000
0003
2000
0000
0000
0000
3010
,
0000
0000
0000
0001
0000
0000
0000
1000
,
0000
0000
0000
0010
0000
0000
0000
1000
,
0000
0000
0000
0100
0000
0000
0000
0010
,
0000
0000
0000
0000
0000
0010
0000
0000
,
0000
0010
0000
0000
0000
0000
0000
0001
,
0000
0000
0000
0010
0000
0000
0000
0000
,
0000
0001
0000
0000
0000
0100
0000
0000
,
0000
0000
0000
0100
0000
0000
0000
0010
,
0000
0000
0000
0000
0000
1000
0000
0000
,
0000
0100
0000
0000
0000
0000
0000
1000
,
0000
0000
0000
0100
0000
0000
0000
1000
,
0000
0000
0000
1000
0000
0000
0000
0001
,
0000
0000
0000
0100
0000
0000
0000
1000
,
0000
0000
0000
0100
0000
0000
0000
0100
,
0000
0000
0000
0010
0000
0000
0000
0010
,
0000
0000
0000
1000
0000
0000
0000
0001
,
0000
0000
0000
0100
0000
0000
0000
0001
,
0000
0000
0000
0100
0000
0000
0000
1000
,
0000
0000
0000
0010
0000
0000
0000
0100
,
0000
0000
0000
0001
0000
0000
0000
0100
,
0000
0000
0000
0010
0000
0000
0000
0001
,
0000
0000
0000
0100
0000
0000
0000
0001
,
0000
0000
0000
0010
0000
0000
0000
0001
,
0000
0000
0000
0010
0000
0000
0000
0001
,
0000
0000
0000
0000
0000
0000
0000
1000
,
0000
0000
0000
1000
0000
0000
0000
0100
,
0000
0000
0000
0100
0000
0000
0000
0000
,
0000
0000
0000
0001
0000
0000
0000
0000
0000
0000
0000
0000
0000
0000
0000
0100
0000
0000
0000
2000
0000
0000
0000
0000
,
3000
0000
0000
0000
;
