#VERSION:0.83;
#TITLE:THIS NIGHT;
#SUBTITLE:;
#ARTIST:jun feat. Sonnet;
#TITLETRANSLIT:;
#SUBTITLETRANSLIT:;
#ARTISTTRANSLIT:;
#GENRE:;
#ORIGIN:;
#CREDIT:;
#BANNER:THIS NIGHT.png;
#BACKGROUND:THIS NIGHT-bg.png;
#PREVIEWVID:;
#JACKET:THIS NIGHT-jacket.png;
#CDIMAGE:;
#DISCIMAGE:;
#LYRICSPATH:;
#CDTITLE:;
#MUSIC:THIS NIGHT.ogg;
#OFFSET:-0.020000;
#SAMPLESTART:77.620003;
#SAMPLELENGTH:15.000000;
#SELECTABLE:YES;
#DISPLAYBPM:160.000000;
#BPMS:0.000=160.714,
4.000=160.000;
#STOPS:;
#DELAYS:;
#WARPS:;
#TIMESIGNATURES:0.000=4=4;
#TICKCOUNTS:0.000=4;
#COMBOS:0.000=1;
#SPEEDS:0.000=1.000=0.000=0;
#SCROLLS:0.000=1.000;
#FAKES:;
#LABELS:0.000=Song Start;
#BGCHANGES:;
#KEYSOUNDS:;
#ATTACKS:
;

//---------------dance-single - ----------------
#NOTEDATA:;
#CHARTNAME:;
#STEPSTYPE:dance-single;
#DESCRIPTION:;
#CHARTSTYLE:;
#DIFFICULTY:Beginner;
#METER:2;
#RADARVALUES:0.117111,0.211250,0.018017,0.000000,0.000000,91.000000,89.000000,2.000000,0.000000,0.000000,0.000000,0.000000,0.000000,0.000000,0.117111,0.211250,0.018017,0.000000,0.000000,91.000000,89.000000,2.000000,0.000000,0.000000,0.000000,0.000000,0.000000,0.000000;
#CREDIT:;
#DISPLAYBPM:160.000000;
#NOTES:
0000
0000
0000
0000
,
0000
0000
0000
0000
,
0000
0000
0000
0000
,
0000
0000
0000
0000
,
0000
0000
0000
0000
,
1000
0000
0000
0000
,
0000
0000
0000
0000
,
0001
0000
0000
0000
,
0000
0000
0000
0000
,
1000
0000
0000
0000
,
1000
0000
0000
0000
,
0001
0000
0000
0000
,
0001
0000
0000
0000
,
1000
0000
0000
0000
,
1000
0000
0000
0000
,
0001
0000
0000
0000
,
0001
0000
0000
0000
,
1000
0000
1000
0000
,
1000
0000
0000
0000
,
0001
0000
0001
0000
,
0001
0000
0000
0000
,
1000
0000
1000
0000
,
1000
0000
0000
0000
,
0001
0000
0001
0000
,
0001
0000
0000
0000
,
0010
0000
0000
0000
,
1000
1000
1000
0000
,
0001
0001
0001
0000
,
1000
0000
0001
0000
,
0010
0000
0000
0000
,
0001
0001
0001
0000
,
1000
1000
1000
0000
,
0001
0000
1000
0000
,
0001
0000
0000
0000
,
1000
0000
0001
0000
,
0000
0000
0000
0000
,
1000
0000
0000
0000
,
0010
0000
0000
0000
,
0001
0000
0000
0000
,
0100
0000
0000
0000
,
0000
1000
0000
1000
,
0000
1000
0000
1000
,
0000
0001
0000
1000
,
1000
0000
0000
0000
,
0000
0001
0000
0001
,
0000
0001
0000
0001
,
0000
0001
0000
0000
,
1001
0000
0000
0000
,
0010
0000
0000
0000
,
0100
0000
0000
0000
,
1000
0000
0001
0000
,
0000
0000
0000
0000
,
0000
1000
0000
1000
,
0000
0001
0000
0001
,
0000
1000
0000
1000
,
1000
0000
0000
0000
,
0000
0001
0000
0001
,
0000
0001
0000
0001
,
0000
1000
0000
0001
,
0001
0000
0000
0000
,
0000
1000
0000
1000
,
0000
1000
0000
1000
,
0000
1000
0000
0000
,
1001
0000
0000
0000
,
0010
0000
0000
0000
,
0100
0000
0000
0000
,
0001
0000
1000
0000
,
0001
0000
0000
0000
,
0000
0000
0000
0000
;

//---------------dance-single - ----------------
#NOTEDATA:;
#CHARTNAME:;
#STEPSTYPE:dance-single;
#DESCRIPTION:;
#CHARTSTYLE:;
#DIFFICULTY:Easy;
#METER:5;
#RADARVALUES:0.193040,0.244131,0.027026,0.216205,0.000000,150.000000,147.000000,3.000000,24.000000,0.000000,0.000000,0.000000,0.000000,0.000000,0.193040,0.244131,0.027026,0.216205,0.000000,150.000000,147.000000,3.000000,24.000000,0.000000,0.000000,0.000000,0.000000,0.000000;
#CREDIT:;
#DISPLAYBPM:160.000000;
#NOTES:
0000
0000
0000
0000
,
0000
0000
0000
0000
,
0000
0000
0000
0000
,
0000
0000
0000
0000
,
0000
0000
0000
0000
,
2000
0000
3000
0000
,
0002
0000
0003
0000
,
0200
0000
0300
0000
,
0020
0000
0030
0000
,
0001
1000
0001
0000
,
0100
0000
1000
0000
,
0001
0100
0001
0000
,
0010
0000
0010
0000
,
0001
1000
0001
0000
,
0100
0000
1000
0000
,
0001
0100
0001
0000
,
0001
0000
1000
0001
,
2000
3000
0002
0003
,
0010
0010
0100
0000
,
0002
0003
2000
3000
,
0010
0100
0010
0000
,
2000
3000
0002
0003
,
0010
0010
0100
0000
,
0002
0003
2000
3000
,
0001
0000
1000
1000
,
0001
0010
0000
0001
,
1000
0010
0000
1000
,
0001
0000
0100
0000
,
0001
0000
1000
0000
,
0010
0001
0000
0100
,
0010
1000
0000
0100
,
0010
0000
1000
0000
,
0100
0000
0010
0000
,
0220
0000
0330
0000
,
0001
0000
1000
1001
,
0000
0000
0000
0000
,
0002
0000
0003
0000
,
2000
0000
3000
0000
,
0002
0000
2003
0000
,
3002
0000
1003
1000
,
0001
0010
0001
0000
,
0001
1000
0001
0000
,
0001
1000
0001
1000
,
0100
0000
0010
0010
,
1000
0001
1000
0000
,
0100
0010
0100
0000
,
0200
0000
0000
0300
,
0001
0000
0100
0100
,
1000
0000
0001
0001
,
0100
0000
0001
0000
,
1000
0000
0100
0000
,
2000
0000
3000
0000
,
0000
0001
0000
1000
,
0000
0100
0000
0001
,
0000
1000
0000
0001
,
0001
0000
0010
0010
,
1000
0010
1000
0000
,
1000
0001
1000
0000
,
1000
0001
1000
0001
,
0100
0000
0010
0010
,
0001
1000
0001
0000
,
0100
0010
0100
0000
,
0200
0000
0000
0300
,
1000
0000
0100
0100
,
0001
0000
1000
1000
,
0100
0000
1000
0000
,
0001
0000
0100
0000
,
2002
0000
0000
3003
,
0000
0000
0000
0000
;

//---------------dance-single - ----------------
#NOTEDATA:;
#CHARTNAME:;
#STEPSTYPE:dance-single;
#DESCRIPTION:;
#CHARTSTYLE:;
#DIFFICULTY:Medium;
#METER:8;
#RADARVALUES:0.344898,0.457745,0.072068,0.198187,0.000000,268.000000,260.000000,8.000000,22.000000,0.000000,0.000000,0.000000,0.000000,0.000000,0.344898,0.457745,0.072068,0.198187,0.000000,268.000000,260.000000,8.000000,22.000000,0.000000,0.000000,0.000000,0.000000,0.000000;
#CREDIT:;
#DISPLAYBPM:160.000000;
#NOTES:
0000
0000
0000
0000
,
0000
0000
0000
0000
,
0000
0000
0000
0000
,
0000
0000
0000
0000
,
0000
0000
0000
0000
,
2000
0000
3010
0000
,
0100
0000
0001
0000
0020
0000
0000
0030
,
0001
0000
0100
0000
,
0010
0000
1000
0000
0001
1000
0100
0000
,
0001
0100
1000
0100
,
0010
0001
0001
0000
1000
0100
0100
0000
,
1000
0100
0001
0100
,
1000
0000
1000
0000
0010
1000
0001
0000
,
0001
0100
1000
0100
,
0010
1000
1000
0000
0100
0001
0001
0000
,
1000
0100
0001
0100
,
0001
0010
0001
0000
0011
0000
1100
0000
,
2000
3010
0002
1003
,
0010
1000
0010
0000
0001
0100
0001
0000
,
0002
0103
2000
3001
,
0001
0000
1000
0000
0010
0001
1000
0000
,
2000
3100
0002
1003
,
0010
0001
0010
0000
1000
0100
1000
0000
,
0002
0103
2000
3001
,
1000
0010
1000
0010
1010
0000
0101
0000
,
1000
0100
0010
0000
0100
0010
0001
0000
,
0001
0100
0010
0000
0100
0010
1000
0000
,
0001
1000
0010
0000
0100
0000
0100
0000
,
0001
0000
1000
0001
0100
0000
0100
0000
,
0010
0100
0001
0000
0001
0010
0100
0000
,
0010
0100
1000
0000
1000
0010
0100
0000
,
0010
0100
0010
0000
1000
0000
0001
0000
,
0001
1000
0100
0000
0010
0000
0100
0000
,
0220
0000
0330
0000
,
0010
0100
0100
1001
,
0000
0000
0000
0000
,
0002
0000
2003
0000
,
3100
0000
0020
0000
,
0032
0000
0203
0000
,
0302
0000
1003
1000
,
0001
0100
0001
0010
,
0100
1000
0010
0100
,
0001
0100
0001
0000
0001
0010
0001
1000
,
0100
0000
0100
0100
,
1000
0001
0100
0010
,
0100
0001
0010
0100
1000
0000
0010
0000
,
0200
0001
0000
0301
,
0001
1000
1001
0000
,
1000
1000
0001
0001
,
0100
0010
1000
0001
,
0100
0000
0000
0001
1000
0000
0000
0000
,
1000
0001
1000
0001
,
0001
0010
0001
0000
1000
0100
1000
0000
,
1000
0100
0010
0001
,
0001
0000
1000
0000
0010
0100
0001
1000
,
0001
0000
0010
0010
,
1000
0100
1000
0010
,
0100
0001
0010
0100
,
1000
0100
1000
0000
1000
0010
1000
0001
,
0100
0000
0100
0100
,
0001
1000
0100
0010
,
0100
1000
0010
0100
0001
0000
0010
0000
,
0200
1000
0000
1300
,
1000
0001
1001
0000
,
0001
0001
1000
1000
,
0100
0010
0001
1000
,
0100
0000
0000
2000
0002
0000
0000
0000
,
0000
0000
0000
3003
,
0000
0000
0000
0000
;

//---------------dance-single - ----------------
#NOTEDATA:;
#CHARTNAME:;
#STEPSTYPE:dance-single;
#DESCRIPTION:;
#CHARTSTYLE:;
#DIFFICULTY:Hard;
#METER:11;
#RADARVALUES:0.455574,0.518778,0.081077,0.189179,0.121615,354.000000,345.000000,9.000000,21.000000,0.000000,0.000000,0.000000,0.000000,0.000000,0.455574,0.518778,0.081077,0.189179,0.121615,354.000000,345.000000,9.000000,21.000000,0.000000,0.000000,0.000000,0.000000,0.000000;
#CREDIT:;
#DISPLAYBPM:160.000000;
#NOTES:
0000
0000
0000
0000
,
0000
0000
0000
0000
,
0000
0000
0000
0000
,
0000
0000
0000
0000
,
0000
0000
0000
0000
,
0002
0000
0000
1003
0100
0000
0000
1000
,
0001
0000
0100
0000
0020
0000
0000
1030
,
0001
0000
0000
1000
0100
0000
0000
0001
,
0100
0000
0010
0000
1000
0001
1000
0000
,
0001
0000
0100
0000
1000
0100
0001
0000
,
0100
1000
0100
0010
0100
1000
0100
0000
,
1000
0000
0001
0000
1000
0100
0010
0000
,
1000
0100
0000
0100
0010
0001
1000
0000
,
1000
0000
0100
0000
0001
0100
1000
0000
,
0100
0001
0100
0010
0100
0001
0100
0000
,
0001
0000
1000
0000
0001
1000
0100
0000
,
1000
0100
1000
0001
0101
0000
1100
0000
,
2000
0000
3010
0000
0100
0001
0200
0000
,
0301
0010
0100
1000
0010
0100
0001
0000
,
2000
0000
3010
0000
0001
0100
0002
0000
,
0013
0100
0000
0100
1000
0001
0010
0000
,
0002
0000
0013
0000
0100
1000
0200
0000
,
1300
0010
0100
0001
0010
0100
1000
0000
,
0001
0000
0000
0000
0100
0000
0000
0000
0010
0000
1000
0001
0100
0000
0000
0000
,
0001
1000
0100
0000
0000
0000
1000
0000
0100
0000
0000
0000
0001
0000
0000
0000
,
1000
0100
0010
0100
1000
0001
0100
0001
,
1000
0100
0010
0100
1000
0001
0100
0001
,
1000
0100
1000
0010
0100
0000
0100
0000
,
0001
1000
0100
0010
0100
0000
0100
0000
,
0001
0100
0010
0100
0001
1000
0100
1000
,
0001
0100
0010
0100
0001
1000
0100
0000
,
0010
0001
0010
0100
0010
0100
1000
0000
,
1000
0010
0100
0001
0101
0000
0110
0000
,
2200
0000
3300
0000
,
0110
1010
0101
1100
,
0000
0000
0000
0000
,
0002
0000
0200
0003
,
1300
0100
0002
0000
,
2003
3100
0002
1000
,
0023
0000
0130
0100
,
1000
0100
0001
0000
0001
0100
1000
0010
,
0100
0001
0000
0000
0001
0010
0000
0000
0010
0100
0000
0000
0100
1000
0000
0000
,
1000
0100
1000
0000
0001
0100
0001
1000
,
0100
1000
0000
0000
0000
0000
0000
0000
0100
0000
0000
0000
0100
0000
0000
0000
,
1000
0100
0010
0000
0010
0001
0100
0000
,
0100
0001
0100
0010
1000
0100
0001
0000
,
0200
1000
0010
1300
,
0001
0000
0000
0000
1000
0000
0000
0000
0100
0000
0010
0001
0010
0000
0000
0000
,
1000
0010
1000
0000
0001
0010
0001
0000
,
0100
0010
0000
0000
0010
1000
0000
0000
1000
0001
0000
0000
0001
0010
0000
0000
,
0100
0000
0000
0001
1000
0000
0000
0000
,
2000
0010
0100
3010
,
0001
0010
0001
0000
1000
0001
1000
0100
,
1000
0100
0000
0000
0100
0010
0000
0000
0010
0001
0000
0000
0001
0100
0000
0000
,
0001
0100
0001
0000
0010
0100
1000
0001
,
1000
0100
0000
0000
0000
0000
0000
0000
0010
0000
0000
0000
0010
0000
0000
0000
,
0001
0100
1000
0000
1000
0100
0001
0010
,
0100
1000
0000
0000
1000
0010
0000
0000
0010
0100
0000
0000
0100
0001
0000
0000
,
0001
0100
0001
0000
1000
0100
1000
0001
,
0100
0001
0000
0000
0000
0000
0000
0000
0100
0000
0000
0000
0100
0000
0000
0000
,
0001
0100
0010
0000
0010
1000
0100
0000
,
0100
1000
0100
0010
0001
0100
1000
0000
,
0200
0001
0010
0301
,
1000
0000
0000
0000
0001
0000
0000
0000
0100
0000
0010
1000
0010
0000
0000
0000
,
1000
0010
1000
0000
0001
0010
0001
0000
,
0100
0010
0000
0000
0010
0001
0000
0000
0001
1000
0000
0000
1000
0010
0000
0000
,
0100
0000
0000
2000
0002
0000
0000
0000
,
0000
0000
0000
3003
,
0000
0000
0000
0000
;

//---------------dance-double - ----------------
#NOTEDATA:;
#CHARTNAME:;
#STEPSTYPE:dance-double;
#DESCRIPTION:;
#CHARTSTYLE:;
#DIFFICULTY:Easy;
#METER:6;
#RADARVALUES:0.195614,0.275661,0.000000,0.333315,0.000000,152.000000,152.000000,0.000000,37.000000,0.000000,0.000000,0.000000,0.000000,0.000000,0.195614,0.275661,0.000000,0.333315,0.000000,152.000000,152.000000,0.000000,37.000000,0.000000,0.000000,0.000000,0.000000,0.000000;
#CREDIT:;
#DISPLAYBPM:160.000000;
#NOTES:
00000000
00000000
00000000
00000000
,
00000000
00000000
00000000
00000000
,
00000000
00000000
00000000
00000000
,
00000000
00000000
00000000
00000000
,
00000000
00000000
00000000
00000000
,
20000000
00000000
32000000
00000000
,
03020000
00000000
00000000
00030000
,
00002000
00000000
00003200
00000000
,
00000302
00000000
00000000
00000003
,
00000001
00000000
00000010
00000100
,
00010000
00001000
01000000
00000000
,
10000000
00000000
00100000
01000000
,
00001000
00000100
00000100
00000000
,
00000001
00000000
00000010
00000100
,
00010000
00001000
01000000
00000000
,
10000000
00000000
00100000
01000000
,
00001000
00001000
00000010
00000000
,
00000001
00000000
00000010
00001000
,
00010000
00100000
01000000
00000000
,
10000000
00000000
00100000
00010000
,
00001000
00000000
00000100
00000000
,
00000001
00000000
00000010
00001000
,
00010000
00100000
01000000
00000000
,
00001000
00000000
00010000
00000000
,
00000020
00000000
00000200
00000330
,
00000020
00000000
00002030
00000000
,
00003020
00000000
00002030
00000000
,
00003100
00010000
00001000
00000000
,
01000000
00100000
10000000
00000000
,
02000000
00000000
03020000
00000000
,
00032000
00000000
00023000
00000000
,
00030010
00000000
00001000
00000000
,
00000100
00000100
00000100
00000100
,
00010000
00001000
01000000
00001000
,
00010000
00010000
00001000
00001000
,
00000000
00000000
00000000
00000000
,
00000100
00000000
00000000
00000000
,
00000001
00000000
00001000
00000000
,
00000100
00000000
00010000
00000000
,
00100000
00000000
01000000
01000000
,
00010000
00100000
00001000
00000000
,
00001000
00001000
00000100
00000100
,
00000002
00000003
00002000
00003000
,
00000200
00000000
00000300
00000000
,
00000010
00001000
00000100
00000000
,
00010000
00010000
00100000
00100000
,
20000000
30000000
02000000
03000000
,
00200000
00000000
00300000
00000000
,
00010000
00000000
01000000
01000000
,
00002000
00003000
00020000
00030000
,
00000200
00000000
00000000
00000300
,
00000000
00000000
00000000
00000000
,
00001000
00000000
00000001
00000000
,
00001000
00000100
00010000
00000000
,
02000000
03000000
00200000
00300000
,
02000000
00000000
03000000
00000000
,
00010000
00100000
00001000
00000000
,
00001000
00001000
00000100
00000100
,
00000002
00000003
00002000
00003000
,
00000200
00000000
00000300
00000000
,
00000010
00001000
00000100
00000000
,
00010000
00010000
00100000
00100000
,
20000000
30000000
02000000
03000000
,
00200000
00000000
00300000
00000000
,
00010000
00000000
01000000
01000000
,
00002000
00003000
00020000
00030000
,
00000200
00000000
00000000
00000300
,
00010000
00001000
00000100
00000001
,
00001000
00000000
00000000
00000000
,
00000000
00000000
00000000
00000000
;

//---------------dance-double - ----------------
#NOTEDATA:;
#CHARTNAME:;
#STEPSTYPE:dance-double;
#DESCRIPTION:;
#CHARTSTYLE:;
#DIFFICULTY:Medium;
#METER:8;
#RADARVALUES:0.343611,0.398177,0.090085,0.351332,0.000000,267.000000,257.000000,10.000000,39.000000,0.000000,0.000000,0.000000,0.000000,0.000000,0.343611,0.398177,0.090085,0.351332,0.000000,267.000000,257.000000,10.000000,39.000000,0.000000,0.000000,0.000000,0.000000,0.000000;
#CREDIT:;
#DISPLAYBPM:160.000000;
#NOTES:
00000000
00000000
00000000
00000000
,
00000000
00000000
00000000
00000000
,
00000000
00000000
00000000
00000000
,
00000000
00000000
00000000
00000000
,
00000000
00000000
00000000
00000000
,
00000002
00000000
00000200
00000003
,
00002000
00000300
00000000
00003000
,
00020000
00000000
02000000
00030000
,
20000000
03000000
00000000
30000000
,
00010000
01000000
00001000
00100000
,
00001000
00010000
00001000
00000000
00000010
00000000
00000100
00000000
,
00001000
00000100
00001000
00000010
,
00010000
00000000
00001000
01000000
00000000
01000000
00000000
01000000
,
00010000
01000000
00001000
00100000
,
00001000
00010000
00001000
00000000
00000010
00000000
00000100
00000000
,
00001000
00000100
00001000
00000010
,
00010000
00001000
00100000
00000000
00010000
10000000
00010000
00000000
,
00100000
01000000
00001000
00100000
,
00001000
00010000
00000100
00000000
00000010
00000000
00000100
00000000
,
00001000
00000100
00010000
00001000
,
00010000
00000000
00100000
01000000
00000000
01000000
00000000
01000000
,
00100000
01000000
00001000
00100000
,
00001000
00010000
00000100
00000000
00000010
00000000
00000100
00000000
,
00001000
00000000
00000000
00000101
00000000
00000000
00001010
00000000
,
00011000
00000000
00000000
00000000
,
00020000
00000000
00031000
00000000
00000100
00000010
00000100
00000000
,
00002000
00000000
00013000
00000000
01000000
00100000
01000000
00000000
,
10000000
00000000
00100000
00000000
00010000
00001000
00010000
00001000
,
00000200
00000301
00000020
00000130
,
00002000
00000000
00013000
00000000
00001000
00100000
01000000
00000000
,
00020000
00000000
00031000
00000000
00000100
00000010
00001000
00000000
,
00000002
00000103
00000020
00001030
,
00000200
00000000
00020300
00000000
,
01030000
00000000
01000000
00000000
00100000
00001000
00010000
00000100
,
00001000
00000000
00001000
00000000
00000001
00000100
00000010
00001000
,
00000200
00000000
00000000
00000300
,
00001000
00000000
00000000
00000001
00000100
00000000
00000000
00000100
,
00001000
00000000
00000000
00001000
00010000
00000000
00000000
00010000
,
01000000
00000000
00000000
01000000
10000000
00000000
00000000
10000000
,
00020000
00000000
01000000
01030000
,
00001000
00000000
00100000
00000000
01000000
00000000
10000000
00010000
,
02000000
03100000
00002000
00103000
,
00010000
01000000
00100000
10000000
,
01000000
00000000
00010000
00011000
,
00000200
00000000
00000301
00000000
00001000
00000100
00001000
00000000
,
00000020
00000000
00010030
00000000
00000100
00001000
00000100
00000000
,
00010000
00100000
10000000
00010000
,
02000000
00000000
00100000
03100000
,
10000000
00000000
00100000
00000000
00010000
00001000
00000100
00000000
,
00000001
00000010
00000100
00000000
00001000
00000010
00000100
00000000
,
00000002
00000203
00002300
00003000
,
00010000
01010000
10000000
10100000
,
00010000
00000000
00001000
00000000
00000100
00000000
00000001
00000010
,
00000200
00020300
00032000
00003200
,
00000301
00001000
00000100
00010000
,
00002000
00000000
00010000
00013000
,
00010000
00000000
00000010
00000000
00000100
00000000
00000001
00001000
,
00000200
00000310
00020000
00030010
,
00001000
00000100
00000010
00000001
,
00000100
00000000
00001000
00011000
,
02000000
00000000
13000000
00000000
00010000
01000000
00010000
00000000
,
00200000
00000000
00301000
00000000
01000000
00010000
01000000
00000000
,
00001000
00000010
00000001
00001000
,
00000200
00000000
00000010
00000310
,
00000001
00000000
00000010
00000000
00001000
00010000
01000000
00000000
,
10000000
00100000
01000000
00000000
00010000
00100000
01000000
00000000
,
20000000
30200000
00320000
00030000
,
00011000
00000100
00000010
00001100
,
00000011
00000000
00000000
00000000
,
00000000
00000000
00000000
00000000
;

//---------------dance-double - ----------------
#NOTEDATA:;
#CHARTNAME:;
#STEPSTYPE:dance-double;
#DESCRIPTION:;
#CHARTSTYLE:;
#DIFFICULTY:Hard;
#METER:11;
#RADARVALUES:0.437557,0.520693,0.162153,0.423401,0.000000,340.000000,322.000000,18.000000,47.000000,0.000000,0.000000,0.000000,0.000000,0.000000,0.437557,0.520693,0.162153,0.423401,0.000000,340.000000,322.000000,18.000000,47.000000,0.000000,0.000000,0.000000,0.000000,0.000000;
#CREDIT:;
#DISPLAYBPM:160.000000;
#NOTES:
00000000
00000000
00000000
00000000
,
00000000
00000000
00000000
00000000
,
00000000
00000000
00000000
00000000
,
00000000
00000000
00000000
00000000
,
00000000
00000000
00000000
00000000
,
20000000
00000000
00020000
30000000
,
00000020
00030000
00000000
00000030
,
00000002
00000000
00002000
00000003
,
00200000
00003000
00000000
00300000
,
10000000
00000000
01000000
00000000
00010000
00000000
00000010
00000100
,
00000001
00000000
00001000
00000000
00000100
00000010
00000100
00000010
,
00000001
00000000
00000100
00000000
00001000
00010000
00100000
01000000
,
00010000
00000000
10000000
00100000
00000000
10000000
00000000
00010000
,
10000000
00000000
01000000
00000000
00010000
00000000
00000010
00000100
,
00000001
00000000
00001000
00000000
00000100
00000010
00000100
00000010
,
00000001
00000000
00000100
00000000
00001000
00010000
00100000
01000000
,
00100000
00000000
10000000
01000000
00010000
01000000
10000000
00000000
,
10000000
00000000
01000000
00000000
00010000
00000000
00001000
00000100
,
00000001
00000000
00001000
00000000
00000100
00000010
00000100
00000010
,
00000001
00000000
00000100
00000000
00001000
00010000
00100000
10000000
,
00010000
00000000
10000000
01000000
00000000
10000000
00000000
00010000
,
10000000
00000000
01000000
00000000
00010000
00000000
00001000
00000100
,
00000001
00000000
00001000
00000000
00000100
00000010
00000100
00000010
,
00000001
00000000
00000000
00010100
00000000
00000000
00101000
00000000
,
10010000
00000000
00000000
00000000
,
01200000
00000000
00310000
00000000
00100000
00001000
00010000
00000010
,
00000120
00000000
00001030
00000000
00000010
00010000
00001000
00100000
,
00200000
00000000
00301000
01000000
00100000
00010000
00001000
00100000
,
02000000
00000000
13000000
00100000
00010000
00100000
00010000
00000000
,
00201000
00000000
00310000
00000000
00100000
00001000
00010000
00000010
,
00001020
00000000
00001030
00000000
00000010
00010000
00001000
00100000
,
00020000
01030000
20000000
30100000
,
00021000
00130000
00012000
00003100
,
00000001
00000010
00000100
00010000
00000010
00000100
00001000
00100000
,
01000000
10000000
00100000
00010000
00001000
00100000
00001000
00000010
,
00000200
00000000
00000000
00000300
,
00000010
00000000
00000000
00000001
00000100
00000000
00000000
00001000
,
00100000
00000000
00000000
01000000
10000000
00000000
00000000
00100000
,
00010000
00000000
00000000
00001000
00000010
00000000
00000000
00001000
,
00020000
00000000
00001000
00031000
,
00100000
01000000
20000000
00000000
30100000
00010000
00001000
00010000
,
00000200
00000010
00000001
00001300
,
00000010
00001000
00020000
00000000
00030010
00001000
00020000
00000000
,
01030000
00100000
10000000
00000000
10100000
00000000
01010000
00000000
,
00101000
00000000
00010000
00001000
00000020
00000000
00000031
00001000
,
00000002
00000000
00000013
00001000
00020000
00000000
00031000
00000100
,
00000001
00000010
00001000
00010000
00001000
00000100
00000001
00000010
,
00000200
00000000
00000010
00000310
,
00000002
00000000
00000103
00000000
00001000
00010000
01000000
00010000
,
00001000
00100000
00010000
10000000
01000000
10000000
00100000
01000000
,
00020000
01000000
20000000
30030000
,
00200000
00320000
00032000
00003100
,
00000001
00000000
00001000
00000100
00000020
00000000
00000130
00010000
,
00001000
00000000
01000000
00100000
00010000
00001000
00100000
00001000
,
00010000
00100000
00010000
00001000
00000010
00000100
00001000
00000001
,
00000200
00000000
00000001
00000301
,
00000010
00000100
00000002
00000000
00000013
00001000
00010000
00001000
,
02000000
00100000
10000000
03010000
,
00100000
00010000
00002000
00000000
00103000
00010000
00002000
00000000
,
00003100
00000010
00000001
00000000
00000011
00000000
00001100
00000000
,
00010010
00000000
00001000
00010000
00200000
00000000
10300000
00010000
,
20000000
00000000
30100000
00010000
00002000
00000000
00013000
01000000
,
10000000
00100000
00010000
00001000
00010000
01000000
10000000
00100000
,
02000000
00000000
00100000
03100000
,
20000000
00000000
31000000
00000000
00010000
00001000
00000100
00001000
,
00010000
00000010
00001000
00000001
00000100
00000001
00000010
00000100
,
00002000
00000010
00000002
00003003
,
00000120
00001030
00012000
00103000
,
01100000
00000000
00000000
00000000
,
00000000
00000000
00000000
00000000
;

//---------------dance-single - ----------------
#NOTEDATA:;
#CHARTNAME:;
#STEPSTYPE:dance-single;
#DESCRIPTION:;
#CHARTSTYLE:;
#DIFFICULTY:Challenge;
#METER:13;
#RADARVALUES:0.706526,0.857611,0.360341,0.414392,0.436913,549.000000,509.000000,40.000000,46.000000,0.000000,0.000000,0.000000,0.000000,0.000000,0.706526,0.857611,0.360341,0.414392,0.436913,549.000000,509.000000,40.000000,46.000000,0.000000,0.000000,0.000000,0.000000,0.000000;
#CREDIT:;
#DISPLAYBPM:160.000000;
#NOTES:
// measure 0
0000
0000
0000
0000
,  // measure 1
1002
0000
0000
0010
0010
0000
0000
1000
,  // measure 2
2003
0000
0000
0010
0010
0000
0000
0100
,  // measure 3
3200
0000
0000
1000
1000
0000
0000
0010
,  // measure 4
0320
0000
0000
0100
0100
0000
0000
0001
,  // measure 5
0032
0000
0000
1000
2003
0000
3020
0000
,  // measure 6
0032
2003
3200
0302
,  // measure 7
0023
0000
0000
0100
0230
0000
0000
1300
,  // measure 8
1000
0100
0010
0001
1000
0001
1000
0000
,  // measure 9
0001
0000
0100
0000
0001
0000
1000
0010
0100
0000
0001
0000
1000
0000
0100
0010
,  // measure 10
0001
0000
1000
0000
0010
0000
0100
0001
1000
0000
0010
0100
0001
0000
1000
0000
,  // measure 11
0000
0000
1000
0000
0001
0000
0010
0100
1000
0000
0100
0000
0010
0000
0001
0100
,  // measure 12
0010
0000
1000
0000
0001
0000
0010
0100
1000
0000
0010
0100
0001
0000
0010
0000
,  // measure 13
0000
0000
0010
0000
0100
0000
1000
0001
0100
0000
0010
0000
1000
0000
0001
0010
,  // measure 14
0100
0000
1000
0000
0001
0000
1000
0100
0001
0000
1000
0010
0001
0000
1000
0000
,  // measure 15
0000
0000
0001
0000
1000
0000
0100
0010
0001
0000
1000
0000
0010
0000
0100
0001
,  // measure 16
0010
0000
0100
0000
1000
0000
0010
0100
0002
0000
0000
0000
2000
0000
3003
0000
,  // measure 17
1001
0100
0110
0010
1000
0001
0101
0100
,  // measure 18
0010
1000
1010
0010
0100
0000
0101
0000
,  // measure 19
0001
1000
1100
0100
0010
0001
0011
0010
,  // measure 20
0100
1000
1001
0000
0010
0000
0110
0000
,  // measure 21
0010
1000
1010
0010
0100
0001
0101
0100
,  // measure 22
0001
1000
1001
0001
0010
0001
0011
0000
,  // measure 23
0010
0000
0000
0000
0110
0000
0100
0000
0000
0000
1000
0001
0100
0000
0000
0000
,  // measure 24
0001
1000
0100
0000
0010
0001
0010
0001
0100
0010
0100
0010
1000
0001
1000
0000
,  // measure 25
0110
0010
0100
0001
1000
0001
1100
1000
,  // measure 26
0101
0001
0010
0100
1000
0001
1100
1000
,  // measure 27
0101
0001
1000
0010
0210
0000
0301
0002
,  // measure 28
0000
1003
0100
0010
0001
0000
1010
1000
,  // measure 29
0011
0001
0100
0010
0100
0001
1010
1000
,  // measure 30
0011
0001
1000
0010
0200
0000
0302
0000
,  // measure 31
0013
0110
0100
1100
,  // measure 32
1000
0000
0000
0000
1010
0000
0000
0000
0010
0000
0100
0001
1000
0000
0001
1000
,  // measure 33
0200
0001
0010
1300
,  // measure 34
1100
0110
0011
1001
,  // measure 35
1020
1000
0100
0001
,  // measure 36
0200
0000
0000
0330
1002
0000
0023
0000
,  // measure 37
0230
2300
3200
0320
,  // measure 38
0031
0010
0001
1000
0010
1000
0001
0100
0001
1000
0100
1000
0010
0100
0010
1000
,  // measure 39
0100
1000
0100
0010
0100
0010
0001
0000
2002
0000
3003
0000
2002
0000
3003
0000
,  // measure 40
1000
0000
0001
0000
1000
0000
0100
0000
0000
0000
0100
0010
0001
0000
0000
0001
,  // measure 41
1000
0000
0000
1000
0001
0000
0000
0001
0010
0000
0000
0010
0100
0000
0000
0100
,  // measure 42
2000
0000
3010
0200
0000
0301
0020
0000
,  // measure 43
0130
0000
1000
0001
0100
0000
0010
0000
0001
0000
0010
1000
0100
0000
1000
0000
,  // measure 44
0010
0000
0100
0001
0010
0000
0100
0000
1000
0000
0001
1000
0100
0000
0010
0000
,  // measure 45
0001
0000
1000
0001
0100
0000
0010
0000
1000
0000
0001
0100
0010
0000
0100
0000
,  // measure 46
0002
0000
0010
0010
0000
1000
1003
0000
,  // measure 47
1001
0000
1000
0001
0100
0000
0010
0000
0100
0000
0001
1000
0010
0000
0100
0000
,  // measure 48
0001
0000
0010
0100
1000
0000
0010
0000
0100
0000
0001
1000
0100
0000
0000
0010
,  // measure 49
0001
0000
0000
0001
0010
0000
0000
0010
0100
0000
0000
0100
1000
0000
0000
1000
,  // measure 50
0001
0000
0100
0001
1000
0000
0001
0000
,  // measure 51
1000
0010
0100
0001
0010
0100
1000
0010
0100
0001
0010
0100
1000
0010
0100
0001
,  // measure 52
0010
0000
0001
0000
1000
0000
0100
1000
0010
0000
0100
0000
0001
0000
0000
0100
,  // measure 53
1000
0000
0000
1000
0100
0000
0000
0100
0010
0000
0000
0010
1000
0000
0000
1000
,  // measure 54
0001
0000
0100
0010
1000
0000
0001
0000
0010
0000
0001
0100
1000
0000
0100
0000
,  // measure 55
1000
0000
0001
0010
1000
0000
0010
0000
0220
0000
0330
0000
0220
0000
0330
0000
,  // measure 56
0001
0000
1000
0000
0001
0000
0010
0000
0000
0000
0010
0100
1000
0000
0000
1000
,  // measure 57
0001
0000
0000
0001
1000
0000
0000
1000
0100
0000
0000
0100
0010
0000
0000
0010
,  // measure 58
0002
0000
0103
0020
0000
1030
0200
0000
,  // measure 59
0310
0000
0001
1000
0010
0000
0100
0000
1000
0000
0100
0001
0010
0000
0001
0000
,  // measure 60
0100
0000
0010
1000
0100
0000
0010
0000
0001
0000
1000
0001
0010
0000
0100
0000
,  // measure 61
1000
0000
0001
1000
0010
0000
0100
0000
0001
0000
1000
0010
0100
0000
0010
0000
,  // measure 62
2000
0000
0100
0100
0000
0001
3001
0000
,  // measure 63
1001
0000
0001
1000
0010
0000
0100
0000
0010
0000
1000
0001
0100
0000
0010
0000
,  // measure 64
1000
0000
0100
0010
0001
0000
0100
0000
0010
0000
1000
0001
0010
0000
0000
0100
,  // measure 65
1000
0000
0000
1000
0100
0000
0000
0100
0010
0000
0000
0010
0001
0000
0000
0001
,  // measure 66
1000
0000
0010
2000
0002
0000
0000
3000
,  // measure 67
0013
0000
0100
0000
1000
0000
0001
0000
0010
0000
0001
1000
0001
1000
0001
1000
,  // measure 68
0001
0000
0000
0000
;
