#TITLE:Snake Charmer;
#SUBTITLE:;
#ARTIST:DIRTYHERTZ and Rena Jones;
#TITLETRANSLIT:;
#SUBTITLETRANSLIT:;
#ARTISTTRANSLIT:;
#CREDIT:;
#BANNER:Snake Charmer.png;
#BACKGROUND:Snake Charmer-bg.png;
#LYRICSPATH:;
#CDTITLE:./CDTITLES/Dance Dance Revolution ULTRAMIX4.png;
#MUSIC:Snake Charmer.mp3;
#OFFSET:-0.100;
#SAMPLESTART:72.037;
#SAMPLELENGTH:13.500;
#SELECTABLE:YES;
#DISPLAYBPM:140.000;
#BPMS:0.000=140.001,228.000=141.176;
#STOPS:;
#BGCHANGES:;

//---------------dance-single - ----------------
#NOTES:
     dance-single:
     :
     Beginner:
     1:
     0.160,0.166,0.019,0.000,0.000:
0000
0000
0000
0000
,
0000
0000
0000
0000
,
0010
0010
0000
0000
,
1000
1000
0000
0000
,
0001
0001
0000
0000
,
0100
0100
0000
0000
,
0010
0000
0100
0000
,
0010
0010
0000
0000
,
1000
1000
0000
0000
,
0001
0000
0100
0000
,
0010
0010
0000
0000
,
1000
1000
0000
0000
,
0100
0100
0000
0000
,
0010
0000
0010
0000
,
0001
0000
1000
0000
,
0010
0010
0000
0000
,
1000
0000
0001
0000
,
0100
0100
0100
0000
,
0010
0000
0000
0000
,
1000
0000
0001
0000
,
1000
0000
0000
0000
,
0100
0000
0000
0000
,
0010
0000
0010
0000
,
0001
0000
0001
0000
,
0100
0000
0100
0000
,
0010
0000
0010
0000
,
1000
0000
0001
0000
,
1000
1000
1000
0000
,
0010
0000
1000
0000
,
0010
0010
0010
0000
,
0100
0000
0001
0000
,
0100
0100
0100
0000
,
0001
0000
1000
0000
,
0010
0000
0010
0000
,
0110
0000
0000
0000
,
0000
0000
0000
0000
,
0110
0000
0000
0000
,
0000
0000
0000
0000
,
1000
0000
0001
0000
,
1000
1000
1000
0000
,
0010
0000
1000
0000
,
0001
0001
0001
0000
,
0100
0000
0010
0000
,
0100
0000
0010
0010
,
0010
0000
0010
0000
,
0100
0100
0100
0000
,
0010
0000
1000
0000
,
0010
0010
0010
0000
,
1000
0000
0001
0000
,
1000
1000
1000
0000
,
0010
0000
1000
0000
,
0100
0000
1000
0000
,
0010
0000
0100
0000
,
0001
0000
0010
0000
,
0001
0000
1000
0000
,
0001
0000
0010
0000
,
0001
0000
1000
0000
,
0001
0001
0001
0001
;

//---------------dance-single - ----------------
#NOTES:
     dance-single:
     :
     Easy:
     4:
     0.227,0.221,0.000,0.057,0.000:
0000
0000
0000
0000
,
0000
0000
0000
0000
,
1000
0010
0000
0000
,
1000
0010
0000
0000
,
1000
0010
0000
0000
,
1000
0010
0100
0000
,
1000
0010
0100
0000
,
1000
0001
0100
0000
,
0001
1000
0010
0000
,
0100
0010
1000
0001
,
0010
0100
0010
0000
,
1000
0001
0100
0010
,
1000
0100
0010
0000
,
0010
0001
0100
0010
,
1000
0000
0001
0000
,
1000
1000
0100
0010
,
0001
1000
0010
0000
,
0100
0100
0010
1000
,
0002
0000
0003
0000
,
1000
0100
0010
0001
,
1000
0000
0001
0000
,
1000
0100
0010
0001
,
0010
0001
0010
0001
,
0100
0000
0001
0000
,
1000
0010
1000
0010
,
1000
0000
0100
0000
,
1000
0000
0010
0100
,
0010
0000
1000
0001
,
0100
0000
0010
1000
,
0100
0000
0010
0001
,
0100
0000
0010
1000
,
0001
0000
1000
0001
,
0100
0000
0010
1000
,
0100
0010
0001
1000
,
0002
0000
0003
0000
,
2000
0000
0000
0000
,
0010
0010
3010
0000
,
0020
0000
0030
0000
,
2000
0000
3000
0000
,
0002
0000
0003
0000
,
0100
0000
0100
0000
,
0010
0000
0010
0010
,
0010
1000
0010
1000
,
0001
0100
0001
0000
,
1000
0001
1000
0001
,
0100
0010
0100
0000
,
0010
0000
1000
0001
,
0100
0000
0010
1000
,
0001
0000
1000
0010
,
0100
0001
0010
0100
,
1000
0000
0001
0000
,
1000
0000
0010
0000
,
1000
1000
0010
0000
,
1000
1000
0100
0010
,
0001
0000
1000
0000
,
0001
0000
1000
0000
,
0010
0010
0010
0100
,
0010
0010
0010
0100
;

//---------------dance-single - ----------------
#NOTES:
     dance-single:
     :
     Medium:
     6:
     0.369,0.386,0.048,0.067,0.000:
0000
0000
0000
0000
,
0000
0000
0000
0000
,
1000
0001
1000
0001
,
1000
0100
0010
0000
0010
0001
1000
0000
,
1000
0010
0100
0001
1000
0000
0001
0000
,
0010
0001
0010
0001
0010
0001
1000
0000
,
0001
1000
0001
1000
,
0001
0010
0100
1000
0001
0000
1000
0000
,
0010
1000
0010
1000
0010
1000
0001
0000
,
1000
0001
0010
0100
,
1000
0000
0001
0000
1000
0010
0100
0000
,
0001
0000
1000
0000
0001
0010
0100
0000
,
2000
3020
0230
0302
,
0013
0100
0010
0001
,
1000
0000
0001
0000
1000
0010
1000
0000
,
0001
0100
1000
0100
0001
0000
0010
0000
,
0100
1000
0100
1000
,
0001
0100
0010
1000
,
0002
0100
0000
0010
,
0000
1000
1000
1000
,
0010
0000
1000
0000
,
0100
0100
0100
0100
,
0013
0000
0100
0010
,
0100
0010
0100
0010
,
1000
0001
1000
0001
,
0100
0100
0010
0110
,
1000
0000
0100
0000
1000
0001
0100
0000
,
0001
0000
1000
0000
0010
1000
0001
0000
,
1000
0000
0100
0000
0010
0001
0100
0000
,
0010
1000
0001
1000
,
0001
0010
0001
0000
1000
0010
1000
0000
,
0001
0010
0001
0000
0100
0000
0100
0000
,
1000
0010
1000
0000
0001
0010
0001
0000
,
1000
0010
0100
0001
1000
0000
0010
0000
,
1000
0100
0010
0001
,
1000
0010
0100
0001
,
0010
1000
0010
0000
0010
0001
0010
0000
,
0010
0100
0010
0000
0010
1000
0010
0000
,
1000
1000
0010
1000
,
2000
0000
0002
3003
,
0100
0100
0100
0010
,
1000
0001
1001
0000
,
1000
0010
1000
0001
,
0100
0001
1000
1001
,
0001
0100
0010
1000
,
0010
1000
1010
1010
,
1000
0010
1000
0000
0001
0010
0001
0000
,
1000
0010
1000
0000
0100
0000
0100
0000
,
0001
0010
0001
0000
1000
0010
1000
0000
,
1000
0001
0010
0100
,
1000
0000
0100
0000
1000
0100
0010
0000
,
1000
0100
0001
0000
1000
0100
0001
0000
,
1000
0010
0100
0001
,
0001
0100
1000
0000
0001
0100
1000
0000
,
1000
0001
0100
0010
,
1000
0100
0010
0001
,
0001
1000
0010
0100
,
0100
0000
0100
0000
0010
0100
0010
0000
;

//---------------dance-single - ----------------
#NOTES:
     dance-single:
     :
     Hard:
     8:
     0.537,0.526,0.306,0.344,0.096:
0000
0000
0000
0000
,
0000
0000
0000
0000
,
1002
0000
0103
0001
1000
0000
0100
0000
,
2000
0000
0000
0010
0010
0000
3001
0000
,
0002
0000
0000
0100
0100
0000
0013
0000
,
0100
1000
0000
0001
0010
0000
1001
0000
,
0010
1000
0000
0001
0100
0000
0010
1000
,
0100
0010
0000
0001
0020
0000
0031
0000
,
0010
0100
0000
1000
0010
0000
1000
0001
,
0100
0010
0000
0010
1000
0000
0100
0010
,
0001
1000
0100
0010
0001
1000
0010
0100
,
0001
0000
0010
0000
0100
0000
1000
0000
0001
0000
1000
0001
1000
0000
0000
0000
,
0001
1000
1100
0100
1000
0001
0100
0010
,
1000
0100
0011
0001
1000
0100
0011
0000
,
0001
0100
0110
1000
0001
1000
0100
0010
,
0001
0010
0001
0010
0001
0000
0000
0000
0000
0000
0000
0000
2002
0000
0000
0000
,
3003
0000
0110
0000
0100
0100
0010
0000
,
1000
0100
0010
0001
1000
0000
0000
0000
0001
0100
0010
1000
0001
0000
0000
0000
,
2000
0001
0100
0001
,
0010
0001
3001
0110
,
0002
1000
0100
0010
,
0010
1000
0103
0011
,
1000
1000
0100
0010
0001
0000
0101
0000
,
0001
0001
0100
0010
1000
0000
1010
0000
,
2002
0000
0000
0003
,
3010
1000
0010
1000
0010
1000
1010
0000
,
0010
2000
0000
3001
1000
0100
0000
0010
,
0010
0002
0000
1003
0001
0100
0110
0000
,
0010
2000
0000
3010
0100
0001
0000
1000
,
0000
0100
0000
0010
0001
0000
1010
0000
,
1000
0002
0000
0103
0001
0010
0000
0100
,
0100
2000
0000
3010
0100
0010
1010
0000
,
1000
0002
0000
0103
0001
1000
0000
0010
,
0200
0000
0002
0300
2000
0003
3100
0000
,
1000
0000
0000
0001
0100
0000
0000
1000
0100
0000
0000
0001
0200
0000
0000
0000
,
0010
0010
0001
0310
,
1000
0100
0010
0100
2000
0000
0020
3000
,
0000
1030
0010
0100
0002
0000
0020
0003
,
0000
0031
1000
0100
0020
0000
0002
0030
,
0000
0103
0010
1000
0020
0000
2030
0000
,
0001
0001
3010
0000
,
1001
0000
0000
0000
0110
0000
0000
0000
1001
0000
0000
0001
1000
0000
0100
0000
,
1000
0100
0001
0100
1000
0100
0001
0100
,
1000
0010
0100
0001
0010
0100
1100
0000
,
0000
0010
0010
0010
0010
0000
1001
0000
,
0000
0100
0100
0100
0100
0000
1001
0000
,
0100
0020
0000
0130
0001
0010
0000
0100
,
1000
0010
0000
0100
0001
1000
1001
0000
,
0010
1000
0000
0100
0001
1000
0000
0100
,
0020
0000
0002
0030
2000
0003
3100
0000
,
1000
0100
0010
0001
0010
0100
1000
0000
,
1000
0100
0010
0001
0010
0001
0010
0000
0001
0000
0100
0000
0010
0000
0000
0000
,
1000
0010
0100
0001
0100
0010
1000
0000
,
0001
0100
0010
1000
0010
1000
0010
0000
1000
0000
0100
0000
0010
0000
0000
0000
,
0000
1100
0000
0011
1001
0000
0110
0000
,
0000
0011
0000
1100
1001
0000
0110
0000
,
2000
0000
0200
3000
0020
0300
0002
0030
,
1003
0000
0100
0000
1000
0000
0010
0000
0100
0000
0001
1000
0001
1000
0001
1000
;

//---------------dance-double - ----------------
#NOTES:
     dance-double:
     :
     Beginner:
     1:
     0.160,0.166,0.019,0.000,0.000:
00000000
00000000
00000000
00000000
,
00000000
00000000
00000000
00000000
,
00001000
00001000
00000000
00000000
,
00100000
00100000
00000000
00000000
,
00001000
00001000
00000000
00000000
,
00010000
00010000
00000000
00000000
,
00000100
00000000
00001000
00000000
,
00000010
00000010
00000000
00000000
,
00001000
00001000
00000000
00000000
,
00000001
00000000
00001000
00000000
,
00000100
00000100
00000000
00000000
,
00010000
00010000
00000000
00000000
,
00001000
00001000
00000000
00000000
,
01000000
00000000
01000000
00000000
,
00010000
00000000
00100000
00000000
,
00001000
00000000
00010000
00000000
,
00000100
00000000
00001000
00000000
,
00000010
00000010
00000010
00000000
,
00000010
00000000
00000000
00000000
,
00001000
00000000
00000100
00000000
,
00010000
00000000
00000000
00000000
,
00001000
00000000
00000000
00000000
,
01000000
00000000
01000000
00000000
,
00100000
00000000
00100000
00000000
,
10000000
00000000
10000000
00000000
,
01000000
00000000
01000000
00000000
,
00100000
00000000
00001000
00000000
,
00010000
00010000
00010000
00000000
,
00000100
00000000
00001000
00000000
,
00000001
00000001
00000001
00000000
,
00000100
00000000
00000010
00000000
,
00010000
00010000
00010000
00000000
,
00001000
00000000
00100000
00000000
,
00001000
00000000
00010000
00000000
,
00011000
00000000
00000000
00000000
,
00000000
00000000
00000000
00000000
,
01100000
00000000
00000000
00000000
,
00000000
00000000
00000000
00000000
,
01000000
00000000
00010000
00000000
,
00100000
00100000
00100000
00000000
,
00001000
00000000
00010000
00000000
,
00000100
00000100
00000100
00000000
,
00001000
00000000
00000001
00000000
,
00001000
00000000
00000100
00000100
,
00000100
00000000
00010000
00000000
,
00000010
00000010
00000010
00000000
,
00010000
00000000
00001000
00000000
,
01000000
01000000
01000000
00000000
,
00100000
00000000
10000000
00000000
,
00010000
00010000
00010000
00000000
,
01000000
00000000
00001000
00000000
,
00010000
00000000
00001000
00000000
,
00010000
00000000
00000010
00000000
,
00001000
00000000
00000001
00000000
,
00000100
00000000
00000010
00000000
,
00010000
00000000
00001000
00000000
,
00010000
00000000
00001000
00000000
,
00010000
00010000
00010000
00010000
;

//---------------dance-double - ----------------
#NOTES:
     dance-double:
     :
     Easy:
     4:
     0.235,0.248,0.057,0.057,0.000:
00000000
00000000
00000000
00000000
,
00000000
00000000
00000000
00000000
,
00010000
00100000
00000000
00000000
,
00010000
00000010
00000000
00000000
,
00001000
00000001
00000000
00000000
,
00001000
00000100
00010000
00000000
,
00000010
00010000
00001000
00000000
,
00100000
00010000
10000000
00000000
,
01000000
00100000
00010000
00000000
,
00001000
00000100
00000010
00000001
,
00001000
00000100
00001000
00000000
,
00000100
00010000
00001000
00100000
,
00010000
10000000
01000000
00000000
,
00100000
00001000
01000000
00010000
,
00100000
00000000
00001000
00000000
,
00010000
00010000
00000100
00000010
,
00000001
00001000
00000001
00000000
,
00001000
00001000
00000100
00010000
,
00002000
00000000
00003000
00000000
,
00100000
00010000
01000000
00010000
,
00100000
00000000
01000000
00000000
,
10000000
01000000
00010000
00001000
,
00000010
00000001
00000010
00000001
,
00001000
00000000
00000100
00000000
,
00010000
00001000
00010000
00001000
,
00100000
00000000
00010000
00000000
,
10010000
00000000
10000000
00010000
,
00100000
00000000
00100000
00001000
,
00011000
00000000
00010000
00000100
,
00001000
00000000
00000010
00000100
,
00000110
00000000
00000100
00000001
,
00001000
00000000
00000100
00010000
,
00011000
00000000
00001000
00100000
,
00010000
10000000
00010000
01000000
,
00002000
00000000
00003000
00000000
,
00200000
00000000
00000000
00000000
,
00001000
00001000
00301000
00000000
,
00020000
00000000
00030000
00000000
,
00000200
00000000
00000300
00000000
,
00002000
00000000
00003000
00000000
,
00000001
00000000
00000001
00000000
,
00001000
00000000
00000100
00000100
,
00000100
00010000
00001000
00010000
,
00001000
00100000
00001000
00000000
,
01000000
00100000
10000000
00010000
,
01000000
00001000
00010000
00000000
,
00011000
00000000
00000100
00001000
,
00000010
00000000
00000100
00000001
,
00001001
00000000
00001000
00000100
,
00010000
00001000
00100000
00010000
,
01000000
00000000
00100000
00000000
,
10000000
00000000
00010000
00000000
,
00100000
00100000
00001000
00000000
,
00010000
00010000
00000100
00000010
,
00000001
00000000
00001000
00000000
,
00000010
00000000
00010000
00000000
,
00001000
00001000
00001000
00010000
,
00001000
00001000
00001000
00010000
;

//---------------dance-double - ----------------
#NOTES:
     dance-double:
     :
     Medium:
     6:
     0.384,0.414,0.143,0.057,0.000:
00000000
00000000
00000000
00000000
,
00000000
00000000
00000000
00000000
,
00000010
00010000
00000010
00010000
,
00000010
00010000
00001000
00000000
00010000
00001000
00100000
00000000
,
00010000
00100000
01000000
10000000
00100000
00000000
10010000
00000000
,
00100000
00001000
00100000
00001000
00100000
00001000
00010000
00000000
,
00000100
00000010
00000001
00000100
,
00000010
00010000
00001000
00100000
00010000
01000000
00100000
00000000
,
10000000
00010000
10000000
00010000
10000000
00010000
00110000
00000000
,
00001000
00010000
00000100
00001000
,
00000010
00000000
00000100
00000000
00000001
00001000
00000100
00000000
,
00000010
00000000
00000010
00000000
00000100
00010000
00001000
00000000
,
00011000
00010000
00110000
00010000
,
10000000
00010000
10000000
01000000
,
00100000
00000000
00010000
00000000
00100000
00001000
00010000
00000000
,
00000010
00001000
00000100
00001000
00000010
00000000
00001010
00000000
,
00000010
00001000
00000100
00001000
,
00000100
00010000
00001000
01000000
,
01010000
02000000
00000000
03200000
,
00000000
10000000
10000000
10300000
,
02000000
00000000
00200000
03000000
,
00001000
00001000
00001000
00301000
,
00010000
00000000
00000100
00001000
,
00000100
00001000
00000100
00001000
,
00000010
00000100
00000010
00000100
,
00000001
00000001
00001000
00001010
,
00010000
00000000
00001000
00000000
00010000
00000100
00001000
00000000
,
00000100
00000000
00010000
00000000
00001000
00100000
00010000
00000000
,
00100000
00000000
00010000
00000000
10000000
01000000
00100000
00000000
,
00001000
00010000
00000010
00001000
,
00000010
00010000
00000010
00000000
00010000
00001000
00010000
00000000
,
00001000
00100000
00001000
00000000
01000000
00000000
00010000
00000000
,
00100000
00001000
00100000
00000000
00001000
00010000
00001000
00000000
,
00010000
00000100
00001000
00000010
00010000
00000000
00001000
00000000
,
00010000
00000100
00001000
00000010
,
00000100
00000010
00000100
00000001
,
00001000
00000100
00000010
00000000
00000001
00000100
00000010
00000000
,
00001000
00000100
00000010
00000000
00000100
00010000
00001000
00000000
,
00100000
00100000
00010000
01000000
,
00200000
00000000
20000000
30300000
,
01000000
00100000
01000000
01000000
,
00100000
10000000
10100000
00000000
,
00010000
00100000
00001000
00010000
,
00000100
00001000
00000100
00011000
,
00010000
00000100
00001000
00000010
,
00000100
00000001
00001001
00000110
,
00000010
00010000
00000010
00000000
00010000
00001000
00010000
00000000
,
00100000
00001000
00100000
00000000
01000000
00000000
00010000
00000000
,
00100000
00001000
00100000
00000000
00001000
00010000
00001000
00000000
,
00010000
00000100
00001000
00000001
,
00001001
00000000
00001001
00000000
00000010
00001000
00000100
00000000
,
00010000
00001000
00100000
00000000
00010000
00001000
00100000
00000000
,
10010000
00000000
10010000
00000000
00100000
01000000
00010000
00000000
,
00100000
00001000
00010000
00000000
00100000
00001000
00010000
00000000
,
00000010
00001000
00000001
00000100
,
00000001
00000100
00001000
00010000
,
00100000
10000000
00100000
01000000
,
00001000
00000000
00010000
00000000
00001000
00010000
00001000
00000000
;

//---------------dance-double - ----------------
#NOTES:
     dance-double:
     :
     Hard:
     8:
     0.527,0.554,0.660,0.134,0.033:
00000000
00000000
00000000
00000000
,
00000000
00000000
00000000
00000000
,
00000110
00001010
00001100
00011000
,
00200000
00000000
00000000
00001000
00001000
00000000
00310000
00000000
,
00000200
00000000
00000000
00010000
00010000
00000000
00001300
00000000
,
00000010
00010000
00000000
00001000
01000000
00000000
00011000
00000000
,
00100000
00001000
00000000
00010000
00000100
00000000
00001000
00000100
,
00000010
00000001
00000000
00001000
00000001
00000000
00000101
00000000
,
00001000
00000100
00000000
00100000
00010000
00000000
10010000
10000000
,
01100000
00100000
00000000
10000000
00010000
00000000
01000000
00001000
,
00010000
00001000
00000100
00000010
00000001
00000100
00000010
00001000
,
00000100
00100000
00001000
00010000
01000000
00000000
10010000
00000000
,
00100000
00001000
00011000
00010000
00000100
00001000
00000100
00000010
,
00000001
00000100
00000101
00000001
00000100
00001000
00000110
00000000
,
00001000
00010000
00011000
00100000
01000000
00010000
10000000
01000000
,
00110000
00110000
00110000
00000000
00000000
00000000
00011000
00000000
,
00000000
00000000
00001100
00000000
00001000
00000100
00000010
00000000
,
00000100
00010000
00000100
00010000
00000100
00000000
00000000
00000000
00010000
00001000
00010000
00001000
00010000
00000000
00000000
00000000
,
00011000
00110000
01000000
00010000
,
00011000
00001010
00001001
00000110
,
00001010
00011000
02000000
03100000
,
00110000
00011000
00000020
00000130
,
00000001
00001000
00000100
00001000
00000100
00000000
00011000
00000000
,
00010000
10000000
01000000
10000000
01000000
00000000
11000000
00000000
,
00220000
00000000
00000000
00000000
,
00000000
00330000
00000000
00011000
,
00100000
00001000
00000000
00010000
00000100
00001000
00000000
00000010
,
00000010
00010000
00000000
00001000
00100000
00010000
00011000
00000000
,
00100000
00001000
00000000
00010000
00001000
00000100
00000000
00000010
,
00000000
00010000
00000000
00001000
00010000
00000000
00110000
00000000
,
01000000
00010000
00000000
01000000
00001000
00010000
00000000
00001000
,
00001000
00100000
00000000
00000100
00001000
00000010
00001010
00000000
,
00010000
00001000
00000000
01000000
00100000
01000000
00000000
00001000
,
01001000
00110000
00011000
00001100
,
00002000
00000000
00000002
00003000
00000020
00000003
00000200
00000030
,
00002000
00000300
00000020
00003000
00020000
00000030
00031000
00000000
,
00100000
00010000
00100000
01000000
00100000
00000000
01000000
00000000
,
00100000
01000000
10000000
01000000
00100000
00000000
01100000
00000000
,
00100000
00010000
00001000
00000100
00000010
00000000
00000001
00000000
,
00000000
00001000
00000010
00000100
00000001
00000000
00001200
00000000
,
00010000
00010000
00010300
00000000
,
00011000
00110000
01100000
10010000
,
10000000
01000000
00010000
00001000
00000100
00000001
00000010
00000001
,
00000010
00000100
00001000
00000100
00010000
00001000
00011000
00000000
,
00000000
00100000
00100000
00100000
00100000
00000000
00011000
00000000
,
00000000
00000100
00000100
00000100
00000100
00000000
00011000
00000000
,
00100000
00010000
00000000
01000000
00001000
00010000
00000000
00000100
,
00001000
00000010
00000000
00010000
00001000
00100000
00101000
00000000
,
00100000
00001000
00000000
00010000
00001000
00000100
00000000
00000010
,
00001000
00010100
00011000
00110000
,
10000000
00010000
00100000
00010000
00100000
00001000
00010000
00000000
,
00011000
00011000
00010010
00000000
00001100
00001100
00001001
00000000
,
00001000
00000010
00010000
00001000
00010000
00001000
00100000
00000000
,
00011000
00011000
00101000
00000000
01010000
01010000
10010000
00000000
,
00000000
00100000
00000000
00001000
00010000
00000000
00000100
00000000
,
00000000
00001000
00000000
00000010
00010000
00000000
00011000
00000000
,
00110000
01010000
01100000
10010000
,
00100000
00000000
00001000
00000000
00010000
00000000
00000100
00000000
00010000
00000000
00001000
00010000
00001000
00010000
00001000
00010000
;

//---------------dance-single - Copied from----------------
#NOTES:
     dance-single:
     Copied from:
     Challenge:
     9:
     0.761,0.748,0.449,0.545,0.468: // measure 1
1001
0000
0000
1010
0000
0000
0201
0000
0000
0000
0000
0000
0301
0010
0100
1000
,  // measure 2
0200
0000
0000
0000
0020
0000
0300
0000
0032
0000
0000
2000
0003
0000
3001
0000
,  // measure 3
1002
0000
0103
0001
1000
0000
0100
0000
,  // measure 4
1001
0200
0000
0010
0310
0000
1001
0000
,  // measure 5
0001
0020
0000
0100
0130
0000
1100
1000
,  // measure 6
0001
0020
0000
0031
0010
0000
1001
0000
,  // measure 7
1000
0001
0000
0001
0100
0000
0110
0010
,  // measure 8
1000
0010
0000
1000
0010
0000
1010
0000
,  // measure 9
1000
0002
0000
1003
0010
0000
1001
0001
,  // measure 10
0100
0000
0020
0000
0000
0000
0130
0000
0001
0000
1000
0000
0100
0010
0001
0010
,  // measure 11
0100
0000
1000
0010
1000
0000
0001
0100
0001
0000
1000
0001
0010
0000
0100
1000
,  // measure 12
0001
0000
0010
0100
1000
0000
0100
0000
1000
0010
0100
0001
0010
0000
0000
0000
,  // measure 13
0001
0000
1000
0000
1100
0000
0100
1000
0001
0000
1000
0010
0100
0000
0001
1000
,  // measure 14
0010
0000
1000
0000
0101
0000
0001
1000
0010
0000
0100
0000
0110
0000
0000
0000
,  // measure 15
0001
0000
0100
0000
0110
0000
0010
1000
0001
0000
0100
0010
1000
0000
0001
0000
,  // measure 16
1000
0100
1000
0010
0100
0000
0001
0000
0101
0000
0000
0000
1001
0000
0010
0000
,  // measure 17
0100
0000
0010
0000
1010
0000
0100
0000
0001
0000
0100
0010
0100
0000
0000
0000
,  // measure 18
0001
0010
0100
1000
0001
0000
0000
0000
1000
0010
0100
0001
1000
0010
0100
0001
,  // measure 19
2000
0000
0001
0000
0100
0000
0002
3000
,  // measure 20
0100
0010
1003
0110
,  // measure 21
2002
0000
3000
1000
0000
0100
0000
0010
,  // measure 22
0000
0100
0000
2000
0000
3003
0011
0000
,  // measure 23
1000
0000
0001
0100
0001
0000
1000
0010
1000
0000
0001
0010
0100
0000
1000
0100
,  // measure 24
0010
0000
0001
1000
0001
0000
1000
0010
1000
0000
0000
0000
0110
0000
0000
0000
,  // measure 25
2001
0010
0100
0010
,  // measure 26
3001
0000
0100
0000
0010
0000
0001
0000
0010
0000
1000
0000
0001
1000
0001
0100
,  // measure 27
0010
2000
0000
3002
0000
0203
0000
0320
,  // measure 28
0000
2030
0000
3002
0000
0103
0110
0000
,  // measure 29
0001
2000
0000
3200
0000
0320
0000
0031
,  // measure 30
0000
1001
0000
0110
0000
0001
1010
0000
,  // measure 31
0100
0002
0000
0023
0000
0230
0000
2300
,  // measure 32
0000
3001
0000
1001
0000
1000
0101
0000
,  // measure 33
1000
1002
0000
0203
0000
2300
0000
3200
,  // measure 34
0000
0000
0302
0000
0000
0000
1003
0000
0100
0000
1001
0000
0001
0010
0100
1000
,  // measure 35
0100
0000
0010
0001
0100
0000
0010
1000
0100
0000
0010
0001
0100
0000
0010
1000
,  // measure 36
0100
0000
1000
0001
0100
0000
0001
1000
0001
0000
0100
0010
0100
0000
0001
1000
,  // measure 37
0020
0100
1000
0100
2030
0000
3002
0000
,  // measure 38
0000
0010
0100
0010
0203
0000
0320
0000
,  // measure 39
0000
0000
0100
0000
0001
0000
0100
0000
1030
0000
0100
0010
0100
0000
0010
1000
,  // measure 40
0010
0000
0100
0001
0100
0000
0001
1000
0010
0000
0100
0010
1000
0000
0100
0010
,  // measure 41
0001
0000
0010
0100
1000
0000
0100
0010
0100
0000
0010
0001
0010
0000
0001
1000
,  // measure 42
0100
0000
0000
0000
0110
0000
0000
0000
1001
0000
1000
0100
1000
0010
0100
0001
,  // measure 43
0010
0000
0100
1000
0001
0000
0100
0010
1000
0000
0100
0010
0001
0000
0102
0000
,  // measure 44
0000
0000
1003
0000
0100
0000
0001
0000
0010
0100
1000
0100
0020
0000
0000
0000
,  // measure 45
0000
0031
1001
1000
1020
0000
0230
0000
,  // measure 46
0000
0310
1010
1000
1002
0000
0103
0000
,  // measure 47
0100
1020
0000
0130
0001
0010
0000
0100
,  // measure 48
1000
0010
0001
0010
1000
0000
0100
0000
0010
0000
0001
0000
2002
0000
3003
0000
,  // measure 49
1000
0010
0102
0103
0001
1000
0010
0100
,  // measure 50
0001
0010
0100
1000
0100
0010
0001
0010
0100
1000
0100
0010
0001
0010
0100
1000
,  // measure 51
0010
0100
1000
0001
0010
0100
0001
0010
,  // measure 52
1000
0010
0001
0010
1000
0001
0100
1000
0010
0100
0001
1000
0010
0001
1000
0100
,  // measure 53
0010
1000
0001
0010
0100
0010
1000
0010
,  // measure 54
0001
0100
0001
1000
0010
0100
0001
0010
0100
0010
1000
0010
0001
0100
1000
0100
,  // measure 55
0001
2001
0000
3010
2010
0000
3020
0000
,  // measure 56
0130
0102
0000
0103
1001
0000
0110
0000
,  // measure 57
2100
0000
0200
3000
0020
0300
0002
0030
,  // measure 58
1003
0010
0100
0001
0010
0100
0010
0001
1000
0100
1000
0010
0100
0010
0100
0001
,  // measure 59
1000
0000
0000
0000
;
