#VERSION:0.81;
#TITLE:Seraphim;
#SUBTITLE:;
#ARTIST:Yooh;
#TITLETRANSLIT:;
#SUBTITLETRANSLIT:;
#ARTISTTRANSLIT:;
#GENRE:;
#ORIGIN:;
#CREDIT:;
#BANNER:;
#BACKGROUND:;
#PREVIEWVID:;
#JACKET:Seraphim-jacket.jpg;
#CDIMAGE:;
#DISCIMAGE:;
#LYRICSPATH:;
#CDTITLE:;
#MUSIC:Seraphim.mp3;
#OFFSET:0.000000;
#SAMPLESTART:22.159891;
#SAMPLELENGTH:12.000000;
#SELECTABLE:YES;
#BPMS:0.000=186.000;
#STOPS:;
#DELAYS:;
#WARPS:;
#TIMESIGNATURES:0.000=4=4;
#TICKCOUNTS:0.000=4;
#COMBOS:0.000=1;
#SPEEDS:0.000=1.000=0.000=0;
#SCROLLS:0.000=1.000;
#FAKES:;
#LABELS:0.000=Song Start;
#BGCHANGES:;
#KEYSOUNDS:;
#ATTACKS:
;

//---------------dance-single - ----------------
#NOTEDATA:;
#CHARTNAME:;
#STEPSTYPE:dance-single;
#DESCRIPTION:;
#CHARTSTYLE:;
#DIFFICULTY:Hard;
#METER:16;
#RADARVALUES:1.000000,1.000000,0.748659,0.158050,0.827684,740.000000,90.000000,19.000000,0.000000,0.000000,0.000000,0.000000,0.000000,1.000000,1.000000,0.748659,0.158050,0.827684,740.000000,90.000000,19.000000,0.000000,0.000000,0.000000,0.000000,0.000000;
#CREDIT:;
#NOTES:
0000
0000
1000
0001
,
1000
0100
0010
0100
,
1000
1000
0001
0000
,
0100
0001
0100
1000
,
0100
0000
0000
0000
0001
0000
1000
0100
1000
0000
0000
0000
0000
0000
0000
0000
,
0001
1000
0001
0010
,
0100
1000
0010
0000
,
1000
0000
0000
0001
0000
0000
0100
0000
0000
0010
1000
0001
,
1000
0000
0000
0000
0002
0000
0000
0000
2003
0000
0000
0000
3020
0000
0000
0030
,
0101
0010
0101
1000
0010
0100
0001
0100
,
1001
0010
1001
0100
0001
0010
0100
1000
,
1100
0100
0110
0001
1000
0010
0100
1000
,
1100
0100
0101
0001
0010
0001
1000
0100
,
1010
0100
1010
0001
0100
0010
1000
0010
,
1001
0100
1001
0010
1000
0100
0010
0001
,
0011
0010
0110
1000
0001
0100
0010
0001
,
0011
0010
1010
1000
0100
1000
0001
0010
,
0001
0000
0001
1000
0000
1000
0010
0000
0010
0100
0000
0100
,
0001
0000
0001
0010
0000
0010
1000
0000
1000
0001
0000
0001
,
0100
0000
0100
1000
0000
1000
0010
0000
0010
0100
0000
0100
,
0001
0000
0001
1000
0000
1000
0010
0000
0010
0100
0000
0100
,
0001
0000
0001
0010
0000
0010
0100
0000
0100
1000
0000
1000
,
0001
0010
0001
1000
0100
1000
0010
0100
0010
1000
0001
1000
,
0010
0000
0010
1000
0000
1000
0001
0000
0001
0100
0000
0100
,
1010
0000
0011
0000
0101
0000
1100
0000
1010
0000
0011
0000
,
1001
0000
0100
0010
0100
0000
0001
0000
1000
0010
1000
0000
0100
0000
0010
0001
,
0010
0000
0100
0000
1000
0001
1000
0000
0010
0000
0100
0010
0100
0000
0010
1000
,
0010
0000
0100
0001
0100
0000
0001
0000
1000
0001
1000
0000
0010
0000
0100
0001
,
0100
0000
0000
0010
1000
0000
0000
0001
0100
0000
0000
0001
0010
0000
0000
0000
,
0001
0000
0010
0100
1000
0000
0010
0000
0001
0010
0100
0000
0001
0000
0010
0100
,
1000
0000
0010
0000
0001
0010
0100
0000
0001
0000
0010
0100
1000
0000
0010
0100
,
1000
0000
0100
0010
0001
0000
1000
0000
0001
0010
0100
0000
0001
0000
0010
0100
,
1000
0000
0000
1000
0100
0000
0000
1000
0010
0000
0000
0100
0001
0000
0000
0000
,
1000
0001
0100
0010
0100
0000
0010
1000
0001
0100
0001
0000
1000
0001
0100
0001
,
1000
0000
0010
1000
0010
1000
0001
0000
0100
0010
0100
0001
1000
0010
0100
0010
,
1000
0000
0001
0100
0001
0000
0010
0000
0100
1000
0100
0000
1000
0000
0010
0100
,
0010
0000
0101
0000
0011
0000
1100
0000
1001
0000
1010
0000
,
0001
0000
1000
0010
1000
0000
0001
0000
1000
0010
0100
0000
0001
0000
1000
0000
,
0001
0100
0001
0100
0010
0000
1000
0000
0001
0100
0001
0100
0010
1000
0001
1000
,
0001
0000
1000
0010
1000
0000
0001
0000
0100
0001
0100
0000
0010
1000
0010
0000
,
1000
0000
0100
0000
0001
0000
1000
0000
0010
0000
0001
0000
0100
0000
1000
0000
0001
0000
0010
0000
1000
0000
0001
1000
,
0001
0100
0010
0100
0001
1000
0100
0010
,
0001
0010
0100
1000
0010
0010
1000
1000
,
1001
0000
0110
0000
1010
1000
0001
0010
,
0100
1000
0001
1000
0100
0100
0010
0010
,
0011
0000
1001
0000
1100
0100
0001
0100
,
1000
0010
0100
0001
0100
0100
0010
0010
,
2010
0001
0010
3001
,
1002
0100
1000
0103
,
1000
0010
0100
0010
1000
0001
0010
0100
,
1000
0100
0010
0001
0100
0100
0001
0001
,
1001
0000
0110
0000
0101
0001
1000
0100
,
0010
0001
1000
0001
0010
0010
0100
0100
,
1100
0000
1000
0001
0011
0000
0001
1000
,
1010
0000
0010
1000
0001
0100
0010
1000
,
0100
0010
0001
0010
1000
0010
0001
1000
,
2001
0000
3002
0000
0023
0000
0230
0000
2300
0000
3020
0000
,
0130
0000
0001
1000
0100
0000
0010
0000
0001
0010
0100
0000
1000
0000
0001
1000
,
0020
0100
0000
1000
0000
0130
0000
1000
,
0001
0000
1000
0001
0010
0000
0100
0000
1000
0100
0010
0000
0001
0000
1000
0001
,
0200
0000
0010
0000
0000
0000
0001
0000
0000
0000
0310
0000
0000
0000
1000
0001
,
1000
0000
0010
0100
0010
0000
0100
0001
0100
0000
0010
1000
0010
0000
0100
0001
,
0100
0000
0001
0010
0001
0000
1000
0100
1000
0000
0010
0100
0010
0000
0100
0001
,
1000
0001
0100
0010
1000
0100
0010
0100
1000
0001
0010
0100
0010
0001
1000
0001
,
0100
0010
0100
0010
0100
0010
1000
0001
,
1001
0000
0000
0000
0000
0100
0010
0000
0000
0101
0000
0000
0000
0000
0100
0010
0000
0000
0101
0000
0000
0000
0000
0000
,
1001
0000
0000
0000
0000
0010
0100
0000
0000
1010
0000
0000
0000
0000
0010
0100
0000
0000
1010
0000
0000
0000
0000
0000
,
1001
0000
0000
0000
0000
0001
0010
0000
0000
1100
0000
0000
0000
0000
0001
0010
0000
0000
1100
0000
0000
0000
0000
0000
,
1001
0000
0000
0000
0000
1000
0010
0000
0000
0101
0000
0000
0100
0000
0010
0000
0001
0000
0010
0000
1000
0000
0100
0000
,
1000
0001
0100
0010
1000
0001
0010
0100
,
1000
0010
1000
0001
0100
0001
0010
0100
1000
0100
0010
0001
1000
0100
1000
0001
,
0200
0320
2030
3002
,
0203
0000
0000
0320
0000
0000
1030
0010
0100
0001
0000
0000
,
1010
1000
1001
0001
0100
0110
0010
1000
,
1100
0100
0110
0010
0001
0011
0010
0100
,
1100
1000
1001
0001
0100
0101
0001
1000
,
1010
0010
0110
0100
0001
0011
0010
0100
,
1100
1000
0101
0001
0100
0110
0010
1000
,
1001
0001
0110
0100
0001
1001
1000
0100
,
0011
0001
1100
1000
0010
0110
0100
0001
,
1100
0100
0011
0001
1000
0101
1000
0001
,
1000
0000
1000
0001
0000
0001
0100
0000
0100
0010
0000
0010
,
1000
0000
1000
0100
0000
0100
0001
0000
0001
1000
0000
1000
,
0010
0000
0010
0001
0000
0001
0100
0000
0100
0010
0000
0010
,
1000
0001
1000
0001
0100
0010
0100
0001
1000
0100
0010
0001
,
0010
0000
0010
0100
0000
0100
1000
0000
1000
0001
0000
0001
,
1000
0100
1000
0010
0100
1000
0100
0001
0010
0100
0001
1000
,
0010
0001
0100
0010
0001
0010
1000
0001
1000
0100
0010
0100
,
1001
0000
1100
0000
0011
0000
0110
0000
0011
0000
1001
0000
,
0110
0000
1100
0000
0101
0000
1010
0000
1001
0000
0110
0000
,
0000
0000
0000
0000
0000
0000
0001
1000
0001
0000
0000
0000
0000
0000
0000
0000
;

//---------------dance-single - ----------------
#NOTEDATA:;
#CHARTNAME:;
#STEPSTYPE:dance-single;
#DESCRIPTION:;
#CHARTSTYLE:;
#DIFFICULTY:Medium;
#METER:13;
#RADARVALUES:0.685676,0.903381,0.707067,0.158050,0.103980,473.000000,85.000000,19.000000,0.000000,0.000000,0.000000,0.000000,0.000000,0.685676,0.903381,0.707067,0.158050,0.103980,473.000000,85.000000,19.000000,0.000000,0.000000,0.000000,0.000000,0.000000;
#CREDIT:;
#NOTES:
0000
0000
1000
0010
,
1000
0001
0100
0010
,
0100
0100
0010
0000
,
1000
0001
0100
0010
,
1000
0000
0100
0010
0001
0000
0000
0000
,
0001
0010
0100
0010
,
0001
1000
0100
0000
,
1000
0010
1000
0001
,
0000
2000
3002
0103
,
1001
0000
1001
0000
0000
1000
0001
0000
,
0101
0000
0101
0000
0000
0010
0100
0000
,
0110
0000
0110
0000
0000
1000
0010
0000
,
1010
0000
1010
0000
0000
0100
0001
0000
,
0011
0000
0011
0000
0000
0001
0100
0000
,
1001
0000
1001
0000
0000
0100
0010
0000
,
0110
0000
0110
0000
0000
1000
0001
0000
,
1010
0000
1010
0000
0000
0010
1000
0000
,
0001
1000
0001
0010
,
0100
0010
0001
1000
,
0010
0100
1000
0100
,
0010
1000
0001
1000
,
0001
0100
0010
1000
,
0001
0010
0100
1000
0100
0010
0001
1000
,
0001
1000
0001
1000
,
1000
0000
1000
0000
0001
0000
0001
0000
0100
0000
0100
0000
,
0010
0100
0010
0000
1000
0001
0100
0000
,
0001
0100
0001
0000
1000
0010
0100
0000
,
0001
0010
0100
0010
0001
1000
0010
1000
,
1010
1001
0110
0101
,
0001
0010
0001
0000
1000
0001
0010
0000
,
0100
1000
0100
0000
0010
0001
1000
0000
,
0001
0010
0001
0100
0010
0100
0001
1000
,
0101
1010
1100
1001
,
1000
0100
0010
0001
0010
0100
1000
0001
,
1000
0010
1000
0001
0100
0001
1000
0010
,
1000
0001
0100
0010
0100
0010
1000
0001
,
0100
0000
0100
0000
0010
0000
0010
0000
1000
0000
1000
0000
,
0001
1000
0001
0100
1000
0100
0001
0010
,
0100
0010
0001
1000
0100
1000
0010
0100
,
0010
1000
0001
1000
0010
0100
0001
1000
,
0002
0000
0000
0023
0000
0000
0230
0000
0000
1300
0001
1000
,
0001
0000
0101
0000
0101
0000
0010
1000
,
0000
0001
0000
1000
0010
1000
0001
1000
,
1001
0000
0101
0000
0110
0000
1000
0001
,
0000
0100
0000
0001
1000
0001
0010
0100
,
1100
0000
0110
0000
0011
0000
0001
1000
,
0000
0100
0000
0010
0001
0010
0100
1000
,
0020
1000
0100
1030
,
0200
0001
0010
0001
,
0310
0000
1010
0000
1010
0000
0100
0001
,
0000
1000
0000
0001
0100
0001
1000
0001
,
1001
0000
1010
0000
0110
0000
0001
1000
,
0000
0010
0000
1000
0001
1000
0100
0010
,
0011
0000
0001
0010
0200
0000
1300
0010
,
0200
0301
1000
0001
,
0010
0000
0100
1000
0100
0000
1000
0001
,
1000
0000
0100
0000
0010
0000
0001
0000
0010
0000
0100
0000
,
1000
0100
1000
0001
0100
0001
1000
0010
,
0200
0001
0000
0001
0000
0301
0000
1000
,
0010
1000
0001
0100
0001
1000
0100
1000
,
0002
0100
0000
0100
0000
0103
0000
1000
,
0001
1000
0001
0100
0010
0100
0001
0100
,
0001
0010
0001
1000
0001
1000
0100
1000
,
0010
0100
0010
0100
0001
1000
0010
1000
,
0100
0010
0100
1000
0001
0100
0001
1000
,
1001
0000
0010
0110
0000
0010
0110
0000
,
1001
0000
1000
1010
0000
1000
1010
0000
,
1001
0000
0001
0101
0000
0001
0101
0000
,
1001
0000
0100
0110
0020
0000
2030
0000
,
3001
0100
0001
1000
,
0001
1000
0001
1000
0010
0100
0010
1000
,
0002
0203
0320
2030
,
3002
0000
0000
0203
0000
0000
0301
1000
0001
1000
0000
0000
,
1001
0000
1001
0000
0000
0110
0000
0000
,
0101
0000
0101
0000
0000
1100
0000
0000
,
0011
0000
0011
0000
0000
1001
0000
0000
,
0110
0000
0110
0000
0000
1001
0000
0000
,
1100
0000
1100
0000
0000
0110
0000
0000
,
0011
0000
0011
0000
0000
1001
0000
0000
,
1100
0000
1100
0000
0000
0101
0000
0000
,
1001
0000
1001
0000
0000
0110
0000
0000
,
1000
0001
0100
0010
,
1000
0100
0010
0100
,
1000
0001
0100
0001
,
1000
0001
1000
0010
0100
0010
1000
0001
,
1000
0100
0010
0001
,
1000
0001
0100
0001
0100
0010
1000
0010
,
1000
0100
0010
0001
0010
0100
0010
0001
,
1001
0000
1001
0000
0110
0000
0110
0000
1010
0000
1010
0000
,
0101
0000
0101
0000
0011
0000
0011
0000
1001
0000
1001
0000
,
0000
0000
0000
0000
0000
0000
0010
0100
0010
0000
0000
0000
0000
0000
0000
0000
;

//---------------dance-single - ----------------
#NOTEDATA:;
#CHARTNAME:;
#STEPSTYPE:dance-single;
#DESCRIPTION:;
#CHARTSTYLE:;
#DIFFICULTY:Easy;
#METER:5;
#RADARVALUES:0.394531,0.451691,0.366011,0.241234,0.008318,259.000000,44.000000,29.000000,0.000000,0.000000,0.000000,0.000000,0.000000,0.394531,0.451691,0.366011,0.241234,0.008318,259.000000,44.000000,29.000000,0.000000,0.000000,0.000000,0.000000,0.000000;
#CREDIT:;
#NOTES:
0000
0000
1000
0000
,
0001
0000
1000
0000
,
0010
0000
0100
0000
,
1000
0000
0100
0000
,
1000
0000
0001
0000
,
1000
0000
0100
0000
,
0001
0000
0100
0000
,
1000
0000
0001
0000
,
1000
0000
0000
0000
,
1001
1001
0000
0000
,
0110
0110
0000
0000
,
1010
1010
0000
0000
,
0101
0101
0000
0000
,
1001
1001
0000
0000
,
0011
0011
0000
0000
,
0110
0110
0000
0000
,
1100
1100
0000
0000
,
0001
0000
1000
0000
,
0010
0000
1000
0000
,
0001
0000
0010
0000
,
0100
0000
1000
0000
,
0001
0000
0100
0000
,
0001
0000
1000
0000
,
0100
0000
0010
0000
,
0002
0000
2003
0000
,
3010
0001
1000
0001
,
1000
0010
0100
0001
,
1000
0001
0001
0001
,
0120
1000
0100
1030
,
0001
1000
0001
0010
,
0100
1000
0100
0010
,
0001
1000
1000
1000
,
0210
0001
0010
0301
,
1000
0010
0010
0100
,
0001
0001
0010
0100
,
0100
1000
0001
0001
,
0200
0000
0320
0000
,
1030
0100
1000
0100
,
1000
0100
0010
0001
,
0010
0001
1000
0001
,
2000
0000
3020
0000
,
0130
0000
0110
0000
0110
0000
0000
1000
,
0000
0001
0000
0000
0010
0000
0001
0000
,
1000
0000
1001
0000
1001
0000
0000
0100
,
0000
0001
0000
0000
1000
0000
0001
0000
,
1000
0000
0110
0000
0110
0000
0000
1000
,
0000
0001
0000
0000
1000
0000
0010
0000
,
0020
0000
0000
0030
,
0200
0010
0010
0010
,
0310
0000
1001
0000
1001
0000
0000
0001
,
0000
1000
0000
0000
0010
0000
0100
0000
,
0010
0000
0110
0000
0110
0000
0000
1000
,
0000
0001
0000
0000
1000
0000
0100
0000
,
0010
0000
0000
1000
0001
0000
0000
1000
,
0001
0000
0000
1000
0001
0000
0001
0000
,
0010
0000
0100
0000
,
2000
0000
3200
0000
,
0310
0010
0001
0001
,
0000
1000
0000
1000
0000
1000
0000
0000
,
0010
0100
0001
1000
,
0000
0010
0000
0010
0000
0010
0000
0000
,
0001
0001
1000
1000
,
0010
0010
0100
0100
,
0001
0001
1000
1000
,
0100
0100
0010
0010
,
0002
0000
0000
0203
0000
0000
0320
0000
,
2030
0000
0000
3002
0000
0000
2003
0000
,
3020
0000
0000
0230
0000
0000
0302
0000
,
2003
0000
0000
3200
0000
0000
0310
0000
,
0001
1000
0001
1000
,
0100
0010
0001
0010
,
0200
0000
2300
0000
,
3002
0000
0003
0000
,
1001
0000
1001
0000
0000
0010
0000
0000
,
0101
0000
0101
0000
0000
1000
0000
0000
,
0011
0000
0011
0000
0000
0001
0000
0000
,
1100
0000
1100
0000
0000
0010
0000
0000
,
0110
0000
0110
0000
0000
0001
0000
0000
,
1001
0000
1001
0000
0000
1000
0000
0000
,
0110
0000
0110
0000
0000
0100
0000
0000
,
1001
0000
1001
0000
0000
0001
0000
0000
,
1000
0000
0010
0000
,
0100
0000
0001
0000
,
0010
0000
0100
0000
,
1000
0000
0100
0000
,
0010
0000
0001
0000
,
1000
0000
0010
0000
,
1000
0000
0001
0000
,
2000
0000
3002
0000
,
0203
0000
0000
0000
0000
0000
0310
0000
0010
0000
0010
0000
,
0000
0000
0000
0100
0100
0000
0000
0000
;

//---------------dance-single - ----------------
#NOTEDATA:;
#CHARTNAME:;
#STEPSTYPE:dance-single;
#DESCRIPTION:;
#CHARTSTYLE:;
#DIFFICULTY:Beginner;
#METER:2;
#RADARVALUES:0.254306,0.301127,0.000000,0.099821,0.000000,202.000000,0.000000,12.000000,0.000000,0.000000,0.000000,0.000000,0.000000,0.254306,0.301127,0.000000,0.099821,0.000000,202.000000,0.000000,12.000000,0.000000,0.000000,0.000000,0.000000,0.000000;
#CREDIT:;
#NOTES:
// measure 0
0000
0000
0001
0000
,  // measure 1
1000
0000
0001
0000
,  // measure 2
0100
0000
0010
0000
,  // measure 3
0001
0000
0010
0000
,  // measure 4
0001
0000
1000
0000
,  // measure 5
0001
0000
0010
0000
,  // measure 6
1000
0000
0010
0000
,  // measure 7
0001
0000
1000
0000
,  // measure 8
0001
0000
0000
0000
,  // measure 9
1000
1000
0000
0000
,  // measure 10
0010
0010
0000
0000
,  // measure 11
0100
0100
0000
0000
,  // measure 12
0010
0010
0000
0000
,  // measure 13
1000
1000
0000
0000
,  // measure 14
0100
0100
0000
0000
,  // measure 15
0100
0100
0000
0000
,  // measure 16
0001
0001
0000
0000
,  // measure 17
1000
0000
0001
0000
,  // measure 18
0100
0000
0001
0000
,  // measure 19
1000
0000
0100
0000
,  // measure 20
0010
0000
0001
0000
,  // measure 21
1000
0000
0010
0000
,  // measure 22
1000
0000
0001
0000
,  // measure 23
0010
0000
0100
0000
,  // measure 24
1000
0000
0002
0000
,  // measure 25
1003
0000
0001
0000
,  // measure 26
0001
0000
0010
0000
,  // measure 27
0001
0000
1000
0000
,  // measure 28
0200
0001
0000
0301
,  // measure 29
0000
0001
1000
0000
,  // measure 30
0010
0000
0010
0000
,  // measure 31
1000
0000
0001
0000
,  // measure 32
0020
1000
0000
1030
,  // measure 33
0000
0100
0000
0010
,  // measure 34
0000
1000
0000
0010
,  // measure 35
0000
0001
0000
1000
,  // measure 36
0010
0000
2000
0000
,  // measure 37
3001
0000
0001
0000
,  // measure 38
0100
0000
0010
0000
,  // measure 39
1000
0000
0001
0000
,  // measure 40
0001
0000
2000
0000
,  // measure 41
3010
0000
0100
0000
0100
0000
0000
0001
,  // measure 42
0000
1000
0000
0000
0100
0000
0000
0000
,  // measure 43
0001
0000
1000
0000
1000
0000
0000
0010
,  // measure 44
0000
1000
0000
0000
0001
0000
0000
0000
,  // measure 45
0001
0000
0100
0000
0100
0000
0000
0001
,  // measure 46
0000
1000
0000
0000
0001
0000
0100
0000
,  // measure 47
0200
0000
0000
0300
,  // measure 48
0020
0000
0000
0000
,  // measure 49
0130
0000
1000
0000
1000
0000
0000
0001
,  // measure 50
0000
0001
0000
0000
0100
0000
0000
0000
,  // measure 51
0100
0000
0010
0000
0010
0000
0000
0001
,  // measure 52
0000
1000
0000
0000
0001
0000
0000
0000
,  // measure 53
0100
0000
1000
0000
,  // measure 54
0001
0000
1000
0000
,  // measure 55
0100
0000
0010
0000
,  // measure 56
0002
0000
1003
0000
,  // measure 57
0100
0000
1000
0000
,  // measure 58
0000
0001
0000
0001
0000
0001
0000
0000
,  // measure 59
0100
0000
1000
0000
,  // measure 60
0000
0100
0000
0100
0000
0100
0000
0000
,  // measure 61
1000
0000
0001
0000
,  // measure 62
0100
0000
0010
0000
,  // measure 63
1000
0000
0001
0000
,  // measure 64
0010
0000
0100
0000
,  // measure 65
0001
0000
0000
1000
0000
0000
0001
0000
,  // measure 66
0000
0000
0000
0100
0000
0000
0010
0000
,  // measure 67
0010
0000
0000
0100
0000
0000
0001
0000
,  // measure 68
0001
0000
0000
1000
0000
0000
0010
0000
,  // measure 69
0000
0001
0000
0001
,  // measure 70
0000
0100
0000
0100
,  // measure 71
0100
0000
0001
0000
,  // measure 72
1000
0000
0000
0000
,  // measure 73
0001
0000
0001
0000
0000
0100
0000
0000
,  // measure 74
1000
0000
1000
0000
0000
0001
0000
0000
,  // measure 75
0100
0000
0100
0000
0000
1000
0000
0000
,  // measure 76
0001
0000
0001
0000
0000
0100
0000
0000
,  // measure 77
0010
0000
0010
0000
0000
1000
0000
0000
,  // measure 78
0001
0000
0001
0000
0000
0001
0000
0000
,  // measure 79
0010
0000
0010
0000
0000
1000
0000
0000
,  // measure 80
0001
0000
0001
0000
0000
1000
0000
0000
,  // measure 81
0001
0000
0100
0000
,  // measure 82
0010
0000
1000
0000
,  // measure 83
0100
0000
0010
0000
,  // measure 84
0001
0000
0010
0000
,  // measure 85
0100
0000
1000
0000
,  // measure 86
0001
0000
0100
0000
,  // measure 87
0001
0000
1000
0000
,  // measure 88
0002
0003
2000
3000
,  // measure 89
0020
0030
0200
0300
,  // measure 90
0000
0000
0100
0000
;
