#TITLE:Sarutobi Champion is 拙者;
#SUBTITLE:;
#ARTIST:Project B;
#TITLETRANSLIT:Sarutobi Champion is sessha;
#SUBTITLETRANSLIT:;
#ARTISTTRANSLIT:;
#GENRE:;
#CREDIT:;
#BANNER:;
#BACKGROUND:;
#LYRICSPATH:;
#CDTITLE:;
#MUSIC:Sarutobi Champion is sessha.mp3;
#OFFSET:0.820000;
#SAMPLESTART:12.160006;
#SAMPLELENGTH:12.000000;
#SELECTABLE:YES;
#BPMS:0.000000=130.000000
,162.000000=195.000000
;
#STOPS:
;
#BGCHANGES:;
#KEYSOUNDS:;
#ATTACKS:;

//---------------dance-single - ----------------
#NOTES:
     dance-single:
     :
     Hard:
     16:
     0.923614,0.898281,0.223262,0.083723,1.000000,662.000000,24.000000,9.000000,0.000000,0.000000,0.000000,0.923614,0.898281,0.223262,0.083723,1.000000,662.000000,24.000000,9.000000,0.000000,0.000000,0.000000:
0000
0000
0000
0000
,
0100
0000
0001
1000
0001
0000
0010
0000
0100
0000
0010
0001
0010
0000
0100
0000
,
1000
0000
0010
0100
0010
0000
0100
0000
0001
0000
1000
0010
1000
0000
0000
0000
,
0001
0000
0010
0100
0010
0000
0100
0000
1000
0000
0010
1000
0010
0000
0100
0000
,
0001
0000
0010
0001
0010
0000
0100
0000
1000
0100
0010
0001
1000
0000
0000
0000
,
1001
0000
0000
0001
0000
0000
0100
0000
0010
0000
0000
1000
0000
0000
0001
0000
,
0010
0000
0000
0100
0000
0000
1000
0000
0001
0000
0000
0100
0000
0000
0010
0000
,
1000
0000
0000
0100
0000
0000
0010
0000
0001
0000
0000
0010
0000
0000
0001
0000
,
1000
0000
0000
0010
0000
0000
0100
0000
0001
0000
0000
0100
0000
0000
0010
0000
,
1000
0010
1000
0010
1000
0010
1000
0000
0001
0100
0001
0100
0001
0100
0001
0000
,
1000
0001
1000
0001
1000
0001
1000
0000
0010
0100
0010
0100
0010
0100
0010
0100
,
0010
0000
1000
0001
1000
0000
0100
0000
0010
0000
0001
0010
0001
0000
0100
0000
,
0010
0000
1000
0001
0000
0001
0100
0000
0110
0000
0000
0000
1001
0000
0000
0000
,
1000
0000
0001
0000
0010
0000
0100
0000
0010
0000
0001
0100
0001
0000
1000
0000
,
0000
0000
0001
0010
0001
0000
0010
0000
0100
1000
0100
1000
0010
0000
0100
0000
,
0001
0000
1000
0010
1000
0000
0001
0000
0100
0000
0010
0100
0010
0000
1000
0000
,
0001
1000
0001
1000
0010
0100
0010
0100
0001
0010
0001
0010
0100
0000
1000
0000
,
0000
0000
0010
0100
0010
0000
1000
0000
0001
0010
0100
1000
0100
0010
0001
0010
,
0100
0000
1000
0001
0100
0000
0010
0000
1000
0001
0010
0001
0010
0100
1000
0100
,
0010
0000
0001
0100
0010
0000
1000
0100
0010
0000
0001
1000
0010
1000
0010
0100
,
0001
0100
0001
0010
0100
1000
0100
0010
0001
1000
0001
1000
0100
0000
0000
0000
,
0010
0000
0001
0000
1000
0000
0100
0000
1000
0001
1000
0000
0010
0000
0000
0000
,
0100
0001
0100
0000
0001
0000
0010
0100
0010
0100
0010
0000
0001
0000
1000
0000
,
0010
1000
0010
0000
0100
0000
0001
0000
1000
0100
1000
0000
0001
0000
0100
1000
,
0100
0010
0100
1000
0100
0001
0010
0100
0010
0001
0010
0100
1000
0010
1000
0000
,
0001
1000
0001
0000
0100
0000
0010
0100
0010
0100
0001
1000
0001
1000
0100
0000
,
0010
0001
0010
0000
0100
0000
1000
0100
0010
0001
1000
0100
0010
0001
1000
0010
,
0100
0001
1000
0010
0100
0001
0010
0100
1000
0001
0010
0100
1000
0010
0100
0010
,
0100
0000
0001
0010
0001
1000
0010
1000
0100
0010
0100
1000
0001
0010
0001
1000
,
0010
1000
1000
1000
1000
1000
1000
1000
,
0001
0100
0001
0000
1000
0000
1000
0000
1000
0000
1002
0000
0203
0000
0310
0000
,
0110
0000
0010
1000
0010
0000
1000
0000
1000
0000
1000
0000
1000
0000
1000
0000
,
0001
0010
0100
1000
0001
0000
1000
0000
1000
0000
1200
0000
0320
0000
0031
0000
,
0101
0000
0000
0100
0001
0000
0000
0001
0010
0000
0000
0010
0100
0000
0000
0100
,
1000
0000
0000
1000
0001
0000
0000
0001
0100
0000
0000
0100
0010
0000
0000
0010
,
1000
0001
0100
0001
0010
0100
1000
0100
0010
0001
1000
0001
1000
0000
0100
1000
,
0000
0000
0000
0001
0000
0000
0100
0000
0000
0000
0000
0000
0010
0000
0000
0100
0000
0000
0000
0000
0000
0100
0000
0000
0010
0000
0000
0000
0000
0000
1000
0000
0000
0001
0000
0000
1000
0000
0000
0000
0000
0000
0010
0000
0100
0000
0010
0000
,
0100
0000
0010
1000
0001
0100
0001
0000
1000
0000
0001
0000
,
1000
0000
0100
0010
0001
1000
0010
0000
0100
0010
1000
0001
,
0100
0010
0100
0010
0100
0010
0100
0010
0100
0010
0100
0010
,
0100
0000
0000
0000
0010
0000
0000
0000
0100
0000
0000
0000
0010
0000
0000
0000
0100
0000
0000
0000
0010
0000
0000
0000
0100
0000
0000
0000
0000
0000
0001
0000
0000
0000
0000
0000
1000
0000
0000
0010
0000
0000
1000
0000
0000
0000
0000
0000
,
0001
0100
0001
0000
1000
0010
1000
0000
0001
0100
0001
0000
1000
0000
0010
0000
,
1000
0000
0010
0000
0100
0000
0001
1000
0010
0000
0100
0000
0000
0000
0010
0100
,
0001
0000
0010
0000
0100
1000
0100
1000
0010
0000
0100
0000
0001
0000
1000
0001
,
0010
0000
0100
0000
1000
0000
0100
0010
0001
0000
1000
0000
0001
0100
0010
0100
,
0001
1000
0100
0010
0100
1000
0001
0100
0010
0100
0001
1000
0100
0000
0010
0001
,
1000
0000
0010
0100
0001
0000
1000
0001
0010
0000
0100
1000
0001
0000
1000
0001
,
0010
0000
0100
1000
0001
0000
1000
0001
0010
0000
0100
1000
0001
0000
1000
0010
,
0100
0000
0001
0010
0100
0000
1000
0001
0010
0000
0100
1000
0010
0000
0100
0001
,
1000
0000
0001
0100
0010
0000
1000
0001
0100
0000
0010
0000
0100
0000
0001
1000
,
0010
0000
0100
0000
0001
1000
0001
1000
0010
0100
0010
0100
0001
0000
1000
0010
,
0100
0000
0001
0000
1000
0001
1000
0000
0010
0100
0001
0000
1000
0010
1000
0000
,
0001
0010
0100
0000
1000
0100
0010
0000
0001
0010
0100
0000
1000
0001
1000
0001
,
0100
0010
1000
0001
0010
0100
1000
0010
0100
0000
0000
0000
1001
0000
0001
0010
,
0100
0010
0001
1000
0010
1000
0001
0100
0001
0010
0100
1000
0010
0100
0001
0000
,
1000
0100
1000
0000
0010
0100
0010
1000
0001
0010
0001
0000
1001
0000
0000
0010
,
0000
0000
0101
0000
0000
1000
0000
0000
0110
0000
0000
0001
0000
0000
1010
0000
,
0000
0100
0000
0000
1001
0000
0000
0010
0000
0000
0110
0000
1001
0000
0000
0000
,
0100
0001
0100
0000
0002
0000
0000
0000
1003
0010
1000
0000
0200
0000
0000
0000
,
0310
0001
0010
0000
0200
0000
0000
0000
1300
0010
0100
0000
0001
0000
0010
0100
,
1000
0000
0001
0010
0100
0000
0010
0100
1000
0000
0001
0000
0010
0000
0010
0000
,
0100
0000
0100
0000
1000
0001
0100
0010
0100
0001
0010
0000
0011
0000
0000
0011
,
0000
0000
1100
0000
0000
1100
0000
0000
0110
0000
0000
0110
0000
0000
1001
0000
,
0000
0110
0000
0000
2002
0000
0000
0000
0000
0000
0000
0000
0000
0000
0000
0000
,
0000
0000
0000
3003
0000
0000
0000
0000
;

//---------------dance-single - ----------------
#NOTES:
     dance-single:
     :
     Challenge:
     18:
     1.000000,0.928224,0.353498,0.074421,1.000000,737.000000,38.000000,8.000000,0.000000,0.000000,0.000000,1.000000,0.928224,0.353498,0.074421,1.000000,737.000000,38.000000,8.000000,0.000000,0.000000,0.000000:
0000
0000
0000
0000
,
1000
0000
0010
0100
0010
0000
0100
0000
0001
0000
1000
0100
1000
0000
0010
0000
,
0100
0000
0001
0100
0001
0000
1000
0000
0010
0000
0100
0001
0100
0000
0000
0000
,
0010
0000
1000
0001
1000
0000
0100
0000
0010
0000
0001
1000
0001
0000
0100
0000
,
0010
0000
1000
0001
1000
0000
0010
0000
0100
0001
1000
0001
0100
0000
0000
0000
,
1001
0000
1000
0010
0000
1000
0010
0000
0100
0000
0001
0100
0000
0001
0100
0000
,
0010
0000
1000
0001
0000
1000
0001
0000
0100
0000
0010
0100
0000
0010
0100
0000
,
0001
0000
0010
0100
0000
1000
0001
0000
0100
0000
0010
1000
0000
0001
0100
0000
,
0010
0000
1000
0100
0000
0010
0001
0000
0100
0000
0010
1000
0000
0001
1000
0000
,
0001
0100
0001
0100
0010
1000
0010
1000
0001
0010
0001
0010
0100
1000
0100
1000
,
0001
0000
0000
0010
0000
0000
0001
0000
0000
0010
0000
0000
0100
0000
0000
1000
0000
0000
0100
0000
0000
1000
0000
0000
0001
0000
0000
0100
0000
0000
0001
0000
0000
0100
0000
0000
0001
0000
0010
0000
0100
0000
1000
0000
0100
0000
0010
0000
,
0001
0000
0000
1000
0010
0100
0001
0000
0000
0100
0000
0000
0010
0000
0000
1000
0001
0100
0001
0000
0000
0100
0000
0000
,
0010
0000
0000
1000
0010
0100
0001
0010
0100
1000
0001
0100
0010
0000
0000
0000
0000
0000
0110
0000
0000
0000
0000
0000
,
1000
0000
0010
0000
0100
0000
0001
0000
0100
0000
0001
1000
0001
0000
0010
0000
,
0000
0000
0100
1000
0100
0000
1000
0000
0010
0100
0001
0100
0010
0000
1000
0000
,
0010
0000
0100
0001
0100
0000
0010
0000
1000
0000
0010
0100
0001
0000
0010
0000
,
0100
0000
0000
1000
0000
0000
0010
0000
0000
1000
0000
0000
0001
0000
0000
0100
0000
0000
0001
0000
0000
0100
0000
0000
0010
0000
1000
0000
0010
0000
1000
0000
0000
0001
0000
0000
1000
0000
0000
0000
0000
0000
0010
0000
0000
0000
0000
0000
,
0000
0000
0100
0001
1000
0000
0010
0000
0100
0010
0001
1000
0100
0010
0100
0001
,
1000
0000
0010
0100
0010
0000
1000
0000
0001
1000
0010
0100
0010
1000
0100
0010
,
0001
0000
0000
0100
0010
1000
0001
0000
0000
1000
0010
0100
0001
0000
0000
0010
0100
1000
0001
0010
0001
1000
0010
0100
,
0001
1000
0010
0100
0010
1000
0100
0001
0100
1000
0010
0001
0020
0000
0000
0000
,
1030
0000
0001
0000
0100
0000
0010
0000
1000
0001
1000
0000
1020
0000
0000
0000
,
0130
0001
0100
0000
0001
0000
0010
0100
1000
0100
0010
0000
0001
0000
0100
0000
,
1000
0100
1000
0000
0100
0000
0001
0000
0010
0001
0010
0000
0100
0000
1000
0100
,
1000
0000
0001
0000
0100
0000
0001
0000
0000
0010
0000
0000
0100
0000
0000
1000
0000
0000
0100
0000
0010
0000
0100
0000
0010
0000
0000
0001
0000
0000
1000
0000
0000
0001
0000
0000
0100
0000
0000
0010
0000
0000
0100
0000
0000
0000
0000
0000
,
0001
1000
0100
0000
0010
0000
0001
1000
0010
0100
0010
0001
0010
0100
1000
0000
,
0100
0001
1000
0000
0010
0000
0100
1000
0100
0001
0010
1000
0010
0001
0100
1000
,
0100
0010
0001
1000
0100
0010
1000
0100
0010
1000
0010
0001
0100
0010
0001
0010
,
1000
0000
0000
0001
0000
0000
1000
0000
0010
0000
1000
0000
0001
0000
0100
0000
0001
0000
0010
0000
0100
0000
0010
0000
0100
0000
1000
0000
0100
0000
1000
0000
0001
0000
0100
0000
0001
0000
1000
0000
0010
0000
1000
0000
0001
0000
0100
0000
,
0001
0100
0100
0100
0100
0100
0100
0100
,
0100
0010
0100
0000
0100
0000
0100
0000
0100
0000
0101
0000
0110
0000
1100
0000
,
0110
0000
0100
0001
0100
0000
0100
0000
0100
0000
0100
0000
0100
0000
0100
0000
,
0010
1000
0001
0100
0001
1000
0010
0000
0000
0100
0000
0000
0100
0000
0000
1100
0000
0000
0110
0000
0000
0101
0000
0000
,
0110
0000
0000
0010
1000
0000
0000
0001
0010
0000
0000
0100
1000
0000
0000
0100
,
0010
0000
0000
0001
1000
0000
0000
0010
0100
0000
0000
0001
1000
0000
0000
0010
,
0100
0001
1000
0010
1000
0100
0010
0100
1000
0010
0100
0001
0010
0000
0100
1000
,
0000
0000
0000
0010
0000
0000
1000
0000
0000
0000
0000
0000
0001
0000
0010
0000
0100
0000
1000
0000
0010
0000
0100
0000
0001
0000
0000
0010
0000
0000
0100
0000
0000
1000
0000
0000
0001
0000
0000
0000
0000
0000
1000
0000
0010
0000
0100
0000
,
0001
0000
0001
0100
0010
1000
0010
0000
0100
0000
0001
0000
,
1000
0000
0100
0010
0001
0010
0100
0000
1000
0010
1000
0010
,
0100
0001
0001
1000
1000
0010
0010
0100
0100
0010
0010
1000
,
1000
0000
0000
0000
0001
0000
0000
0000
0001
0000
0000
0000
0100
0000
0000
0000
0100
0000
0000
0000
0010
0000
0000
0000
0010
0000
0000
0000
0000
0000
1000
0000
0000
0000
0000
0000
0001
0000
0000
0010
0000
0000
0100
0000
0000
1000
0000
0000
,
0001
0010
0100
1000
0001
0010
0100
1000
0001
0010
0100
1000
0001
0000
0100
0000
,
0010
0000
0100
0000
0001
0000
1000
0010
0100
0000
0001
0000
1000
0000
0010
0100
,
0001
0000
0010
0000
0100
1000
0001
1000
0001
0000
0100
0000
0010
0000
1000
0100
,
0010
0000
0001
0000
1000
0000
0100
0010
0100
0000
0010
0000
0001
1000
0001
0100
,
0010
1000
0100
0010
0100
1000
0001
0010
0100
1000
0001
0100
0001
0000
0100
0010
,
1000
0000
0010
0100
0001
1000
0010
1000
0010
0100
0001
0100
0001
0010
0100
0010
,
0100
1000
0100
1000
0001
1000
0001
0100
0010
0100
0010
1000
0001
0000
1000
0010
,
0100
0000
0001
0010
0100
0000
1000
0010
0100
0000
0001
0010
0001
1000
0100
1000
,
0010
0100
0010
0100
0001
1000
0010
1000
0001
0100
0010
0000
1001
0000
0010
1000
,
0001
0000
0100
0000
0010
1000
0010
1000
0001
0010
0100
0010
0001
0000
1000
0001
,
0010
0000
0100
0000
1000
0100
0010
0100
1000
0010
0100
0001
0100
0010
1000
0001
,
0010
0100
1000
0010
0100
1000
0100
0001
0010
0100
0010
0001
1000
0010
1000
0001
,
0100
0001
0010
0100
1000
0001
1000
0010
0100
0000
0000
0000
0110
0000
0010
1000
,
0001
1000
0010
0100
0001
0010
0001
1000
0100
1000
0010
0100
0001
0100
0010
0000
,
0010
1000
0001
0000
0001
0010
0100
1000
0010
0100
0001
0000
1001
0000
0000
1010
,
0000
0000
0101
0000
0000
1010
0000
0000
0110
0000
0000
1100
0000
0000
0110
0000
,
0000
0011
0000
0000
1100
0000
0000
0110
0000
0000
0101
0000
1002
0000
0000
0000
,
0103
0010
1000
0001
0020
0000
0000
0000
0130
1000
0001
1000
0200
0000
0000
0000
,
1300
0001
0100
0010
2000
0000
0000
0000
3001
0010
0100
0010
0001
0000
1000
0010
,
0100
0000
0001
0010
0100
0000
1000
0010
0100
0000
0001
0000
1001
0000
0110
0000
,
1001
0000
0110
0000
0010
1000
0001
0100
0001
1000
0100
0000
0110
0000
0000
0011
,
0000
0000
1100
0000
0000
1001
0000
0000
0110
0000
0000
0101
0000
0000
0011
0000
,
0000
0110
0000
0000
2200
0000
0000
0000
0000
0000
0000
0000
0000
0000
0000
0000
,
0000
0000
0000
3300
0000
0000
0000
0000
;

//---------------dance-single - ----------------
#NOTES:
     dance-single:
     :
     Medium:
     13:
     0.657826,0.628797,0.037210,0.102328,0.320939,480.000000,4.000000,11.000000,0.000000,0.000000,0.000000,0.657826,0.628797,0.037210,0.102328,0.320939,480.000000,4.000000,11.000000,0.000000,0.000000,0.000000:
0000
0000
0000
0000
,
1000
0100
0100
0010
0001
1000
1000
0001
,
0100
0010
0010
0100
0001
1000
1000
0000
,
0001
0100
0100
0010
1000
0001
0001
0010
,
0100
0000
1000
0000
1000
0000
0001
0000
1000
0000
0010
0100
0010
0000
0000
0000
,
1001
0000
0000
0001
0000
0000
0001
0000
1000
0000
0000
1000
0000
0000
1000
0000
,
0010
0000
0000
0010
0000
0000
0010
0000
0100
0000
0000
0100
0000
0000
0100
0000
,
0001
0000
0000
0001
0000
0000
0001
0000
0010
0000
0000
0010
0000
0000
0010
0000
,
0100
0000
0000
0100
0000
0000
0100
0000
1000
0000
0000
1000
0000
0000
1000
0000
,
0001
0010
0100
1000
0001
0010
0100
1000
,
0010
0100
0001
1000
0010
0100
0001
1000
,
0010
0000
1000
0001
1000
0000
0100
0000
0010
0000
0001
0010
0001
0000
0100
0000
,
0010
0000
1000
0001
0000
1000
0001
0000
0100
0000
0000
0000
0101
0000
0000
0000
,
0100
0001
0010
0100
1000
0001
0001
1000
,
0000
0010
0010
1000
0100
0100
0010
0001
,
1000
0010
0010
0100
0001
1000
1000
0001
,
0010
0100
0010
0001
1000
0010
0100
0010
,
0000
1000
0001
1000
0001
0010
0100
1000
,
0010
0100
0001
0010
0100
0010
0001
1000
,
0010
0000
0000
1000
0010
0000
0000
0001
0100
0000
0000
0010
1000
0000
0001
0000
,
0010
0000
0001
0000
1000
0000
0100
0000
1000
0000
0010
0100
0010
0000
0000
0000
,
1000
0000
0001
0000
0010
0000
0100
0000
1000
0100
1000
0000
0100
0000
0000
0000
,
0010
0010
0001
0010
0100
1000
0010
0100
,
0001
1000
0001
0000
0010
0000
0100
0000
1000
0001
1000
0000
0001
0000
1000
0000
,
0010
0000
0100
0000
0001
0000
0010
0000
0100
0000
0010
0000
0001
0100
0001
0000
,
1000
0010
1000
0000
0100
0000
0010
0000
0001
0000
1000
0000
0100
0000
0010
0000
,
0001
1000
0001
0000
0100
0000
0010
0000
1000
0000
0001
0000
0100
0000
0001
0000
,
0010
0000
0001
0000
1000
0000
0100
0000
1000
0000
0010
0000
0100
0010
0100
0010
,
0100
0001
1000
0100
1000
0010
0100
0010
,
0100
0001
0001
1000
1000
0010
0010
0100
,
0001
1000
0001
0000
1000
0000
1000
0000
0010
0000
0020
0000
2030
0000
3002
0000
,
0103
0000
0010
1000
0010
0000
0100
0000
0100
0000
0001
0000
0001
0000
0010
0000
,
0100
1000
0100
1000
0100
0000
0010
0000
0001
0000
0002
0000
0203
0000
0302
0000
,
1003
0000
0000
1000
0010
0000
0000
0010
0100
0000
0000
0100
0001
0000
0000
0001
,
0010
0000
0000
0010
0100
0000
0000
0100
1000
0000
0000
1000
0010
0000
0000
0010
,
0100
0000
0001
0000
0100
0000
0010
0000
1000
0000
0001
0000
1000
0000
0010
0100
,
0000
0010
0100
0000
0001
1000
0000
0001
1000
0000
0010
0000
0010
0000
0100
0010
,
0100
0000
0010
0000
1000
0000
0001
0000
0100
0000
0010
0000
,
1000
0000
0100
0000
0010
0000
0001
0000
0010
0000
0100
0000
,
1000
0000
0010
0000
1000
0000
0001
0000
0100
0000
0001
0000
,
0100
0000
0000
0000
0010
0000
0000
0000
1000
0000
0000
0000
0010
0000
0000
0100
0000
0000
0010
0000
0000
0100
0000
0000
,
0010
0100
0010
1000
0001
1000
0001
1000
,
0001
0010
0100
1000
0001
0010
0000
0100
,
1000
0010
0100
0010
1000
0001
0100
0001
,
0010
0001
1000
0010
1000
0010
0100
0001
,
0100
0010
1000
0001
0010
0001
1000
0000
,
0001
0100
0001
1000
0010
0100
0001
1000
,
0010
0000
0100
0000
0001
0000
1000
0000
0010
0000
0100
0000
0001
0000
0000
1000
,
0010
0000
0000
0010
0100
0000
0000
0100
0001
0000
0000
0001
0010
0000
0100
0000
,
1000
0001
0010
0100
1000
0010
0100
0010
,
1000
0001
1000
0001
0010
0001
1000
0010
,
0100
0001
0010
0100
0010
0100
1000
0001
,
1000
0001
0100
0010
0100
0001
1000
0100
,
1000
0010
0100
0010
0100
0000
0001
0010
,
0100
0010
0001
1000
0100
0010
0001
0001
,
1000
0000
1000
0000
0010
0000
0010
0000
0100
0000
0100
0000
0001
0000
0000
0001
,
0000
0000
0001
0000
0000
1000
0000
0000
1000
0000
0000
1000
0000
0000
0010
0000
,
0000
0010
0000
0000
0010
0000
0000
0100
0000
0000
0100
0000
0110
0000
0000
0000
,
0010
1000
0200
0000
0310
0001
2000
0000
,
3010
0100
0002
0000
1003
0100
0010
0001
,
0010
0100
1000
0010
1000
0001
0100
0001
,
0100
0000
0010
0000
1000
0000
0100
0000
1000
0000
0010
0000
0100
0000
0000
0010
,
0000
0000
1000
0000
0000
0001
0000
0000
0010
0000
0000
0100
0000
0000
1000
0000
,
0000
0010
0000
0000
2002
0000
0000
0000
0000
0000
0000
0000
0000
0000
0000
0000
,
0000
0000
0000
3003
0000
0000
0000
0000
;

//---------------dance-single - ----------------
#NOTES:
     dance-single:
     :
     Easy:
     5:
     0.341538,0.389255,0.046513,0.139539,0.027908,237.000000,5.000000,15.000000,0.000000,0.000000,0.000000,0.341538,0.389255,0.046513,0.139539,0.027908,237.000000,5.000000,15.000000,0.000000,0.000000,0.000000:
0000
0000
0000
0000
,
1000
0001
0100
0010
,
1000
0100
0010
0001
,
0010
0100
1000
0010
,
0100
0010
1000
0001
,
1001
0000
0000
0001
1000
0000
0000
1000
,
0010
0000
0000
0010
0100
0000
0000
0100
,
0001
0000
0000
0001
0010
0000
0000
0010
,
0100
0000
0000
0100
1000
0000
0000
1000
,
0001
0010
0100
1000
,
0010
0100
0010
1000
,
0100
0010
0100
1000
,
0020
0000
0130
1001
,
0000
0001
1000
0001
,
0000
1000
0010
1000
,
0001
0010
0001
0010
,
0100
1000
0010
0100
,
0000
0010
0010
1000
,
0001
1000
0100
0010
,
0001
0001
0010
0100
,
1000
0010
0100
0001
,
0100
0010
1000
1000
,
0010
0001
0100
0010
,
1000
0010
0100
0001
,
0010
0001
0100
0001
,
1000
0100
0010
0001
,
0010
0001
1000
0100
,
0010
0100
1000
0010
,
0100
0010
1000
0100
,
0010
0001
0010
0001
,
1000
0000
0010
0000
1000
0001
0001
0001
,
1000
0010
0100
0001
,
0100
0000
0010
0000
0100
0010
0010
0010
,
1000
0002
0023
0230
,
2300
3002
0203
0320
,
0130
0100
0010
0010
,
0000
1000
0001
1000
,
0010
0000
0000
0000
0000
0000
0100
0000
0000
0000
0010
0000
,
0000
0000
0100
0000
0000
0000
0001
0000
0000
0000
1000
0000
,
0000
0000
0100
0000
0000
0000
1000
0000
0000
0000
0001
0000
,
0000
0000
0010
0000
0000
0000
0002
0000
0000
1000
0000
0000
,
1000
1000
1000
1003
,
0001
0100
0001
0000
,
1000
0100
1000
0000
,
0010
1000
0001
0100
,
0001
0100
0010
1000
,
0001
0010
0100
1000
,
0010
0100
0010
1000
,
0001
0010
0001
0010
,
0100
1000
0001
1001
,
1000
0010
0010
1000
,
0001
0100
0100
0010
,
1000
1000
0001
0010
,
0100
1000
0002
0103
,
0010
1000
0010
0100
,
0001
0010
0100
1000
,
0000
1000
0000
0010
,
0000
0010
0000
0110
,
0100
0002
0103
2000
,
3100
0002
1003
0001
,
0001
1000
1000
0100
,
0100
0010
0010
0001
,
0000
0010
0000
0000
0100
0000
0000
1000
,
0000
2002
0000
0000
,
0000
0000
0000
3003
0000
0000
0000
0000
;

//---------------dance-single - ----------------
#NOTES:
     dance-single:
     :
     Beginner:
     3:
     0.192696,0.299427,0.018605,0.111631,0.013954,131.000000,2.000000,12.000000,0.000000,0.000000,0.000000,0.192696,0.299427,0.018605,0.111631,0.013954,131.000000,2.000000,12.000000,0.000000,0.000000,0.000000:
// measure 0
0000
0000
0000
0000
,  // measure 1
0001
0000
0010
0000
,  // measure 2
0001
0000
0100
0000
,  // measure 3
0100
0000
0001
0000
,  // measure 4
0010
0000
0001
0000
,  // measure 5
1001
0000
0001
0000
,  // measure 6
0100
0000
0010
0000
,  // measure 7
1000
0000
0100
0000
,  // measure 8
0010
0000
0001
0000
,  // measure 9
1000
0000
0010
0000
,  // measure 10
0100
0000
0100
0000
,  // measure 11
0010
0000
0010
0000
,  // measure 12
0200
0000
0300
1001
,  // measure 13
0000
1000
0000
1000
,  // measure 14
0000
0001
0000
0001
,  // measure 15
0000
0100
0000
0100
,  // measure 16
0000
0001
0000
0010
,  // measure 17
0000
0100
0000
0001
,  // measure 18
0000
0001
0000
0100
,  // measure 19
0000
1000
0000
0010
,  // measure 20
0000
0100
0000
1000
,  // measure 21
0000
0100
0000
0001
,  // measure 22
0000
1000
0000
0100
,  // measure 23
0000
0100
0000
1000
,  // measure 24
0000
1000
0000
1000
,  // measure 25
0000
0010
0000
1000
,  // measure 26
0000
1000
0000
0010
,  // measure 27
0000
0010
0000
0100
,  // measure 28
0000
0100
0000
0010
,  // measure 29
0000
1000
0000
1000
,  // measure 30
0000
0000
0100
0000
1000
1000
1000
1000
,  // measure 31
1000
0100
0000
1000
,  // measure 32
0000
0000
0001
0000
0100
0100
0100
0100
,  // measure 33
0100
2000
3000
0002
,  // measure 34
0003
2000
3000
0020
,  // measure 35
0130
0000
0100
0000
,  // measure 36
0000
0001
0000
0001
,  // measure 37
0100
0000
0010
0000
,  // measure 38
0000
0000
0010
0000
0000
0000
0000
0000
0000
0000
0001
0000
,  // measure 39
0000
0000
0001
0000
,  // measure 40
0000
0000
0100
0000
0000
0000
2000
0000
0000
0000
0000
0000
,  // measure 41
0000
0000
0000
3001
,  // measure 42
0000
0001
0000
0000
,  // measure 43
0100
0000
0001
0000
,  // measure 44
0100
0000
1000
0000
,  // measure 45
1000
0000
0100
0000
,  // measure 46
1000
0000
0010
0000
,  // measure 47
0100
0000
0100
0000
,  // measure 48
1000
0000
1000
0000
,  // measure 49
0010
0000
1000
0000
,  // measure 50
0001
0000
0100
0000
,  // measure 51
1000
0000
0010
0000
,  // measure 52
0001
0000
1000
0000
,  // measure 53
0010
0000
1000
0000
,  // measure 54
0100
0000
0100
0000
,  // measure 55
1000
0000
0010
0000
,  // measure 56
0000
0001
0000
0100
,  // measure 57
0000
0100
0000
0020
,  // measure 58
0030
2000
3000
0002
,  // measure 59
0003
2000
3000
0001
,  // measure 60
0000
0001
0000
0010
,  // measure 61
0000
0200
0000
1300
,  // measure 62
0000
0100
0000
0000
0010
0000
0000
0001
,  // measure 63
0000
2000
0000
0000
,  // measure 64
0000
0000
0000
3000
0000
0000
0000
0000
;
