#TITLE:Sapphire;
#SUBTITLE:;
#ARTIST:kors k;
#TITLETRANSLIT:;
#SUBTITLETRANSLIT:;
#ARTISTTRANSLIT:;
#GENRE:;
#CREDIT:;
#BANNER:Sapphire-bn.png;
#BACKGROUND:Sapphire-bg.png;
#LYRICSPATH:;
#CDTITLE:;
#MUSIC:Sapphire.mp3;
#OFFSET:-0.500000;
#SAMPLESTART:17.399988;
#SAMPLELENGTH:12.000000;
#SELECTABLE:YES;
#BPMS:0.000000=140.009995
;
#STOPS:
;
#BGCHANGES:;
#KEYSOUNDS:;
#ATTACKS:;

//---------------dance-single - ----------------
#NOTES:
     dance-single:
     :
     Hard:
     15:
     0.830282,0.957033,0.436096,0.222013,1.000000,650.000000,55.000000,28.000000,0.000000,0.000000,0.000000,0.830282,0.957033,0.436096,0.222013,1.000000,650.000000,55.000000,28.000000,0.000000,0.000000,0.000000:
0000
0000
0000
0000
,
0000
0000
0000
0000
,
1000
0000
0000
0001
0000
0000
0100
0000
0010
0000
0100
0000
0101
0000
0000
0000
,
0001
1000
1010
0000
0001
0100
0110
0010
,
1000
0000
0000
0100
0000
0000
0010
0000
0001
0000
0010
0000
1100
0000
0000
0000
,
0100
0010
0011
0000
0001
1000
1001
0000
,
0001
0000
0000
1000
0000
0000
0010
0000
0100
0000
0010
0000
1010
0000
0000
0000
,
1000
0001
0101
0000
1000
0010
0110
0100
,
0001
0000
0000
0010
0000
0000
0100
0000
1000
0000
0100
0000
0011
0000
0000
0000
,
0001
0000
0000
1000
0000
0000
0010
0000
0000
0100
0000
0000
0001
0000
0000
1000
0000
0000
0010
0000
0000
0100
0000
0000
0001
0000
1000
0000
0001
0000
1000
0000
0001
0000
1000
0000
0010
0000
0100
0000
0010
0000
0100
0000
0010
0000
0100
0000
,
0001
0010
0000
0100
1000
0000
0100
0010
0000
0000
0001
0000
1001
0000
0000
0000
,
1000
0010
0000
0100
0010
0000
0100
0001
0000
0001
0000
1000
0010
0000
0010
0000
,
0100
0001
0000
1000
0010
0000
0100
0001
0000
0000
1000
0000
1010
0000
0000
0000
,
0001
0100
0000
0001
0010
0000
0100
1000
0000
1000
0000
1000
0010
0000
0010
0000
,
1000
0100
0000
0010
0001
0000
0010
0100
0000
0000
1000
0000
1001
0000
0000
0000
,
0001
0100
0000
0010
0100
0000
0010
1000
0000
1000
0000
0010
0100
0000
0100
0000
,
0010
1000
0000
0001
0100
0000
0010
1000
0000
0000
0001
0000
0101
0000
0000
0000
,
1000
0010
0000
1000
0100
0000
0010
0001
0000
0001
0000
0100
0010
0000
0010
0000
,
1000
0100
0000
0010
0001
0000
0010
0100
0000
0000
1000
0000
1001
0000
0000
0000
,
0001
0100
0000
0010
0100
0000
0010
1000
0000
1000
0000
0001
0100
0000
0100
0000
,
0010
1000
0000
0001
0100
0000
0010
1000
0000
0000
0001
0000
0101
0000
0000
0000
,
1000
0010
0000
1000
0100
0000
0010
0001
0000
0001
0000
0001
0100
0000
0001
0000
,
0001
0010
0000
0100
1000
0000
0100
0010
0000
0000
0001
0000
1001
0000
0000
0000
,
1000
0010
0000
0100
0010
0000
0100
0001
0000
0001
0000
1000
0001
0000
0001
0000
,
0100
0001
0000
1000
0010
0000
0100
0001
0000
0000
1000
0000
1010
0000
0000
0000
,
0001
0100
0000
0001
0010
0000
0100
1000
0000
1000
0000
0010
0100
0000
0100
0001
,
1000
0001
1000
0010
0100
0010
0000
1000
0100
1000
0100
0010
0001
0010
0000
0100
,
1000
0001
0100
0010
1000
0100
0010
0001
1000
0001
0100
1000
0100
0010
0000
1000
,
0010
1000
0010
0100
0001
0100
0000
0010
1000
0010
1000
0001
0010
0001
0000
0010
,
0100
1000
0100
0010
0001
1000
0001
1000
0010
0100
0001
0010
0100
0010
0000
0001
,
0010
0100
0010
0001
0010
0100
0000
0100
1000
0010
1000
0001
1000
0010
0000
0010
,
0100
0001
0010
0100
0001
0100
1000
0010
0001
1000
0100
0001
0100
0010
0000
0010
,
0100
0001
0100
0010
0100
0001
0000
0001
0010
0100
0010
0001
0010
0100
0000
0100
,
1000
0010
0001
0010
1000
0001
0100
1000
0100
0001
0010
0100
1000
0001
0000
1000
,
0001
1000
0001
0100
0010
0100
0000
0001
0010
0001
0010
0100
1000
0100
0000
0010
,
0001
1000
0010
0100
0001
0010
0100
1000
0001
1000
0010
0001
0010
0100
0000
0001
,
0100
0001
0100
0010
1000
0010
0000
0100
0001
0100
0001
1000
0100
1000
0000
0100
,
0010
0001
0010
0100
1000
0001
1000
0001
0100
0010
1000
0100
0010
0100
0000
1000
,
0100
0010
0100
1000
0100
0010
0000
0010
0001
0100
0001
1000
0001
0100
0000
0100
,
0010
1000
0100
0010
1000
0010
0001
0100
1000
0001
0010
1000
0010
0100
0000
0100
,
0010
1000
0010
0100
0010
1000
0000
1000
0100
0010
0100
1000
0100
0010
0000
0010
,
0001
0000
0000
0100
0000
0000
1000
0000
0000
0100
0000
0000
0001
0000
0000
1000
0000
0000
0010
0000
0000
0100
0000
0000
0010
0000
1000
0000
0010
0000
1000
0000
0010
0000
1000
0000
0001
0000
0100
0000
0001
0000
0100
0000
0001
0000
0100
0000
,
0002
0000
1003
0020
0000
0000
1030
0200
,
0000
0010
0000
1300
0010
0100
0001
1000
,
0200
0000
0310
0002
0000
0000
1003
0020
,
0000
0100
0000
1030
0010
1000
0001
1000
,
0002
0000
0013
0200
0000
0000
1300
0002
,
0000
0100
0000
1003
0100
0010
0001
0010
,
0200
0000
1300
0002
0000
0000
1003
0020
,
0000
0100
0000
1030
0001
0010
1000
0010
,
1001
0000
0010
1000
0001
0000
0100
0010
,
1010
0000
1000
0100
0010
0000
0001
0010
,
0011
0000
0001
1000
0100
0000
0010
0100
,
0110
0000
0000
0000
0010
0000
0000
0001
0000
0100
0000
0010
1000
0000
0010
1000
,
1010
0000
0000
0000
0101
0000
0000
0010
0000
0010
0000
0010
1000
0000
0001
0100
,
0110
0000
0000
0000
1100
0000
0000
0100
0000
0100
0000
0100
0001
0000
1000
0100
,
1100
0000
0000
0000
0110
0000
0000
0001
0000
0001
0000
0001
1000
0000
0100
1000
,
1001
0000
0000
0000
0011
0000
0000
1000
0000
1000
0100
1000
0001
0000
0100
0010
,
0110
0000
0000
0000
1010
0000
0000
0100
0000
0100
0000
0100
0001
0000
1000
0010
,
0110
0000
0000
0000
0011
0000
0000
0010
0000
0010
0000
0010
1000
0000
0001
0010
,
0011
0000
0000
0000
0110
0000
0000
1000
0000
1000
0000
1000
0001
0000
0010
0001
,
1001
0000
0000
0000
1100
0000
0000
0001
0000
0001
0010
0001
1000
0000
0010
0100
,
0110
0000
0000
0000
1020
0000
0000
0230
0000
0010
0000
1300
0001
0000
1000
0010
,
0110
0000
0000
0000
0201
0000
0000
0302
0000
1003
0000
0100
1000
0000
0001
0010
,
0110
0000
0000
0000
1200
0000
0000
2300
0000
3001
0000
0010
0001
0000
1000
0001
,
0011
0000
0000
0000
2100
0000
0000
3001
0000
0001
0010
0100
1000
0000
0010
0100
,
0110
0000
0000
0000
0201
0000
0000
0302
0000
1003
0000
0010
0100
0000
0001
0100
,
0101
0000
0000
0000
2100
0000
0000
3200
0000
0310
0000
1000
0001
0000
1000
0100
,
1100
0000
0000
0000
0120
0000
0000
0032
0000
1003
0000
0100
1000
0000
0001
1000
,
1001
0000
0000
0000
0012
0000
0000
1003
0000
1000
0010
0100
0001
1000
0010
0100
,
0220
0000
0000
0000
,
0330
0000
0000
0000
;

//---------------dance-single - ----------------
#NOTES:
     dance-single:
     :
     Medium:
     11:
     0.507457,0.444025,0.301303,0.166509,0.277516,389.000000,38.000000,21.000000,0.000000,0.000000,0.000000,0.507457,0.444025,0.301303,0.166509,0.277516,389.000000,38.000000,21.000000,0.000000,0.000000,0.000000:
0000
0000
0000
0000
,
0000
0000
0000
0000
,
0010
0000
0000
1000
0000
0000
0001
0000
1000
0000
0000
0000
1001
0000
0000
0000
,
0001
0101
0100
0110
,
0010
0000
0000
1000
0000
0000
0001
0000
0010
0000
0000
0000
1100
0000
0000
0000
,
1000
1001
0001
0011
,
0010
0000
0000
0100
0000
0000
1000
0000
0100
0000
0000
0000
0110
0000
0000
0000
,
0010
0011
0001
0101
,
0010
0000
0000
1000
0000
0000
0001
0000
1000
0000
0000
0000
1001
0000
0000
0000
,
0001
0000
1000
0000
0010
0000
0100
0000
0010
0100
0010
0000
1000
0001
1000
0000
,
0001
0100
0000
0000
0010
0000
0000
0010
0000
0000
0000
0000
1001
0000
0000
0000
,
1000
0010
0000
0000
0100
0000
0000
0100
0000
0001
0000
1000
0010
0000
0010
0000
,
1000
0100
0000
0000
0010
0000
0000
0010
0000
0000
0000
0000
0011
0000
0000
0000
,
0001
0100
0000
0000
0010
0000
0000
1000
0000
0001
0000
0100
0001
0000
0001
0000
,
0100
0010
0000
0000
1000
0000
0000
1000
0000
0000
0000
0000
1010
0000
0000
0000
,
0010
1000
0000
0000
0001
0000
0000
0001
0000
1000
0000
0010
0100
0000
0100
0000
,
0001
0100
0000
0000
0010
0000
0000
0010
0000
0000
0000
0000
0101
0000
0000
0000
,
1000
0001
0000
0000
0010
0000
0000
0001
0000
1000
0000
0010
0100
0000
0100
0000
,
0010
1000
0000
0000
0100
0000
0000
0100
0000
0000
0000
0000
1001
0000
0000
0000
,
0001
0100
0000
0000
0010
0000
0000
0010
0000
1000
0000
0001
0100
0000
0100
0000
,
0001
0010
0000
0000
0100
0000
0000
0100
0000
0000
0000
0000
1100
0000
0000
0000
,
1000
0010
0000
0000
0100
0000
0000
0001
0000
1000
0000
0010
1000
0000
1000
0000
,
0010
0100
0000
0000
0001
0000
0000
0001
0000
0000
0000
0000
0101
0000
0000
0000
,
0100
0001
0000
0000
1000
0000
0000
1000
0000
0001
0000
0100
0010
0000
0010
0000
,
1000
0010
0000
0000
0100
0000
0000
0100
0000
0000
0000
0000
1010
0000
0000
0000
,
1000
0001
0000
0000
0100
0000
0000
0100
0000
0010
0000
1000
0001
0000
0100
0000
,
0001
1000
0001
0000
1000
0010
1000
0000
,
0001
0100
0001
0010
0100
1000
0100
0000
,
0010
0001
0010
0000
0100
1000
0001
0000
,
1000
0010
1000
0001
0010
0001
1000
0000
,
0001
0010
0100
0000
1000
0010
0100
0000
,
0001
1000
0100
1000
0001
0100
0001
0000
,
1000
0001
0010
0000
0001
1000
0010
0000
,
1000
0010
0100
0001
0010
0100
1000
0000
,
1000
0001
1000
0000
0001
0100
0001
0000
,
1000
0010
1000
0100
0010
0001
0010
0000
,
0100
1000
0100
0000
0010
0001
1000
0000
,
0001
0100
0001
1000
0100
1000
0001
0000
,
1000
0100
0010
0000
0001
0100
0010
0000
,
1000
0001
0010
0001
1000
0010
1000
0000
,
0001
1000
0100
0000
1000
0001
0100
0000
,
0001
0100
0010
1000
0100
0010
0001
1000
,
0020
0000
1030
0002
0000
0000
1003
0200
,
0000
0010
0000
1300
0000
0001
0000
1000
,
0200
0000
1300
0020
0000
0000
0130
0002
,
0000
0100
0000
1003
0000
0010
0000
0100
,
0020
0000
1030
0200
0000
0000
1300
0002
,
0000
0100
0000
1003
0000
0010
0000
1000
,
0002
0000
0103
0002
0000
0000
0013
0200
,
0000
1000
0000
0310
0000
0001
1000
0001
,
1000
0010
0100
0001
,
1001
1000
0010
1000
,
1010
0010
0100
0010
,
0110
0200
0010
0301
,
1001
0000
0000
0000
1000
0000
0000
0000
0001
0000
0000
1000
0010
0000
0000
0000
,
0110
0000
0000
0000
0010
0000
0000
0000
1000
0000
0000
0001
0100
0000
0000
0000
,
0101
0000
0000
0000
0001
0000
0000
0000
0010
0000
0000
0100
1000
0000
0000
0000
,
1100
0000
0000
0000
0100
0000
0000
0000
0010
0000
0000
0001
0100
0000
0010
0000
,
1001
0000
0000
0000
0001
0000
0000
0000
1000
0000
0000
0001
0100
0000
0000
0000
,
0110
0000
0000
0000
0100
0000
0000
0000
0001
0000
0000
1000
0010
0000
0000
0000
,
1010
0000
0000
0000
1000
0000
0000
0000
0100
0000
0000
0010
0001
0000
0000
0000
,
0011
0000
0000
0000
0010
0000
0000
0000
0100
0000
0000
1000
0010
0000
0100
0000
,
0110
0000
0000
0000
0002
0000
0000
0000
1003
0000
0000
0001
0100
0000
0000
0000
,
0110
0000
0000
0000
0200
0000
0000
0000
0301
0000
0000
1000
0010
0000
0000
0000
,
1010
0000
0000
0000
2000
0000
0000
0000
3100
0000
0000
0010
0001
0000
0000
0000
,
0011
0000
0000
0000
0020
0000
0000
0000
0130
0000
0000
1000
0010
0000
0100
0000
,
1001
0000
0000
0000
2000
0000
0000
0000
3001
0000
0000
1000
0010
0000
0000
0000
,
0110
0000
0000
0000
0020
0000
0000
0000
1030
0000
0000
0001
0100
0000
0000
0000
,
0101
0000
0000
0000
0002
0000
0000
0000
0013
0000
0000
0100
1000
0000
0000
0000
,
1100
0000
0000
0000
0200
0000
0000
0000
0310
0000
0000
0001
1000
0000
0001
0000
,
0110
0000
0000
0000
;

//---------------dance-single - ----------------
#NOTES:
     dance-single:
     :
     Easy:
     4:
     0.369266,0.333019,0.277516,0.134793,0.000000,274.000000,35.000000,17.000000,0.000000,0.000000,0.000000,0.369266,0.333019,0.277516,0.134793,0.000000,274.000000,35.000000,17.000000,0.000000,0.000000,0.000000:
0000
0000
0000
0000
,
0000
0000
0000
0000
,
0100
0000
0000
1000
0001
0000
1001
0000
,
0000
1010
0000
0110
,
0100
0000
0000
1000
0100
0000
0011
0000
,
0000
1001
0000
1100
,
0100
0000
0000
0001
0010
0000
0110
0000
,
0000
1100
0000
1010
,
0100
0000
0000
1000
0001
0000
1001
0000
,
1000
0001
0100
0010
,
0100
0100
0010
1001
,
0001
0000
0010
0000
0100
0000
1000
0001
,
1000
0100
0001
1100
,
1000
0000
0100
0000
0000
0000
0001
1000
,
0001
1000
0010
0101
,
0100
0000
1000
0000
0010
0000
0100
0001
,
0100
0010
1000
1010
,
0001
0000
0100
0000
0001
0000
0100
0010
,
0100
0010
0100
1001
,
1000
0000
0100
0000
0001
0000
1000
0010
,
1000
0010
0100
0011
,
0001
0000
0010
0000
0100
0000
1000
0001
,
1000
0010
0100
1010
,
0100
0000
0001
0000
1000
0000
0001
0100
,
0001
1000
0010
0101
,
0001
1000
0010
0010
,
1000
1000
0001
0001
,
1000
1000
0010
0010
,
0100
0100
0010
1000
,
0001
0001
0100
0001
,
1000
0010
0001
0010
,
1000
0010
1000
1000
,
0001
0100
1000
0100
,
0001
1000
0001
0000
1000
0001
1000
0000
,
0001
0001
1000
1000
,
0001
0001
0100
0100
,
0010
0010
0100
0001
,
1000
1000
0010
1000
,
0001
0100
1000
0100
,
0001
0100
0001
0001
,
1000
0010
0001
0010
,
1000
0001
1000
0000
0001
1000
0001
0100
,
0020
0000
1030
0002
0000
0000
1003
0020
,
0000
0000
0130
0100
,
0100
0000
0001
2000
0000
0000
3001
0200
,
0000
0000
0301
0001
,
0001
0000
1000
0200
0000
0000
1300
0002
,
0000
0000
1003
1000
,
1000
0000
0001
0200
0000
0000
0301
2000
,
0000
0000
3100
0100
,
0100
0001
1000
1000
,
0001
0001
0100
0001
,
0100
0100
0010
0100
,
0010
0010
0100
0001
,
1001
0001
1000
0100
,
0110
0100
0001
0010
,
1010
1000
0100
0001
,
0011
0010
0100
0010
,
1001
1000
0001
0010
,
0110
0010
1000
0100
,
0101
0001
0010
1000
,
1100
0100
0010
0100
,
0110
2000
3001
0010
,
0110
0020
1030
0100
,
0101
0002
0013
1000
,
1100
0200
0310
0100
,
1001
0002
1003
0100
,
0110
0200
0301
0010
,
1010
2000
3100
0001
,
0011
0020
0130
0010
,
0110
0000
0000
0000
;

//---------------dance-single - ----------------
#NOTES:
     dance-single:
     :
     Beginner:
     2:
     0.185766,0.194261,0.007929,0.071361,0.000000,154.000000,1.000000,9.000000,0.000000,0.000000,0.000000,0.185766,0.194261,0.007929,0.071361,0.000000,154.000000,1.000000,9.000000,0.000000,0.000000,0.000000:
// measure 0
0000
0000
0000
0000
,  // measure 1
0000
0000
0000
0000
,  // measure 2
0100
0000
0001
1000
,  // measure 3
0000
0010
0000
0010
,  // measure 4
0100
0000
0100
0010
,  // measure 5
0000
1000
0000
0100
,  // measure 6
0100
0000
0010
0100
,  // measure 7
0000
0100
0000
1000
,  // measure 8
0100
0000
0001
1000
,  // measure 9
1000
0000
0100
0000
,  // measure 10
0100
0000
0010
0010
,  // measure 11
0000
0010
0000
1000
,  // measure 12
1000
0000
0001
1000
,  // measure 13
1000
0100
0000
0001
,  // measure 14
0001
1000
0000
0001
,  // measure 15
0100
0000
0010
0000
,  // measure 16
0100
0000
1000
1000
,  // measure 17
0000
0100
0000
0100
,  // measure 18
0100
0000
0100
0001
,  // measure 19
0000
0100
0000
1000
,  // measure 20
1000
0000
0100
0001
,  // measure 21
0000
0010
0000
1000
,  // measure 22
1000
0000
0100
1000
,  // measure 23
0000
0001
1000
0000
,  // measure 24
0001
1000
0000
0001
,  // measure 25
0001
0000
0010
0000
,  // measure 26
1000
0000
0001
0000
,  // measure 27
1000
0000
0010
0000
,  // measure 28
0100
0000
0010
0000
,  // measure 29
0001
0000
0100
0000
,  // measure 30
1000
0000
0001
0000
,  // measure 31
1000
0000
1000
0000
,  // measure 32
0001
0000
1000
0000
,  // measure 33
0001
0001
1000
1000
,  // measure 34
0001
0000
1000
0000
,  // measure 35
0001
0000
0100
0000
,  // measure 36
0010
0000
0100
0000
,  // measure 37
1000
0000
0010
0000
,  // measure 38
0001
0000
1000
0000
,  // measure 39
0001
0000
0001
0000
,  // measure 40
1000
0000
0001
0000
,  // measure 41
1000
1000
0001
0001
,  // measure 42
0020
0000
0030
0002
0000
0000
0003
0020
,  // measure 43
0000
0000
0130
0000
,  // measure 44
0100
0000
0000
2000
0000
0000
3000
0200
,  // measure 45
0000
0000
0301
0000
,  // measure 46
0001
0000
0000
0200
0000
0000
0300
0002
,  // measure 47
0000
0000
1003
0000
,  // measure 48
1000
0000
0000
0200
0000
0000
0300
2000
,  // measure 49
0000
0000
3100
0000
,  // measure 50
0100
0000
1000
0000
,  // measure 51
0001
0000
0100
0000
,  // measure 52
0100
0000
0010
0000
,  // measure 53
0010
0000
0100
0000
,  // measure 54
1000
0000
1000
0000
,  // measure 55
0100
0000
0001
0000
,  // measure 56
1000
0000
0100
0000
,  // measure 57
0001
0000
0100
0000
,  // measure 58
0001
0000
0001
0000
,  // measure 59
0100
0000
1000
0000
,  // measure 60
0001
0000
0010
0000
,  // measure 61
1000
0000
0010
0000
,  // measure 62
0010
0000
0001
0000
,  // measure 63
0100
0000
1000
0000
,  // measure 64
0100
0000
0010
0000
,  // measure 65
1000
0000
0010
0000
,  // measure 66
1000
0000
0001
0000
,  // measure 67
0100
0000
0001
0000
,  // measure 68
1000
0000
0100
0000
,  // measure 69
0001
0000
0100
0000
,  // measure 70
0110
0000
0000
0000
;
