#TITLE:Sakura Reflection;
#SUBTITLE:ondo-bon odori Remix-;
#ARTIST:Kazuma Minamoto;
#TITLETRANSLIT:;
#SUBTITLETRANSLIT:;
#ARTISTTRANSLIT:;
#CREDIT:;
#BANNER:;
#BACKGROUND:;
#LYRICSPATH:;
#CDTITLE:;
#MUSIC:Sakura Reflection ondo -bon odori Remix-.mp3;
#OFFSET:0.020;
#SAMPLESTART:100.140;
#SAMPLELENGTH:12.000;
#SELECTABLE:YES;
#BPMS:0.000=180.000;
#STOPS:;
#BGCHANGES:;

//---------------dance-single - ----------------
#NOTES:
     dance-single:
     :
     Hard:
     14:
     0.775,0.908,0.239,0.162,1.000:
0000
0000
0000
0000
,
0000
0000
0000
1000
0000
0010
0100
0000
,
1001
0010
0100
0100
,
0100
0000
0000
0010
0000
0100
0010
0000
,
1000
0001
0100
0010
,
1000
0000
0000
0010
0000
0100
0001
0000
,
0010
0100
1000
1000
,
0010
0000
0000
0100
0010
0000
0010
0000
,
0010
0000
0000
0100
0000
0000
0100
0000
0000
0010
0100
0000
,
0001
0000
1000
0000
0000
0000
1000
0000
0010
0000
0000
0000
0000
0000
0000
1000
0000
0000
0001
0000
0000
0000
0000
0000
,
1000
0000
0000
0010
0000
0000
0100
0000
0000
0001
1000
0000
,
0000
1001
0000
0100
0100
0000
0001
0000
,
0010
0000
0000
0100
0000
0000
0010
0000
0000
0001
0010
0000
,
0010
0001
0000
0100
0010
1000
0001
0010
0100
0010
0001
1000
,
0100
1000
0010
0100
0001
0010
0100
1000
0010
0100
1000
0100
,
0001
0010
0100
1000
0010
0100
1000
0100
0010
1000
0001
1000
,
0010
0100
0010
1000
0100
0010
0001
0010
0001
0100
1000
0100
,
0010
1000
0001
0010
0200
0000
0000
0000
0000
0000
0000
0000
,
0000
0000
0000
0000
,
0300
1000
0000
1000
0001
0000
0000
1001
0000
0100
0010
0000
,
0010
1000
0000
1000
0010
0000
0010
0100
0000
0100
0001
0000
,
0000
0100
0000
0100
0010
0000
0000
0110
0000
0100
0010
0000
,
0010
1000
0000
1000
0001
0000
0001
0010
0000
0010
0100
0000
,
0000
1000
0000
0001
0100
0000
0000
1010
0000
0010
0100
0000
,
0100
0001
0000
0001
0100
0000
0100
0010
0000
0010
1000
0000
,
0000
0001
0000
1000
0010
0000
0010
0100
0000
0010
1000
0000
,
0001
0100
0000
0100
0010
0000
0010
1000
0000
0100
0010
0000
,
0000
0001
0000
0001
1000
0000
0000
1001
0000
0010
0100
0000
,
0100
0001
0000
0001
0100
0000
0100
0010
0000
0010
1000
0000
,
0000
0010
0000
0010
0100
0000
0000
0110
0000
0010
0100
0000
,
0100
0001
0000
0001
1000
0000
1000
0100
0000
0100
0010
0000
,
0000
0001
0000
1000
0010
0000
0000
0101
0000
0100
0010
0000
,
0010
1000
0000
1000
0010
0000
0010
0100
0000
0100
0001
0000
,
0000
1000
0000
0001
0100
0000
0100
0010
0000
0100
0001
0000
,
1000
0010
0000
0010
0100
0000
0100
0001
0000
0010
0100
0000
,
0000
1000
0000
1000
0001
0000
0000
1001
0000
0100
0010
0000
,
0010
1000
0000
1000
0010
0000
0010
0100
0000
0100
0001
0000
,
0000
0100
0000
0100
0010
0000
0000
0110
0000
0100
0010
0000
,
0010
1000
0000
1000
0001
0000
0001
0010
0000
0010
0100
0000
,
0000
1000
0000
0001
0100
0000
0000
1010
0000
0010
0100
0000
,
0100
0001
0000
0001
0100
0000
0100
0010
0000
0010
1000
0000
,
0000
0001
0000
1000
0010
0000
0010
0100
0000
0010
1000
0000
,
0001
0100
0000
0100
0010
0000
0010
1000
0000
0100
0010
0000
,
0000
0001
0000
0001
1000
0000
0000
1001
0000
0010
0100
0000
,
0100
0001
0000
0001
0100
0000
0100
0010
0000
0010
1000
0000
,
0000
0010
0000
0010
0100
0000
0000
0110
0000
0010
0100
0000
,
0100
0001
0000
0001
1000
0000
1000
0100
0000
0100
0010
0000
,
0000
0001
0000
1000
0010
0100
0001
0010
0100
1000
0010
0100
,
0001
1000
0010
1000
0001
0010
0100
1000
0010
0100
1000
0100
,
0001
0100
1000
0100
0001
0010
1000
0010
0001
1000
0010
1000
,
0001
0100
0001
0010
0100
0010
0001
1000
0100
1000
0010
0000
,
0000
0000
0000
0020
0000
2030
0000
3200
,
0000
0302
0000
0023
0000
2030
0000
3200
,
0000
0302
0000
0023
0000
1030
0000
1001
,
0000
0010
0000
0110
0000
0100
0000
0101
,
0000
0020
0000
0032
0000
0203
0000
2300
,
0000
3020
0000
0032
0000
0203
0000
2300
,
0000
3010
0000
0101
0000
0001
0000
1001
,
0000
0100
0000
1010
0000
0100
0000
0101
,
0000
1000
0000
0001
0100
0000
0000
0101
0000
0010
1000
0000
,
0001
0100
0000
0100
0010
0000
0001
1000
0000
0100
0010
0000
,
0000
0001
0000
0100
0010
0000
0000
1010
0000
0100
0001
0000
,
0010
0100
0000
1000
0100
0000
0010
0001
0000
0010
0100
0000
,
0000
1001
0000
0001
0100
0001
1000
0010
1000
0001
0010
0100
,
1000
0010
0100
0001
1000
0010
0100
0010
0001
0010
1000
0100
,
0010
0001
0010
0100
1000
0010
0001
0010
1000
0100
0001
0100
,
1000
0010
0100
0010
1000
0001
1000
0010
0100
0010
0100
0000
,
0000
0001
0000
0001
1000
0000
0000
1001
0000
0010
0100
0000
,
0100
0001
0000
0001
0100
0000
0100
0010
0000
0010
1000
0000
,
0000
0010
0000
0010
0100
0000
0000
0110
0000
0010
0100
0000
,
0100
0001
0000
0001
1000
0000
1000
0100
0000
0100
0010
0000
,
0000
0001
0000
1000
0010
0000
0000
0101
0000
0100
0010
0000
,
0010
1000
0000
1000
0010
0000
0010
0100
0000
0100
0001
0000
,
0000
1000
0000
0001
0100
0000
0100
0010
0000
0100
0001
0000
,
1000
0010
0000
0010
0100
0000
0100
0001
0000
0010
0100
0000
,
0000
1000
0000
1000
0001
0000
0000
1001
0000
0100
0010
0000
,
0010
1000
0000
1000
0010
0000
0010
0100
0000
0100
0001
0000
,
0000
0100
0000
0100
0010
0000
0000
0110
0000
0100
0010
0000
,
0010
1000
0000
1000
0001
0000
0001
0010
0000
0010
0100
0000
,
0000
1000
0000
0001
0100
0001
1000
0010
1000
0001
0010
0100
,
1000
0010
0100
0001
1000
0010
1000
0001
0100
0001
0010
0100
,
1000
0100
0010
0001
0010
0001
1000
0100
1000
0010
0100
0010
,
1000
0100
0010
0100
1000
0010
0100
1000
0100
0001
0010
0100
,
0010
0001
0100
0010
0020
0000
0000
0000
0000
0000
0000
0000
,
0000
0000
0000
0000
,
0030
0000
0000
0000
;

//---------------dance-single - Copied from----------------
#NOTES:
     dance-single:
     Copied from:
     Medium:
     12:
     0.531,0.545,0.111,0.154,1.000:
0000
0000
0000
0000
,
0000
0000
0000
0100
0000
0010
0100
0000
,
0001
0010
0100
0100
,
0100
0000
0000
0010
0000
0001
1000
0000
,
1000
0001
0100
0100
,
0010
0000
0000
0010
0000
1000
0001
0000
,
0001
0100
0100
0010
,
0010
0000
0000
1000
0010
0000
0001
0000
,
0010
0000
0000
1000
0000
0000
0010
0000
0000
0010
0100
0000
,
0100
0000
0001
0000
0000
0000
0001
0000
1000
0000
0000
0000
0000
0000
0000
1000
0000
0000
0001
0000
0000
0000
0000
0000
,
1000
0000
0000
0001
0000
0000
0010
0000
0000
0100
1000
0000
,
0000
1000
0000
0100
0010
0000
0001
0000
,
0010
0000
0000
0100
0000
0000
0010
0000
0000
0001
1000
0000
,
1000
0000
0001
0000
0000
0000
0000
0000
0000
0100
0000
0000
0010
0000
0000
0000
0000
0000
0010
0000
0000
0000
0000
0000
,
0100
0000
0010
0000
0100
0000
0010
1000
,
0000
0001
0000
0010
0100
0000
0100
0000
,
0010
0000
0000
0001
0000
0000
1000
0000
0000
0001
1000
0000
,
1000
0001
0000
0001
0020
0000
0000
0000
0000
0000
0000
0000
,
0000
0000
0000
0000
,
0030
0001
0000
1000
0001
0000
0000
0100
0000
0000
0010
0000
,
0000
1000
0000
0000
0010
0000
0010
0100
0000
0100
0001
0000
,
0000
0100
0000
0000
0010
0000
0000
0100
0000
0000
0010
0000
,
0000
1000
0000
0000
0001
0000
0001
0010
0000
0010
0100
0000
,
0000
1000
0000
0000
0100
0000
0000
0010
0000
0000
0100
0000
,
0000
1000
0000
1000
0100
0000
0100
0010
0000
0010
0001
0000
,
0000
0001
0000
0000
1000
0000
0000
0010
0000
0000
1000
0000
,
0000
0001
0000
0000
0100
0000
0010
1000
0000
1000
0010
0000
,
0000
1000
0000
0001
1000
0000
0000
0010
0000
0000
0100
0000
,
0000
0001
0000
0000
0100
0000
0100
0010
0000
0010
1000
0000
,
0000
0010
0000
0000
0100
0000
0000
0010
0000
0000
0100
0000
,
0000
0001
0000
0000
1000
0000
1000
0100
0000
0100
0010
0000
,
0000
0001
0000
0000
0010
0000
0000
0100
0000
0000
0010
0000
,
0000
0001
0000
0001
0010
0000
0010
0100
0000
0100
1000
0000
,
0000
1000
0000
0000
0001
0000
0000
0100
0000
0000
0001
0000
,
0000
1000
0000
0000
0010
0000
0100
0001
0000
0001
0100
0000
,
0000
0100
0000
0001
1000
0000
0000
0010
0000
0000
0100
0000
,
0000
0001
0000
0000
0100
0000
0100
0010
0000
0010
1000
0000
,
0000
0010
0000
0000
0100
0000
0000
0010
0000
0000
0100
0000
,
0000
0001
0000
0000
1000
0000
1000
0100
0000
0100
0010
0000
,
0000
0001
0000
0000
0010
0000
0000
0100
0000
0000
0010
0000
,
0000
0001
0000
0001
0010
0000
0010
0100
0000
0100
1000
0000
,
0000
1000
0000
0000
0001
0000
0000
0100
0000
0000
0001
0000
,
0000
1000
0000
0000
0010
0000
0100
0001
0000
0001
0100
0000
,
0000
0001
0000
1000
0001
0000
0000
0100
0000
0000
0010
0000
,
0000
1000
0000
0000
0010
0000
0010
0100
0000
0100
0001
0000
,
0000
0100
0000
0000
0010
0000
0000
0100
0000
0000
0010
0000
,
0000
1000
0000
0000
0001
0000
0001
0010
0000
0010
0100
0000
,
0000
1000
0000
0000
0100
0000
0000
0010
0000
0000
0100
0000
,
0000
1000
0000
1000
0100
0000
0100
0010
0000
0010
0001
0000
,
0000
0001
0000
0000
1000
0000
0000
0010
0000
0000
1000
0000
,
0000
0001
0000
0000
0100
0000
0010
1000
0000
0001
0100
0000
,
0000
0000
0000
0002
0000
0023
0000
0230
,
0000
2300
0000
3002
0000
0023
0000
0230
,
0000
2300
0000
3001
0000
1001
0000
1001
,
0000
0110
0000
0110
0000
1010
0000
1010
,
0000
2000
0000
3020
0000
0230
0000
0302
,
0000
2003
0000
3020
0000
0230
0000
0302
,
0000
0103
0000
0110
0000
0110
0000
0101
,
0000
0101
0000
1010
0000
1010
0000
1001
,
0000
1000
0000
0001
1000
0000
0000
0010
0000
0000
0100
0000
,
0000
0001
0000
0000
0100
0000
0100
0010
0000
0010
1000
0000
,
0000
0010
0000
0000
0100
0000
0000
0010
0000
0000
0100
0000
,
0000
0001
0000
0000
1000
0000
1000
0100
0000
0100
0010
0000
,
0000
0001
0000
0000
0010
0000
0000
0100
0000
0000
0010
0000
,
0000
0001
0000
0001
0010
0000
0010
0100
0000
0100
1000
0000
,
0000
1000
0000
0000
0001
0000
0000
0100
0000
0000
0001
0000
,
0000
1000
0000
0000
0010
0000
0100
0001
0000
0001
0100
0000
,
0000
0001
0000
1000
0001
0000
0000
0100
0000
0000
0010
0000
,
0000
1000
0000
0000
0010
0000
0010
0100
0000
0100
0001
0000
,
0000
0100
0000
0000
0010
0000
0000
0100
0000
0000
0010
0000
,
0000
1000
0000
0000
0001
0000
0001
0010
0000
0010
0100
0000
,
0000
1000
0000
0000
0100
0000
0000
0010
0000
0000
0100
0000
,
0000
1000
0000
1000
0100
0000
0100
0010
0000
0010
0001
0000
,
0000
0001
0000
0000
1000
0000
0000
0010
0000
0000
1000
0000
,
0000
0001
0000
0000
0100
0000
0010
1000
0000
1000
0010
0000
,
0000
1000
0000
0001
1000
0000
0000
0010
0000
0000
0100
0000
,
0000
0001
0000
0000
0100
0000
0100
0010
0000
0010
1000
0000
,
0000
0010
0000
0000
0100
0000
0000
0010
0000
0000
0100
0000
,
0000
0001
0000
0000
1000
0000
1000
0100
0000
0100
0010
0000
,
0000
0001
0000
0000
0010
0000
0000
0100
0000
0000
0010
0000
,
0000
0001
0000
0001
0010
0000
0010
0100
0000
0100
1000
0000
,
0000
1000
0000
0000
0001
0000
0000
0100
0000
0000
0001
0000
,
0000
1000
0000
0000
0010
0000
0100
0001
0000
0001
0100
0000
,
0100
0010
0000
0010
0200
0000
0000
0000
0000
0000
0000
0000
,
0000
0000
0000
0000
,
0300
0000
0000
0000
;

//---------------dance-single - Copied from Copied f----------------
#NOTES:
     dance-single:
     Copied from Copied f:
     Easy:
     5:
     0.326,0.291,0.017,0.077,0.850:
0000
0000
0000
0000
,
0000
0000
0000
0000
,
0000
0000
1000
0001
,
1000
0000
0000
0000
,
0000
0000
0010
0100
,
0010
0000
0000
0000
,
0000
0000
0100
0001
,
1000
0000
0000
0000
,
0000
0000
1000
0010
,
0100
0000
0001
0000
0000
1000
0001
0000
,
1000
0001
1000
0000
,
0000
0000
0000
0000
,
0010
0100
0010
0001
,
1000
0000
0010
1000
,
0001
0010
0100
0000
,
0000
0000
0001
1000
,
0100
0010
0001
0000
,
0000
0000
0000
0000
2002
0000
0000
0000
0000
0000
0000
0000
,
0000
0000
0000
0000
0000
0000
0000
0000
0000
0000
0000
3003
,
0000
0000
0000
0000
0001
0000
0000
0001
0000
0000
1000
0000
,
0000
1000
0000
0000
0010
0000
0000
0010
0000
0000
0010
0000
,
0000
0000
0000
0000
0100
0000
0000
0100
0000
0000
0010
0000
,
0000
0010
0000
0000
1000
0000
0000
1000
0000
0000
1000
0000
,
0000
0000
0000
0000
0100
0000
0000
0100
0000
0000
0010
0000
,
0000
0010
0000
0000
0001
0000
0000
0001
0000
0000
0001
0000
,
0000
0000
0000
0000
1000
0000
0000
1000
0000
0000
0001
0000
,
0000
0001
0000
0000
0100
0000
0000
0100
0000
0000
0100
0000
,
0000
0000
0000
0000
0001
0000
0000
0001
0000
0000
1000
0000
,
0000
1000
0000
0000
0010
0000
0000
0010
0000
0000
0010
0000
,
0000
0000
0000
0000
0100
0000
0000
0100
0000
0000
0010
0000
,
0000
0010
0000
0000
1000
0000
0000
1000
0000
0000
1000
0000
,
0000
0000
0000
0000
0100
0000
0000
0100
0000
0000
0010
0000
,
0000
0010
0000
0000
0001
0000
0000
0001
0000
0000
0001
0000
,
0000
0000
0000
0000
1000
0000
0000
1000
0000
0000
0001
0000
,
0000
0001
0000
0000
0100
0000
0000
0100
0000
0000
0100
0000
,
0000
0000
0000
0000
1000
0000
0000
1000
0000
0000
0001
0000
,
0000
0001
0000
0000
0100
0000
0000
0100
0000
0000
0100
0000
,
0000
0000
0000
0000
0010
0000
0000
0010
0000
0000
0100
0000
,
0000
0100
0000
0000
0001
0000
0000
0001
0000
0000
0001
0000
,
0000
0000
0000
0000
0010
0000
0000
0010
0000
0000
0100
0000
,
0000
0100
0000
0000
1000
0000
0000
1000
0000
0000
1000
0000
,
0000
0000
0000
0000
0001
0000
0000
0001
0000
0000
1000
0000
,
0000
1000
0000
0000
0010
0000
0000
0010
0000
0000
0010
0000
,
0000
0000
0000
0000
1000
0000
0000
1000
0000
0000
0001
0000
,
0000
0001
0000
0000
0100
0000
0000
0100
0000
0000
0100
0000
,
0000
0000
0000
0000
0010
0000
0000
0010
0000
0000
0100
0000
,
0000
0100
0000
0000
0001
0000
0000
0001
0000
0000
0001
0000
,
0000
0000
0000
0000
0010
0000
0000
0010
0000
0000
0100
0000
,
0000
0100
0000
0000
1000
0000
0000
1000
0000
0000
1000
0000
,
0000
0000
0000
0000
0001
0000
0000
0001
0000
0000
1000
0000
,
0000
1000
0000
0000
0010
0000
0000
0010
0000
0000
0010
0000
,
0000
0000
0000
0001
0000
0001
0000
0001
,
0000
0001
0000
1000
0000
1000
0000
1000
,
0000
1000
0000
0020
0000
0000
0000
0230
,
0000
0000
0000
0302
0000
0000
0000
1003
,
0000
1000
0000
1000
0000
1000
0000
1000
,
0000
0001
0000
0001
0000
0001
0000
0001
,
0000
0200
0000
0000
0000
0320
0000
0000
,
0000
2030
0000
0000
0000
3000
0000
1001
,
0000
0000
0000
0000
1000
0000
0000
1000
0000
0000
0001
0000
,
0000
0001
0000
0000
0100
0000
0000
0100
0000
0000
0100
0000
,
0000
0000
0000
0000
0010
0000
0000
0010
0000
0000
0100
0000
,
0000
0100
0000
0000
0001
0000
0000
0001
0000
0000
0001
0000
,
0000
0000
0000
0000
0010
0000
0000
0010
0000
0000
0100
0000
,
0000
0100
0000
0000
1000
0000
0000
1000
0000
0000
1000
0000
,
0000
0000
0000
0000
0001
0000
0000
0001
0000
0000
1000
0000
,
0000
1000
0000
0000
0010
0000
0000
0010
0000
0000
0010
0000
,
0000
0000
0000
0000
1000
0000
0000
1000
0000
0000
0001
0000
,
0000
0001
0000
0000
0100
0000
0000
0100
0000
0000
0100
0000
,
0000
0000
0000
0000
0010
0000
0000
0010
0000
0000
0100
0000
,
0000
0100
0000
0000
0001
0000
0000
0001
0000
0000
0001
0000
,
0000
0000
0000
0000
0010
0000
0000
0010
0000
0000
0100
0000
,
0000
0100
0000
0000
1000
0000
0000
1000
0000
0000
1000
0000
,
0000
0000
0000
0000
0001
0000
0000
0001
0000
0000
1000
0000
,
0000
1000
0000
0000
0010
0000
0000
0010
0000
0000
0010
0000
,
0000
0000
0000
0000
1000
0000
0000
1000
0000
0000
0001
0000
,
0000
0001
0000
0000
0100
0000
0000
0100
0000
0000
0100
0000
,
0000
0000
0000
0000
0010
0000
0000
0010
0000
0000
0100
0000
,
0000
0100
0000
0000
0001
0000
0000
0001
0000
0000
0001
0000
,
0000
0000
0000
0000
0010
0000
0000
0010
0000
0000
0100
0000
,
0000
0100
0000
0000
1000
0000
0000
1000
0000
0000
1000
0000
,
0000
0000
0000
0000
0001
0000
0000
0001
0000
0000
1000
0000
,
0000
1000
0000
0000
0010
0000
0000
0010
0000
0000
0100
0000
,
0000
0010
0000
0000
2000
0000
0000
0000
0000
0000
0000
0000
,
0000
0000
0000
0000
,
3000
0000
0000
0000
;

//---------------dance-single - Copied from Copied from Copied f----------------
#NOTES:
     dance-single:
     Copied from Copied from Copied f:
     Beginner:
     3:
     0.198,0.218,0.017,0.111,0.487: // measure 1
0000
0000
0000
0000
,  // measure 2
0000
0000
0000
0000
,  // measure 3
0000
0000
0010
0010
,  // measure 4
0010
0000
0000
0000
,  // measure 5
0000
0000
0100
0100
,  // measure 6
0100
0000
0000
0000
,  // measure 7
0000
0000
0010
0010
,  // measure 8
0010
0000
0000
0000
,  // measure 9
0000
0000
0000
0000
,  // measure 10
0100
0100
0000
0000
,  // measure 11
0001
0001
0001
0000
,  // measure 12
0000
0000
0000
0000
,  // measure 13
0000
0000
1000
1000
,  // measure 14
1000
0000
0000
0000
,  // measure 15
0000
0010
0010
0000
,  // measure 16
0000
0000
0000
0000
,  // measure 17
0100
0100
0010
0000
,  // measure 18
0000
0000
0000
0000
2002
0000
0000
0000
0000
0000
0000
0000
,  // measure 19
0000
0000
0000
0000
0000
0000
0000
0000
0000
0000
0000
3003
,  // measure 20
0000
0000
0000
0000
1000
0000
0000
0000
0000
0000
0001
0000
,  // measure 21
0000
0000
0000
0000
0100
0000
0000
0000
0000
0000
0100
0000
,  // measure 22
0000
0000
0000
0000
0010
0000
0000
0000
0000
0000
0100
0000
,  // measure 23
0000
0000
0000
0000
0001
0000
0000
0000
0000
0000
0001
0000
,  // measure 24
0000
0000
0000
0000
0010
0000
0000
0000
0000
0000
0100
0000
,  // measure 25
0000
0000
0000
0000
1000
0000
0000
0000
0000
0000
1000
0000
,  // measure 26
0000
0000
0000
0000
0001
0000
0000
0000
0000
0000
1000
0000
,  // measure 27
0000
0000
0000
0000
0010
0000
0000
0000
0000
0000
0010
0000
,  // measure 28
0000
0000
0000
0000
1000
0000
0000
0000
0000
0000
0001
0000
,  // measure 29
0000
0000
0000
0000
0100
0000
0000
0000
0000
0000
0100
0000
,  // measure 30
0000
0000
0000
0000
0010
0000
0000
0000
0000
0000
0100
0000
,  // measure 31
0000
0000
0000
0000
0001
0000
0000
0000
0000
0000
0001
0000
,  // measure 32
0000
0000
0000
0000
0010
0000
0000
0000
0000
0000
0100
0000
,  // measure 33
0000
0000
0000
0000
1000
0000
0000
0000
0000
0000
1000
0000
,  // measure 34
0000
0000
0000
0000
0001
0000
0000
0000
0000
0000
1000
0000
,  // measure 35
0000
0000
0000
0000
0010
0000
0000
0000
0000
0000
0010
0000
,  // measure 36
0000
0000
0000
0000
0001
0000
0000
0000
0000
0000
1000
0000
,  // measure 37
0000
0000
0000
0000
0010
0000
0000
0000
0000
0000
0010
0000
,  // measure 38
0000
0000
0000
0000
0100
0000
0000
0000
0000
0000
0010
0000
,  // measure 39
0000
0000
0000
0000
1000
0000
0000
0000
0000
0000
1000
0000
,  // measure 40
0000
0000
0000
0000
0100
0000
0000
0000
0000
0000
0010
0000
,  // measure 41
0000
0000
0000
0000
0001
0000
0000
0000
0000
0000
0001
0000
,  // measure 42
0000
0000
0000
0000
1000
0000
0000
0000
0000
0000
0001
0000
,  // measure 43
0000
0000
0000
0000
0100
0000
0000
0000
0000
0000
0100
0000
,  // measure 44
0000
0000
0000
0000
0001
0000
0000
0000
0000
0000
1000
0000
,  // measure 45
0000
0000
0000
0000
0010
0000
0000
0000
0000
0000
0010
0000
,  // measure 46
0000
0000
0000
0000
0100
0000
0000
0000
0000
0000
0010
0000
,  // measure 47
0000
0000
0000
0000
1000
0000
0000
0000
0000
0000
1000
0000
,  // measure 48
0000
0000
0000
0000
0100
0000
0000
0000
0000
0000
0010
0000
,  // measure 49
0000
0000
0000
0000
0001
0000
0000
0000
0000
0000
0001
0000
,  // measure 50
0000
0000
0000
0000
1000
0000
0000
0000
0000
0000
0001
0000
,  // measure 51
0000
0000
0000
0000
0100
0000
0000
0000
0000
0000
0100
0000
,  // measure 52
0000
0000
0000
2000
0000
0000
0000
0000
,  // measure 53
0000
0000
0000
3002
0000
0000
0000
0000
,  // measure 54
0000
0000
0000
0203
0000
0000
0000
0320
,  // measure 55
0000
0000
0000
2030
0000
0000
0000
3002
,  // measure 56
0000
0000
0000
0000
,  // measure 57
0000
2003
0000
0000
0000
0000
0000
0000
,  // measure 58
0000
3020
0000
0000
0000
0230
0000
0000
,  // measure 59
0000
0302
0000
0000
0000
0003
0000
0110
,  // measure 60
0000
0000
0000
0000
0001
0000
0000
0000
0000
0000
1000
0000
,  // measure 61
0000
0000
0000
0000
0010
0000
0000
0000
0000
0000
0010
0000
,  // measure 62
0000
0000
0000
0000
0100
0000
0000
0000
0000
0000
0010
0000
,  // measure 63
0000
0000
0000
0000
1000
0000
0000
0000
0000
0000
1000
0000
,  // measure 64
0000
0000
0000
0000
0100
0000
0000
0000
0000
0000
0010
0000
,  // measure 65
0000
0000
0000
0000
0001
0000
0000
0000
0000
0000
0001
0000
,  // measure 66
0000
0000
0000
0000
1000
0000
0000
0000
0000
0000
0001
0000
,  // measure 67
0000
0000
0000
0000
0100
0000
0000
0000
0000
0000
0100
0000
,  // measure 68
0000
0000
0000
0000
0001
0000
0000
0000
0000
0000
1000
0000
,  // measure 69
0000
0000
0000
0000
0010
0000
0000
0000
0000
0000
0010
0000
,  // measure 70
0000
0000
0000
0000
0100
0000
0000
0000
0000
0000
0010
0000
,  // measure 71
0000
0000
0000
0000
1000
0000
0000
0000
0000
0000
1000
0000
,  // measure 72
0000
0000
0000
0000
0100
0000
0000
0000
0000
0000
0010
0000
,  // measure 73
0000
0000
0000
0000
0001
0000
0000
0000
0000
0000
0001
0000
,  // measure 74
0000
0000
0000
0000
1000
0000
0000
0000
0000
0000
0001
0000
,  // measure 75
0000
0000
0000
0000
0100
0000
0000
0000
0000
0000
0100
0000
,  // measure 76
0000
0000
0000
0000
0001
0000
0000
0000
0000
0000
1000
0000
,  // measure 77
0000
0000
0000
0000
0010
0000
0000
0000
0000
0000
0010
0000
,  // measure 78
0000
0000
0000
0000
0100
0000
0000
0000
0000
0000
0010
0000
,  // measure 79
0000
0000
0000
0000
1000
0000
0000
0000
0000
0000
1000
0000
,  // measure 80
0000
0000
0000
0000
0100
0000
0000
0000
0000
0000
0010
0000
,  // measure 81
0000
0000
0000
0000
0001
0000
0000
0000
0000
0000
0001
0000
,  // measure 82
0000
0000
0000
0000
1000
0000
0000
0000
0000
0000
0001
0000
,  // measure 83
0000
0000
0000
0000
0100
0000
0000
0000
0000
0000
0010
0000
,  // measure 84
0000
0000
0000
0000
0002
0000
0000
0000
0000
0000
0000
0000
,  // measure 85
0000
0000
0000
0000
,  // measure 86
0003
0000
0000
0000
;
