#TITLE:Sakura Mirage-Drum n World-;
#SUBTITLE:;
#ARTIST:Kairys;
#TITLETRANSLIT:;
#SUBTITLETRANSLIT:;
#ARTISTTRANSLIT:;
#GENRE:;
#CREDIT:;
#BANNER:;
#BACKGROUND:;
#LYRICSPATH:;
#CDTITLE:;
#MUSIC:Sakura Mirage-Drum n World-.mp3;
#OFFSET:-0.100000;
#SAMPLESTART:99.900017;
#SAMPLELENGTH:12.000000;
#SELECTABLE:YES;
#BPMS:0.000000=200.000000
,42.000000=180.000000
,46.000000=200.000000
,178.000000=197.000000
,180.000000=187.000000
,182.000000=180.000000
,184.000000=171.000000
,186.000000=163.000000
,188.000000=148.000000
,190.000000=133.000000
,191.000000=112.000000
,192.000000=100.000000
,193.000000=70.000000
,194.000000=164.000000
,258.000000=200.000000
;
#STOPS:
;
#BGCHANGES:;
#KEYSOUNDS:;
#ATTACKS:;

//---------------dance-single - ----------------
#NOTES:
     dance-single:
     :
     Hard:
     17:
     1.000000,1.000000,0.169725,0.339449,0.742545,773.000000,20.000000,40.000000,0.000000,0.000000,0.000000,1.000000,1.000000,0.169725,0.339449,0.742545,773.000000,20.000000,40.000000,0.000000,0.000000,0.000000:
0000
0000
2001
0000
,
3002
0203
0320
1030
,
1001
0000
0100
0000
0001
1000
0010
0100
,
0001
0000
1000
0000
0001
0000
1000
0000
0100
0010
0000
0001
0100
0001
0000
1000
,
0010
1000
0000
0001
1000
0010
0000
0000
0100
0000
0000
0000
0010
0000
1000
0010
,
0000
0100
0010
0000
0100
0000
0001
1000
0000
0010
1000
0000
0001
0000
1000
0010
,
0000
0010
0100
0000
0001
1000
0001
0000
0100
0001
0100
0000
0010
1000
0010
0000
,
1000
0001
1000
0000
0001
0100
0001
0000
1000
0100
0010
0000
0001
0010
0100
0000
,
1000
0001
1000
0000
0010
0100
0001
0000
0010
0100
1000
0000
0010
0100
0010
0000
,
1000
0001
1000
0000
0001
0100
0010
0000
0100
0010
0100
0010
0100
0010
1000
0001
,
1000
0001
1000
0001
0010
0100
1000
0100
0020
0000
0000
0000
0000
0000
0000
0000
,
0001
0000
0000
0000
0200
0000
0000
0330
,
1001
0000
0000
0000
0001
1000
0100
1000
,
0010
0100
0010
0100
0001
0000
1000
0010
1000
0000
0001
0000
0001
0000
1000
0000
,
0100
0010
0100
0000
0010
0000
0000
0000
0001
0000
0010
0000
0001
0000
0100
0010
,
0100
0000
0010
1000
0010
0000
1000
0000
0001
0100
0001
0000
1000
0010
1000
0000
,
0001
0000
0001
0000
0100
0000
0100
0000
0010
0000
1000
0000
0001
1000
0010
0000
,
0100
0001
0100
0001
0010
0000
0000
0000
0100
0000
1000
0001
1000
0000
0000
0000
,
0010
1000
0010
0000
0100
0001
1000
0000
0010
0100
0001
0000
1000
0010
0000
0010
,
1000
0000
0010
0100
0001
0100
0010
1000
0001
0000
1000
0000
0001
0000
0100
0000
,
0010
1000
0001
0000
1000
0001
0100
0000
0010
0000
1000
0000
0001
0000
0010
0100
,
0010
0000
0100
1000
0100
0000
0010
0000
0001
0000
1000
0000
0010
0000
0100
0000
,
0001
0000
0001
0000
1000
0000
0010
0100
0001
0000
0010
0000
0100
1000
0001
0000
,
0100
0000
1000
0100
0010
0000
1000
0000
0010
0000
0010
0000
0100
0000
0001
0000
,
0001
0000
1000
0010
0100
0010
0100
0001
0010
0000
0100
0000
1000
0001
0010
0000
,
0100
1000
0100
0000
0010
0000
0001
0000
1000
0000
0010
0000
1000
0000
0100
0000
,
0010
0100
1000
0000
0001
0010
0001
0010
0100
0000
1000
0000
0010
0100
0010
0100
,
0001
0000
1000
0001
1000
0000
0010
0000
0100
0000
0001
0000
1000
0000
0001
0100
,
0001
0000
1000
0010
0100
0001
1000
0010
1000
0000
0001
0000
0100
0000
0000
0000
,
0002
0000
1003
0000
0010
1000
0001
0100
,
0002
0000
0023
0000
0230
0000
0000
1300
,
0020
0000
0000
0000
0130
0000
0000
0000
0000
0000
0001
1000
0001
0000
0010
0000
,
0100
1000
0010
0000
0100
0001
2000
0000
,
3002
0000
0203
0000
0310
1000
0000
0100
,
2000
0000
0001
0000
3020
0000
0000
0230
,
0000
0302
1003
1001
,
0110
0000
0101
0000
1000
0010
1000
0000
,
0001
0000
0000
0000
0100
0000
0000
0000
0001
0100
0001
0000
0100
0000
0010
1000
,
0010
0000
0100
0000
0001
1000
0001
0000
1000
0000
0010
0000
0100
0000
0010
1000
,
0010
0000
0100
0000
0010
0100
0010
0000
1000
0000
0001
0100
0010
0000
0100
0000
,
0001
0010
0200
0000
1300
0010
0200
0000
,
0301
0000
1000
0000
0010
0000
0100
0001
0100
0000
0010
0000
1000
0000
0010
0100
,
0001
0000
1000
0010
1000
0000
0001
0000
0100
0000
0001
0000
0010
0000
0100
1000
,
0100
0000
0010
0000
0001
0000
1000
0010
0100
0000
0001
0000
0010
0100
1000
0010
,
0100
1000
0001
0010
0100
0001
0010
0100
1000
0000
0001
0000
0100
0000
0010
0000
,
0100
0001
1000
0100
0001
0100
1000
0010
,
0100
0010
0100
1000
0100
0001
1000
0010
,
0100
0001
1000
0001
0010
0100
1000
0100
,
0010
0001
1000
0100
0020
0000
0032
0000
,
2003
3010
1001
0010
,
2010
3001
0021
0130
,
1000
0210
0302
2003
,
3010
0100
0001
0100
0102
0000
1003
0000
,
1000
0010
0210
0310
,
2001
3001
0010
0100
,
2100
3020
0230
0302
,
1003
0001
1000
0010
0100
0000
0010
0100
,
0001
1000
0100
1000
0020
0000
0130
0001
,
1000
0010
1000
0000
0010
0000
0100
0001
0100
0000
0010
0000
1000
0000
0001
0000
,
1000
0000
0100
0000
0010
0000
0001
0000
1000
0010
0000
0000
0010
0000
0100
0001
,
0100
0000
0010
1000
0001
0000
0100
0001
0010
0000
0100
0000
1000
0000
0010
0000
,
1000
0000
0001
0000
0100
0000
0010
1000
0010
0000
0100
0000
0010
0000
1000
0001
,
1000
0001
0100
0000
0010
0000
1000
0001
0100
0000
0010
1000
0100
0000
0010
0001
,
0100
0010
1000
0001
1000
0000
0010
0000
0110
0000
0100
0000
0001
0000
1000
0000
,
0010
0100
0001
0100
0010
1000
0001
1000
0020
0000
0000
0000
0000
0000
0000
0000
,
0000
0000
0100
0000
,
1030
0000
0001
1000
0010
0000
0100
0000
,
0001
1000
0100
0010
0001
1000
0100
0010
,
0001
0000
1000
0010
1000
0000
0010
0100
,
0001
0000
0100
0000
1000
0000
0100
0000
0001
0100
1000
0000
1000
0100
0001
0000
,
0001
0010
1000
0000
1000
0010
0001
0000
0100
0000
0000
0000
0010
0000
0000
0000
,
1000
0010
1000
0001
0100
0001
0100
0000
1001
0000
0000
0000
0110
0000
0000
0000
,
0101
0000
0000
0000
1001
0000
0000
0000
0001
0010
0100
0000
1000
0010
0100
0000
,
0001
1000
0010
0000
0100
0000
0010
0000
1000
0000
0001
0000
0010
0000
0100
1000
,
0100
0000
0010
0000
0001
1000
0001
1000
0010
0000
0010
0000
0100
0000
0001
0000
,
0001
0000
1000
0000
0010
0100
0001
0100
0010
0000
1000
0000
0001
0010
0001
1000
,
0100
0000
0010
0000
0001
0000
1000
0010
1000
0000
0100
0000
0010
0001
0010
0001
,
0100
0000
0010
0000
1000
0010
1000
0001
0100
0000
0010
0000
1000
0010
0100
0001
,
0010
0000
0100
0000
1000
0001
0100
0001
0010
0000
0001
0000
1000
0010
1000
0000
,
0001
0000
0100
0000
0001
0010
0100
1000
0100
0000
0010
0000
0001
0000
0010
0100
,
0010
0000
0001
1000
0010
0000
0100
0000
0101
0000
0001
0000
1000
0000
0010
0000
,
0010
0000
0100
0000
0010
1000
0010
1000
0001
0000
0100
0000
0001
0000
1000
0010
,
0001
0000
0010
0000
1000
0100
1000
0001
0100
0000
0200
0000
0010
0000
0320
0000
,
1000
0000
1030
0000
0001
1000
0001
1000
0100
0000
0100
0000
0010
0000
0001
0010
,
0100
0010
0001
0000
1000
0000
0001
0000
1000
0100
0001
0100
1000
0000
0001
0010
,
0001
0000
0100
0000
0010
0100
1000
0100
0010
0000
0100
0000
0001
0000
1000
0010
,
0001
0010
1000
0000
0001
1000
0100
0000
0010
0001
0010
0100
1000
0000
0010
1000
,
0001
0000
0100
0000
0001
0100
1000
0100
0010
0000
1000
0000
0100
0001
0100
1000
,
0001
0000
0010
0000
0001
0000
0100
0000
0010
1000
0010
0100
0001
0100
0010
1000
,
0100
0010
0001
0100
0010
1000
0001
0100
0020
0000
0000
0000
0000
0000
0000
0000
,
0000
0000
0000
0000
,
0000
0000
0000
0130
0000
0000
0000
0000
;

//---------------dance-single - ----------------
#NOTES:
     dance-single:
     :
     Medium:
     12:
     0.732240,0.620343,0.101835,0.364908,0.063647,549.000000,12.000000,43.000000,0.000000,0.000000,0.000000,0.732240,0.620343,0.101835,0.364908,0.063647,549.000000,12.000000,43.000000,0.000000,0.000000,0.000000:
0000
0000
2001
0000
,
3002
0203
0320
1030
,
1001
0000
0100
0000
0001
1000
0010
0100
,
0001
1000
0001
1000
0100
0010
0001
0000
,
0001
1000
0100
0000
0100
0000
0010
0001
,
1000
0000
0010
1000
0001
1000
0001
0100
,
0010
0000
1000
0000
0001
0000
0001
0000
0100
0010
0000
0000
0010
1000
0000
0000
,
1000
0001
0000
0000
0001
0010
0000
0000
0010
0100
0000
0000
0100
1000
0000
0000
,
1000
0001
0000
0000
0001
0100
0000
0000
0100
0010
0000
0000
0010
1000
0000
0000
,
1000
0001
0000
0000
0001
0100
0000
0000
0100
0020
0000
0000
0000
0000
0000
0000
,
0000
0000
2030
0000
,
0000
0000
0000
0000
0002
0000
0000
3003
,
1001
0000
0000
0000
0010
0100
0001
0100
,
0010
1000
0100
0000
0010
0001
0010
0100
,
0010
0001
1000
0000
0001
1000
0001
0100
,
0010
0100
0001
0010
0002
0000
2003
0000
,
3010
0100
0010
1000
0100
1000
0001
0010
,
0002
0000
0203
0000
0310
1000
0001
0000
,
0100
0010
1000
0000
0001
0100
0010
0000
,
1000
0001
1000
0001
0100
0010
0100
0010
,
1000
0001
1000
0100
0010
0001
0010
0100
,
1000
0100
1000
0001
0100
1000
0100
0001
,
0010
0100
1000
0010
0001
0010
0100
0001
,
0100
0010
1000
0010
0100
0001
0010
0001
,
0010
0100
1000
0001
1000
0010
0100
0001
,
0100
0010
1000
0001
1000
0100
0010
0100
,
1000
1000
0001
0001
0100
0010
0100
0001
,
1000
0100
0010
0001
0100
0010
1000
0001
,
1000
0010
0100
0001
0010
0100
0010
0000
,
0001
0000
2000
0000
0000
0000
0000
3001
,
0000
0000
0000
0200
0000
0000
0000
0000
0000
0000
0000
0000
0000
0000
0310
0000
,
0000
0000
2000
0000
0000
3001
0010
0100
,
1000
0010
0100
0000
0001
1000
0001
0000
,
0100
0000
0002
0000
0000
0000
0000
1003
,
0000
0000
0000
0020
0000
0000
0000
0000
0000
0000
0000
0000
0000
0000
1030
0000
,
0000
0200
0310
0011
,
1001
0000
1100
0000
1000
0010
0100
0000
,
0001
0000
0100
0000
0001
1000
0001
0010
,
0001
0100
0010
1000
0010
0100
0010
1000
,
0100
1000
0001
1000
0010
0100
0001
0010
,
0100
1000
0200
0000
0310
0001
2000
0000
,
3100
1000
0100
0010
0001
1000
0001
0100
,
0010
0100
0010
0001
0010
1000
0010
0100
,
0001
1000
0001
1000
0100
0010
0001
1000
,
0100
0001
0100
1000
0020
0000
0230
0000
,
0302
2003
3200
0320
,
0032
2003
3020
0230
,
0302
0203
2300
3200
,
0302
2003
3010
0100
,
0001
0100
0010
1000
,
0010
0100
0001
0010
,
0100
1000
0010
0100
,
0010
1000
0001
1000
0010
0000
0100
0000
,
0001
0010
0001
1000
,
0100
1000
0010
0100
,
0001
0100
0010
2000
,
3001
0001
1000
0010
1000
0000
0010
0100
,
0001
1000
0100
1000
0020
0000
0130
0001
,
1000
0001
0100
0001
0100
0000
0010
0000
,
1000
0001
0010
0100
1000
0010
1000
0001
,
0100
0010
1000
0001
1000
0000
0010
0000
,
0100
0010
1000
0001
0010
0001
1000
0001
,
1000
0100
0010
0001
0010
0100
1000
0010
,
0100
1000
0100
0010
0100
0001
1000
0001
,
0010
0100
1000
0001
0200
0000
0000
0000
,
0000
0000
0010
0000
,
0310
0000
1000
0001
1000
0000
0100
0000
,
1000
0010
0100
0001
0010
0100
1000
0010
,
0100
0000
0001
0010
0100
0000
1000
0001
,
1000
0100
1000
0010
0110
0000
0101
0000
,
0010
1000
0100
1000
0001
0000
0010
0000
,
0100
1000
0100
0010
0011
0000
0110
0000
,
1100
1001
0002
0023
,
0230
0000
2300
0000
3001
0100
0001
1000
,
0010
1000
0001
0100
0001
0010
0100
1000
,
0001
0000
1000
0010
0100
0001
0010
0001
,
1000
0100
1000
0001
0010
0100
1000
0010
,
0100
0000
0001
0100
0010
0100
0001
1000
,
0010
1000
0001
0100
0001
0010
0100
1000
,
0100
0000
0010
0001
1000
0001
0100
0010
,
1000
0010
0100
0001
0010
0100
1000
0010
,
0100
0000
0010
0100
0010
1000
0100
1000
,
0001
0010
0001
1000
0010
0010
0100
0100
,
0001
0001
1000
1000
0100
0010
0001
0010
,
0100
1000
0010
0100
1000
0100
0001
1000
,
1000
0000
0001
1000
0001
0010
0100
1000
,
0100
0010
0100
0010
0001
1000
0001
0010
,
0010
0000
0001
1000
0010
1000
0100
0010
,
0001
1000
0010
0100
0001
1000
0001
1000
,
0100
0010
0100
0010
0002
0000
0000
0000
,
0000
0000
0000
0000
,
0000
0000
0000
0013
0000
0000
0000
0000
;

//---------------dance-single - ----------------
#NOTES:
     dance-single:
     :
     Easy:
     6:
     0.498263,0.542800,0.093348,0.297018,0.000000,365.000000,11.000000,35.000000,0.000000,0.000000,0.000000,0.498263,0.542800,0.093348,0.297018,0.000000,365.000000,11.000000,35.000000,0.000000,0.000000,0.000000:
0000
0000
2000
0000
,
3002
0023
0230
2300
,
3020
0130
0001
1000
,
0100
0010
0001
1000
,
0010
1000
0001
0100
,
0001
1000
0010
1000
,
0100
0010
0002
0023
,
0230
2300
3020
0230
,
0320
2030
3002
2003
,
3200
0320
0032
0000
,
0000
0000
2003
0000
,
0000
0000
0000
0000
0002
0000
0000
3003
,
0110
0000
0010
1000
,
0001
0010
0100
1000
,
0010
0100
0001
0000
1000
0000
0010
0000
,
0100
0001
0002
2003
,
3010
0010
0100
0001
,
1000
0010
0200
0000
0310
0000
1000
0000
,
0001
0100
0010
1000
,
0100
0010
0001
0010
,
0100
1000
0010
0100
,
0010
1000
0001
0010
,
0001
0000
1000
0001
1000
0000
0010
0000
,
0100
0001
0100
0010
,
1000
0000
0001
0010
0100
0000
1000
0000
,
0100
0010
0001
1000
,
0010
0000
1000
0010
1000
0000
0001
0000
,
0100
0010
1000
0100
,
0010
0000
0001
0000
0010
0100
0010
0000
,
0002
0000
0000
0000
,
2003
0000
3020
0000
,
0000
0000
0000
0000
0000
1030
0001
1000
,
0001
1000
0001
0000
1000
0010
1000
0000
,
0200
0000
0000
0000
,
0320
0000
0032
0000
,
0000
1003
0110
1001
,
1001
0000
0110
0000
0100
0001
1000
0000
,
0001
0000
0010
0000
0100
1000
0100
0000
,
0010
0001
0010
0000
0100
0000
1000
0000
,
0010
0000
0100
0000
0001
1000
0001
0100
,
0010
1000
0020
0000
0130
0001
0200
0000
,
0310
0000
1000
0000
0001
1000
0001
0000
,
0010
0100
0010
0000
0100
0000
1000
0000
,
0010
0000
0100
0000
0001
0000
1000
0100
,
1000
0001
0100
0001
0010
0000
0100
0000
,
1000
0100
0010
0001
,
0100
0010
1000
0001
,
0100
0010
1000
0001
,
0010
0001
2000
0000
,
3001
0000
0100
0000
,
0010
0000
0100
0000
,
0001
1000
0001
0010
,
0100
1000
0100
1000
0100
0000
0000
0000
,
0010
0000
0001
0000
,
1000
0000
0001
0000
,
0100
0010
1000
0001
,
1000
0001
1000
0001
1000
0000
0010
0000
,
0100
0001
0100
0001
0100
0000
0010
0000
,
1000
0010
0100
0001
,
1000
0001
1000
0000
0001
0000
0010
0000
,
0100
0010
0100
0000
1000
0000
0001
0000
,
0100
0010
0100
0010
0100
0000
0010
0000
,
1000
0001
1000
0000
0010
1000
0010
0000
,
0100
0000
0001
1000
0001
0000
0100
0000
,
0001
0000
0100
0001
2000
0000
0000
0000
,
0000
0000
0001
0000
,
3001
1000
0010
0100
,
0001
0100
0010
1000
,
0100
0010
0001
1000
,
0010
1000
1001
1001
,
0010
0100
0001
0010
,
0100
0010
0110
0110
,
1001
1001
0001
1000
,
0010
0100
0001
0100
,
0010
0000
1000
0000
0001
0000
1000
0001
,
1000
0010
0100
0010
,
1000
0000
0001
0000
0010
0000
0100
1000
,
0100
0010
0001
0010
,
0100
0000
1000
0000
0010
0000
0100
0010
,
0100
0010
1000
0100
,
1000
0000
0100
0000
0010
0000
0001
0010
,
0100
1000
0001
0010
,
0100
0010
0001
1000
,
0010
0000
1000
0100
1000
0000
0001
0000
,
0100
0000
0010
0000
1000
0000
0001
0010
,
0001
1000
0100
1000
,
0010
0000
0100
0000
0001
0000
0010
0100
,
1000
0001
0100
0010
,
1000
0000
0001
0000
1000
0010
0100
0000
,
0001
0010
0100
0000
2000
0000
0000
0000
,
0000
0000
0000
0000
,
0000
0000
0000
3000
0000
0000
0000
0000
;

//---------------dance-single - ----------------
#NOTES:
     dance-single:
     :
     Beginner:
     3:
     0.233977,0.310172,0.000000,0.186697,0.000000,171.000000,0.000000,22.000000,0.000000,0.000000,0.000000,0.233977,0.310172,0.000000,0.186697,0.000000,171.000000,0.000000,22.000000,0.000000,0.000000,0.000000:
// measure 0
0000
0000
0002
0000
,  // measure 1
2003
3000
0020
0030
,  // measure 2
0200
0300
1000
0000
,  // measure 3
0010
0000
1000
0000
,  // measure 4
0100
0000
1000
0000
,  // measure 5
0001
0000
0100
0000
,  // measure 6
0010
0000
2000
3000
,  // measure 7
0020
0030
0200
0300
,  // measure 8
0020
0030
2000
3000
,  // measure 9
0002
0003
2000
0000
,  // measure 10
0000
0000
3002
0000
,  // measure 11
0000
0000
1003
0000
,  // measure 12
0010
0000
0100
0000
,  // measure 13
1000
0000
0010
0000
,  // measure 14
0100
0000
0001
0000
,  // measure 15
0010
0000
2000
3000
,  // measure 16
0100
0000
0010
0000
,  // measure 17
0001
0000
0100
0000
,  // measure 18
1000
0000
0100
0000
,  // measure 19
0010
0000
1000
0000
,  // measure 20
0010
0000
0100
0000
,  // measure 21
0100
0000
1000
0000
,  // measure 22
1000
0000
0001
0000
,  // measure 23
0010
0000
0010
0000
,  // measure 24
0001
0000
0010
0000
,  // measure 25
0010
0000
1000
0000
,  // measure 26
0100
0000
0001
0000
,  // measure 27
0010
0000
0001
0000
,  // measure 28
0100
0000
0100
0000
,  // measure 29
2000
0000
0000
0000
,  // measure 30
3002
0000
0203
0000
,  // measure 31
0000
0000
0000
0301
,  // measure 32
0000
1000
0000
0010
,  // measure 33
0020
0000
0000
0000
,  // measure 34
0230
0000
2300
0000
,  // measure 35
0000
3001
0000
0000
,  // measure 36
0100
0000
0010
0000
,  // measure 37
1000
0000
0010
0000
,  // measure 38
0100
0000
0010
0000
,  // measure 39
0100
0000
1000
0000
,  // measure 40
0001
0000
0010
0000
,  // measure 41
0100
0000
1000
0000
,  // measure 42
0100
0000
0010
0000
,  // measure 43
0100
0000
1000
0000
,  // measure 44
0001
0000
0100
0000
,  // measure 45
0001
0000
0100
0000
,  // measure 46
0010
0000
0001
0000
,  // measure 47
0010
0000
0001
0000
,  // measure 48
0100
0000
0020
0000
,  // measure 49
1030
0000
0010
0000
,  // measure 50
0100
0000
0010
0000
,  // measure 51
1000
0000
1000
0000
,  // measure 52
0010
0000
0010
0000
,  // measure 53
0100
0000
1000
0000
,  // measure 54
0001
0000
1000
0000
,  // measure 55
0010
0000
0001
0000
,  // measure 56
0001
0000
0001
0000
,  // measure 57
0010
0000
0010
0000
,  // measure 58
0001
0000
0010
0000
,  // measure 59
0001
0000
1000
0000
,  // measure 60
0010
0000
0001
0000
,  // measure 61
0010
0000
0010
0000
,  // measure 62
0001
0000
0100
0000
,  // measure 63
0010
0000
1000
0000
,  // measure 64
1000
0000
0020
0000
,  // measure 65
0000
0000
0000
0000
,  // measure 66
0130
0000
0100
0000
,  // measure 67
1000
0000
0100
0000
,  // measure 68
0010
0000
1000
0000
,  // measure 69
0100
0000
0001
0000
,  // measure 70
0100
0000
1000
0000
,  // measure 71
0010
0000
0010
0000
,  // measure 72
0001
0000
1000
0000
,  // measure 73
0100
0000
1000
0000
,  // measure 74
0100
0000
1000
0000
,  // measure 75
0001
0000
0010
0000
,  // measure 76
0001
0000
0100
0000
,  // measure 77
0010
0000
1000
0000
,  // measure 78
0010
0000
0100
0000
,  // measure 79
0010
0000
0001
0000
,  // measure 80
0001
0000
0100
0000
,  // measure 81
0010
0000
1000
0000
,  // measure 82
0010
0000
1000
0000
,  // measure 83
0100
0000
0001
0000
,  // measure 84
0010
0000
0001
0000
,  // measure 85
1000
0000
0010
0000
,  // measure 86
0100
0000
1000
0000
,  // measure 87
0001
0000
0010
0000
,  // measure 88
0001
0000
0001
0000
,  // measure 89
1000
0000
0002
0000
,  // measure 90
0000
0000
0000
0000
,  // measure 91
0000
0000
0000
0003
0000
0000
0000
0000
;
