#TITLE:Saika;
#SUBTITLE:;
#ARTIST:Rabpit;
#TITLETRANSLIT:;
#SUBTITLETRANSLIT:;
#ARTISTTRANSLIT:;
#GENRE:;
#CREDIT:;
#BANNER:saika-bn.png;
#BACKGROUND:saika-bg.png;
#LYRICSPATH:;
#CDTITLE:;
#MUSIC:Saika.mp3;
#OFFSET:-0.100000;
#SAMPLESTART:25.538464;
#SAMPLELENGTH:12.000000;
#SELECTABLE:YES;
#BPMS:0.000000=128.000000
;
#STOPS:
;
#BGCHANGES:;
#KEYSOUNDS:;
#ATTACKS:;

//---------------dance-single - ----------------
#NOTES:
     dance-single:
     :
     Hard:
     15:
     0.688619,1.060648,0.422057,0.533124,0.477590,651.000000,594.000000,57.000000,72.000000,0.000000,0.000000,0.688619,1.060648,0.422057,0.533124,0.477590,651.000000,594.000000,57.000000,72.000000,0.000000,0.000000:
// measure 0
0000
0000
0000
0000
,  // measure 1
0000
0000
0000
0000
,  // measure 2
0001
0000
0100
0000
0010
0000
1000
0001
1000
0001
1000
0000
0001
0000
0010
0000
,  // measure 3
0100
0000
1000
0000
0010
0000
0100
0010
0100
0010
0100
0000
0001
0000
1000
0000
,  // measure 4
0100
0000
0010
0000
0001
0000
1000
0100
1000
0100
1000
0000
0100
0000
0010
0000
,  // measure 5
0001
0000
0100
0000
0010
0000
0100
0001
0100
0001
0100
0000
0010
0000
0100
0000
,  // measure 6
1001
0000
0010
0000
1010
0000
1000
0001
1000
0001
1000
0000
0001
0000
0010
0000
,  // measure 7
1100
0000
1000
0000
1001
0000
0100
0010
0100
0010
0100
0000
0001
0000
1000
0000
,  // measure 8
1001
0000
0010
0000
0110
0000
0100
0001
0100
0001
0100
0000
0010
0000
1000
0000
,  // measure 9
0101
0001
1100
0100
0010
0002
0023
0230
,  // measure 10
2300
3010
0100
0001
0100
1000
0001
0020
,  // measure 11
0130
0010
1000
0100
0010
0100
1000
0002
,  // measure 12
0103
1000
0100
0001
0010
1000
0020
0032
,  // measure 13
0103
1000
0100
0010
1000
0002
0023
0230
,  // measure 14
2300
3001
0100
1000
0001
0010
2000
3002
,  // measure 15
0103
0001
0010
0100
0010
0001
0020
0230
,  // measure 16
1300
0001
1000
0001
1000
0001
1000
0001
1000
0001
1000
0001
1000
0001
1000
0001
,  // measure 17
1000
0001
1000
0001
1000
0001
1000
0001
1000
0001
1000
0001
0100
0010
0100
0010
,  // measure 18
0100
0110
0000
0101
0000
1010
0000
1001
,  // measure 19
0000
0110
0000
0001
0010
0100
1000
0001
,  // measure 20
0000
1001
0000
1000
0010
0100
0001
0010
,  // measure 21
0000
0100
0000
1000
0100
0010
0001
1000
,  // measure 22
0000
1001
0000
1001
0000
0110
0000
0001
,  // measure 23
1000
0001
0000
0010
0000
0100
1000
0100
,  // measure 24
0000
0010
0000
0001
0000
1000
0010
1000
,  // measure 25
0000
0000
0010
0000
0100
0001
0100
0010
1000
0000
0002
0000
2003
0000
3002
0000
,  // measure 26
2003
3000
0002
0200
0000
0003
0320
2000
,  // measure 27
0000
0030
3200
0020
0000
0300
0032
2000
,  // measure 28
0003
3020
0000
0230
0000
0301
0010
0200
,  // measure 29
0000
2300
0000
3100
0010
0002
0000
2003
,  // measure 30
0000
0000
3002
0000
,  // measure 31
0203
0000
0000
0010
0000
0010
0000
0020
,  // measure 32
0000
0000
0000
0000
0000
0330
1001
0000
,  // measure 33
1001
0000
0000
0000
0010
0000
0100
0000
0001
0000
1000
0000
0010
0100
0010
0100
,  // measure 34
1001
0000
1000
0010
0100
0000
0001
0000
0101
0000
0100
0000
0110
0000
0010
0000
,  // measure 35
1010
0000
1000
0001
0010
0000
0100
0000
0110
0000
0010
0000
0011
0000
0001
0000
,  // measure 36
1001
1000
1010
0010
0110
0100
0101
0001
,  // measure 37
1001
1000
1100
0100
0110
0020
0032
2003
,  // measure 38
3200
0000
0310
0001
0010
0000
0100
0000
1100
0000
1000
0000
1010
0000
0010
0000
,  // measure 39
0110
0000
0100
0001
1000
0000
0001
0000
1001
0000
1000
0000
1010
0000
0010
0000
,  // measure 40
0110
0100
0101
0001
1001
1000
1010
0010
,  // measure 41
0110
0100
0101
0001
0011
0020
0230
2300
,  // measure 42
3002
0000
0013
0100
0010
0000
0001
0000
1000
0000
0002
0000
0203
0000
2300
0000
,  // measure 43
3200
0000
0301
1000
0001
0000
0100
0000
0010
0000
2000
0000
3002
0000
0203
0000
,  // measure 44
0320
0000
1030
0001
1000
0000
0001
0000
0100
0000
0002
0000
2003
0000
3200
0000
,  // measure 45
2300
0000
3100
0010
0100
0000
1000
0000
0100
0000
0010
0000
0001
0000
0100
0000
,  // measure 46
0110
0000
0010
1000
0001
0000
1001
0000
1000
0000
0001
0010
0100
0000
0110
0000
,  // measure 47
0010
0000
0001
1000
0100
0000
1100
0000
1000
0000
0010
0100
0001
0000
1001
0000
,  // measure 48
0100
0010
0100
0010
0100
0010
0100
0010
0100
0010
0100
0010
0100
0010
0100
0010
,  // measure 49
0100
0001
0010
0100
1000
0100
0010
0001
0010
0100
1000
0100
0010
0001
0010
0100
1000
0100
0010
0001
0010
0100
1000
0001
,  // measure 50
2000
0000
0000
3200
0000
0000
0320
0000
0000
0032
0000
0000
1003
0000
0000
0000
,  // measure 51
1001
0000
1000
0010
0100
0000
0001
0000
0010
0100
1000
0000
0001
0100
0000
0000
,  // measure 52
0101
0000
0100
0010
1000
0000
0001
0000
0010
0100
1000
0000
0010
0100
0000
0000
,  // measure 53
0110
0000
0010
1000
0001
0000
1000
0000
0100
0010
0001
0000
1000
0001
0000
0000
,  // measure 54
0011
0000
0010
0100
1000
0000
0100
0000
0010
0001
1000
0000
0010
0100
0010
0100
,  // measure 55
1001
0000
0001
0100
0010
0000
1000
0000
0100
0010
0001
0000
1000
0010
0000
0000
,  // measure 56
1010
0000
0010
0100
0001
0000
1000
0000
0100
0010
0001
0000
0100
0010
0000
0000
,  // measure 57
0110
0000
0100
0001
1000
0000
0001
0000
0010
0100
1000
0000
0001
1000
0000
0000
,  // measure 58
1100
0000
0100
0010
0001
0000
0010
0000
0100
1000
0001
0000
0100
0010
0100
0010
,  // measure 59
2000
0000
0000
0000
0000
0000
0001
0000
3001
0100
0001
0100
0001
0100
0001
0100
,  // measure 60
0010
0000
0000
1000
0000
0000
0001
0000
1000
0001
1000
0001
1000
0001
1000
0001
,  // measure 61
0020
0000
0000
0000
0000
0000
0100
0000
0130
1000
0100
1000
0100
1000
0100
1000
,  // measure 62
0100
0000
0000
0010
0000
0000
0001
0000
1000
0000
0200
0000
0320
0000
0032
0000
,  // measure 63
0203
0000
0000
0000
0000
0000
0010
0000
0310
0100
0010
0100
0010
0100
0010
0100
,  // measure 64
0010
0000
0000
1000
0000
0000
0001
0000
0010
0001
0010
0001
0010
0001
0010
0001
,  // measure 65
2000
0000
0000
0000
0000
0000
0001
0000
3001
0100
0001
0100
0001
0100
0001
0100
,  // measure 66
0001
1000
0100
1000
0000
0010
0100
0001
0100
0000
0020
0000
2030
0000
3002
0000
,  // measure 67
0203
0301
1000
0000
0010
0000
0100
0010
,  // measure 68
0100
0010
0100
0010
0100
0010
0100
0010
,  // measure 69
0100
0010
0100
0010
0100
0010
0100
0010
;

//---------------dance-single - ----------------
#NOTES:
     dance-single:
     :
     Medium:
     12:
     0.441097,0.440568,0.022214,0.673810,0.107365,417.000000,414.000000,3.000000,91.000000,0.000000,0.000000,0.441097,0.440568,0.022214,0.673810,0.107365,417.000000,414.000000,3.000000,91.000000,0.000000,0.000000:
0000
0000
0000
0000
,
0000
0000
0000
0000
,
0001
1000
0010
0000
1000
0010
0100
0001
,
0010
0100
1000
0000
0001
1000
0100
0010
,
0001
1000
0100
0000
0010
1000
0001
1000
,
0100
0010
0100
0000
0010
0001
1000
0010
,
0100
0001
1000
0000
0010
1000
0001
0000
,
1000
0100
0010
0000
0100
0010
0001
0000
,
1000
0010
0100
0000
0001
0010
0100
0000
,
1000
0001
0100
0000
0001
2000
3002
0023
,
0230
1300
0100
0010
0001
0000
1000
0200
,
1300
0001
0100
0010
0100
0000
0001
0020
,
0031
0100
0010
1000
0100
0000
0020
0032
,
1003
0100
1000
0010
0100
0002
0023
0230
,
2300
3001
0100
0010
1000
0000
0002
0023
,
0130
1000
0001
0010
0001
0000
0020
0230
,
1300
0100
1000
0001
0100
0001
0020
0230
,
1300
0001
1000
0001
0100
0010
0100
0010
,
1000
0002
0000
0023
0000
0230
0000
2300
,
0000
3020
0000
0130
0010
0100
0001
2000
,
0000
3002
0000
0103
0010
1000
0001
0020
,
0000
0230
0000
1300
0100
0010
0001
2000
,
0000
3200
0000
0320
0000
0032
0000
0013
,
0100
2000
0000
3020
0000
0130
0001
2000
,
0000
3200
0000
0320
0000
0031
0010
0200
,
0000
1300
0000
0100
0000
0020
0032
2003
,
3002
0003
0100
0020
0000
0000
1030
0002
,
0000
0000
0013
0200
0000
0000
1300
0200
,
0000
0320
0000
0032
0000
1003
0001
0200
,
0000
0320
0000
1030
0001
0200
0000
0320
,
0000
0000
2030
0000
,
3200
0000
0000
0320
0000
0032
0000
2003
,
0000
0000
0000
3001
,
1001
0000
1000
0010
0100
0000
0101
0000
,
0001
0010
0100
0010
0001
0100
0010
0000
,
1000
0100
0010
0100
1000
0010
0100
0000
,
0001
0100
0010
0100
0001
0010
0100
0000
,
1000
0010
0100
0010
1000
0002
0023
0230
,
2300
3001
1000
0100
0001
0100
1000
0000
,
0001
0100
1000
0100
0001
0100
0010
0000
,
1000
0001
0100
0001
0010
0100
1000
0000
,
0100
0010
0001
1000
0010
0200
0320
2030
,
3002
0013
0100
1000
0100
0020
0032
0203
,
0320
1030
0001
0100
0001
0020
0230
2300
,
3002
1003
0010
1000
0001
0020
0230
2300
,
3002
0103
0010
0100
0001
1000
0001
0010
,
0100
0010
0001
0001
1000
0001
0100
0100
,
0010
1000
0001
0001
0010
0100
1000
1000
,
0001
0010
0100
1000
0001
0010
0100
1000
,
0002
0000
0000
0000
,
0103
0000
0000
0010
0000
0000
1000
0000
0000
0001
0000
0000
0100
0000
0000
0000
,
0001
0000
0000
0001
0000
0000
0010
0000
0000
0100
0000
0000
1000
0001
0000
0000
,
0100
0000
0000
0100
0000
0000
0010
0000
0000
1000
0000
0000
0001
0100
0000
0000
,
0010
0000
0000
0010
0000
0000
0001
0000
0000
0100
0000
0000
0001
1000
0000
0000
,
0001
0000
0000
0001
0000
0000
0010
0000
0000
0100
0000
0000
1000
0100
0000
0000
,
1000
0000
0000
1000
0000
0000
0001
0000
0000
0100
0000
0000
0010
0100
0000
0000
,
0010
0000
0000
0010
0000
0000
1000
0000
0000
0001
0000
0000
1000
0010
0000
0000
,
1000
0000
0000
1000
0000
0000
0001
0000
0000
0100
0000
0000
0010
0100
0000
0000
,
0001
0000
0000
0001
0000
0000
1000
0000
0000
0010
0000
0000
0100
0001
0000
0000
,
0200
0000
0000
0000
0301
1000
0001
1000
,
0010
0000
0000
0010
0000
0000
0010
0000
1000
0000
0100
0000
1000
0000
0100
0000
,
0020
0000
0000
0000
0031
0100
0001
0100
,
0001
0000
0000
0001
0000
0000
0001
0000
0100
0000
0020
0000
2030
0000
3002
0000
,
2003
0000
0000
0000
3010
0100
0010
0100
,
0010
0000
0000
0010
0000
0000
0010
0000
1000
0000
0001
0000
1000
0000
0001
0000
,
0020
0000
0000
0000
0130
1000
0100
1000
,
0200
0000
0000
0000
0320
0000
0000
0000
0031
0000
2000
3000
2000
3000
0002
0003
,
0002
0003
0100
0000
0010
0000
0000
0000
0110
0000
0000
0000
0100
0000
0010
0000
,
0100
0010
0100
0010
0100
0010
0100
0020
,
0000
0000
0000
0000
,
0030
0000
0000
0000
;

//---------------dance-single - ----------------
#NOTES:
     dance-single:
     :
     Easy:
     4:
     0.322625,0.336905,0.000000,0.340607,0.000000,305.000000,305.000000,0.000000,46.000000,0.000000,0.000000,0.322625,0.336905,0.000000,0.340607,0.000000,305.000000,305.000000,0.000000,46.000000,0.000000,0.000000:
0000
0000
0000
0000
,
0000
0000
0000
0000
,
0001
1000
0001
0000
0100
0000
0100
0000
,
0010
0100
0010
0000
1000
0000
0001
0000
,
1000
0001
1000
0000
0010
0000
0010
0000
,
0100
0010
0100
0000
0001
0000
1000
0000
,
0001
0001
0001
0000
1000
1000
1000
0000
,
0010
0010
0010
0000
0100
0100
0100
0000
,
0001
0001
0001
0000
1000
1000
1000
0000
,
0010
0010
0010
0000
0000
1000
0001
1000
,
0001
0000
0100
0000
0001
0000
1000
0200
,
0300
0000
0010
0000
0001
0000
1000
0020
,
0031
0000
1000
0000
0001
0000
0200
0302
,
1003
0000
0010
0000
1000
0002
0023
0230
,
2300
3000
0100
0000
0010
0000
0002
0023
,
0030
0000
0001
0000
1000
0000
0020
0230
,
0300
0000
0001
0000
0100
0000
0020
0230
,
0300
0000
1000
0000
0001
0000
1000
0001
,
1000
0001
0000
0001
0000
1000
0000
1000
,
0000
0020
0000
0130
0010
0100
0010
1000
,
0000
1000
0000
0001
0100
0001
0100
0010
,
0000
0010
0000
0100
0001
0100
0001
1000
,
0000
1000
0000
0010
0000
0010
0000
0100
,
0001
0100
0000
0010
0000
0100
0010
0100
,
0000
0001
0000
1000
0000
0001
0100
0001
,
0000
1000
0000
0100
0000
1000
0100
1000
,
0100
0000
0010
0002
0000
0000
0013
0200
,
0000
0000
1300
0002
0000
0000
0013
0100
,
0000
1000
0000
0100
0000
0010
0001
0100
,
0000
0100
0000
0010
1000
0010
0000
0010
,
0000
0000
1000
0000
,
0001
0000
0000
0100
0000
0100
0000
0020
,
0000
0000
0000
0130
,
0100
0000
0010
0100
0020
0000
1030
0000
,
0001
0100
0001
0010
,
0001
0010
0100
1000
,
0010
1000
0001
0100
,
0001
0000
1000
0000
0010
2000
3200
2300
,
3200
0300
0010
0000
0001
0000
0010
0000
,
0100
1000
0010
0100
,
0001
0010
0001
1000
,
0100
0000
1000
0000
0010
0200
0320
0230
,
0320
0030
1000
0000
0001
0020
0032
0023
,
0032
0003
0010
0000
0100
2000
3200
2300
,
3200
0300
0010
0000
0001
2000
3002
2003
,
3002
0003
0100
0000
0010
0000
1000
0000
,
0100
0100
0010
0010
,
0001
0001
1000
1000
,
0010
0010
0100
0100
,
0002
0000
0000
0000
,
1003
0000
0000
0001
0000
0000
1000
0000
,
0001
0000
1000
0000
0001
0010
0001
0000
,
0100
0000
0010
0000
0100
0010
0100
0000
,
0010
0000
1000
0000
0001
0100
0001
0000
,
1000
0000
0100
0000
1000
0100
1000
0000
,
0100
0000
0010
0000
0001
0100
0001
0000
,
1000
0000
0010
0000
0100
0001
0100
0000
,
0010
0000
1000
0000
0001
1000
0001
0000
,
0010
0000
0100
0000
1000
0100
1000
0000
,
0020
0000
1030
0001
,
1000
0000
0010
1000
,
0002
0000
0103
0001
,
0100
0000
0000
0000
0001
0010
0001
0010
,
0200
0000
1300
0001
,
1000
0000
0001
1000
,
0001
0000
0100
0010
,
0200
0000
0000
0000
0300
1000
0001
1000
,
0001
1000
0001
0000
1000
0000
0010
0000
,
0100
0000
0010
0000
0100
0000
0010
0020
,
0000
0000
0000
0000
,
0030
0000
0000
0000
;

//---------------dance-single - ----------------
#NOTES:
     dance-single:
     :
     Beginner:
     2:
     0.148090,0.181410,0.000000,0.118472,0.000000,140.000000,140.000000,0.000000,16.000000,0.000000,0.000000,0.148090,0.181410,0.000000,0.118472,0.000000,140.000000,140.000000,0.000000,16.000000,0.000000,0.000000:
0000
0000
0000
0000
,
0000
0000
0000
0000
,
1000
0000
0010
0000
,
0100
0000
0001
0000
,
0001
0000
0100
0000
,
0010
0000
1000
0000
,
1000
0000
0001
0000
,
0100
0000
0010
0000
,
1000
0000
0001
0000
,
0100
0000
0000
0000
0000
0001
0000
0000
,
1000
0000
0010
0000
0000
0000
0000
0020
,
0030
0000
0100
0000
0000
0000
0000
0200
,
0300
0000
0000
0000
1000
0000
0010
0010
,
0000
0000
0100
0000
0000
1000
0000
0000
,
0001
0000
0000
0000
0100
0000
0000
1000
,
0000
0000
1000
0000
0000
0000
0000
0020
,
0030
0000
1000
0000
0000
0000
0000
0001
,
0000
0001
0000
0001
,
0000
1000
0000
0000
0000
0001
0000
0000
,
0000
0200
0000
0310
0000
0000
0000
0001
,
0000
0000
0000
1000
0000
0000
0000
0100
,
0000
0000
0000
0010
0000
0000
0000
0001
,
0000
0000
0000
0100
0000
0000
0000
0010
,
0000
0000
0000
0100
0000
0000
0000
0010
,
0000
0000
0000
0001
0000
0000
0000
1000
,
0000
0000
0000
0010
0000
0000
0000
0001
,
0000
0000
0000
2000
0000
0000
3000
0020
,
0000
0000
0030
2000
0000
0000
3000
0000
,
0000
0001
0000
0000
0000
0100
0000
0000
,
0000
0010
0000
0000
0000
0100
0000
0000
,
0000
0000
0001
0000
,
1000
0000
0000
0000
0000
0100
0000
0200
,
0000
0000
0000
0310
,
0000
0100
0200
0301
,
0000
0010
0000
0100
,
0000
0100
0000
0001
,
0000
0001
0000
0010
,
0000
0000
0001
0000
0000
0001
0000
0000
,
0010
0000
1000
0000
,
0010
0000
0100
0000
,
1000
0000
1000
0000
,
0010
0000
0100
0000
,
0100
0000
0000
0000
1000
0100
0000
0000
,
1000
0000
0000
0000
0010
0001
0000
0000
,
0020
0030
0000
0000
1000
0000
0000
0001
,
1000
0000
0100
0000
,
0010
0000
0100
0000
,
1000
0000
0001
0000
,
0100
0000
0010
0000
,
2000
0000
0000
0000
,
3001
0000
0000
1000
0000
0000
0001
0000
,
1000
0000
1000
0000
,
0010
0000
0010
0000
,
0100
0000
1000
0000
,
0001
0000
0001
0000
,
0010
0000
1000
0000
,
0001
0000
0010
0000
,
0100
0000
1000
0000
,
0100
0000
0001
0000
,
0200
0000
0301
0000
,
0001
0000
0100
0000
,
2000
0000
3010
0000
,
0010
0000
1000
0000
,
0020
0000
0031
0000
,
0001
0000
1000
0000
,
1000
0000
0010
0000
,
0020
0000
0030
1000
,
0000
1000
0000
0100
,
0000
0000
0100
0000
0000
0000
0000
0200
,
0000
0000
0000
0000
,
0300
0000
0000
0000
;
