#TITLE:SPARKLING FANTASY;
#SUBTITLE:;
#ARTIST:Music by BlackY Vocal by ayu;
#TITLETRANSLIT:;
#SUBTITLETRANSLIT:;
#ARTISTTRANSLIT:;
#GENRE:;
#CREDIT:;
#BANNER:;
#BACKGROUND:SPARKLING FANTASY-bg.png;
#LYRICSPATH:;
#CDTITLE:;
#MUSIC:SPARKLING FANTASY.mp3;
#OFFSET:-0.060000;
#SAMPLESTART:65.179932;
#SAMPLELENGTH:12.000000;
#SELECTABLE:YES;
#BPMS:0.000000=159.009995
;
#STOPS:
;
#BGCHANGES:;
#KEYSOUNDS:;
#ATTACKS:;

//---------------dance-single - ----------------
#NOTES:
     dance-single:
     :
     Hard:
     14:
     0.835605,0.914470,0.573124,0.269705,0.530982,594.000000,68.000000,32.000000,0.000000,0.000000,0.000000,0.835605,0.914470,0.573124,0.269705,0.530982,594.000000,68.000000,32.000000,0.000000,0.000000,0.000000:
0000
0000
0000
0000
,
0000
0000
0000
0000
,
1001
0001
0100
0010
0100
0001
0000
1001
,
0000
1010
0010
0100
0001
1000
0000
0000
,
1100
0100
0010
0001
0100
0010
0000
0110
,
0000
0101
0001
1000
0100
0000
2002
3003
,
0010
1000
0100
0010
0001
0100
1000
0100
,
0001
0010
0001
1000
0100
1000
0010
0100
,
1000
0000
0100
0000
0010
1000
0010
1000
0001
0100
0001
0100
0010
1000
0002
0000
,
0000
0000
1003
0001
0010
0100
1000
0010
0100
0001
0010
0100
0010
0001
1000
0010
,
1000
0000
0001
0000
0100
0000
0010
0000
1000
0001
1000
0001
0100
0010
0100
0010
,
1000
0001
0100
0110
0010
1000
1001
0001
,
0011
0000
0010
0000
0100
0000
1000
0000
0001
1000
0001
1000
0010
0100
0010
0100
,
0001
0000
1000
0000
0100
0000
1100
0000
1000
0000
0000
0001
0010
0000
0100
0000
,
1000
0000
0001
0000
0100
0010
0100
0000
0001
0000
1000
0000
0001
1000
0001
0000
,
0010
0100
1000
0010
0001
0010
1000
0100
,
0010
0001
0010
0001
1000
0001
1000
0010
1000
0010
0100
0010
0100
0001
0010
0100
,
2000
0000
0000
3002
0000
0003
2002
3003
,
0010
0010
0010
0010
,
1001
0100
0100
0100
,
0110
0001
0001
0001
,
0101
1000
1000
0101
,
1010
0010
0010
0010
,
0101
1000
1000
1000
,
0011
0001
0001
0001
,
2001
0000
0000
0000
3020
0000
0000
0000
0130
0000
0001
0000
1000
0010
0100
0010
,
1000
0001
0010
0100
1000
0010
0100
0001
,
1001
1000
0010
0100
1000
0100
0010
0100
,
0101
0001
0010
0001
1000
0100
1000
0010
,
0110
0100
0010
1000
0100
0010
0011
0000
,
1001
1000
0100
1000
0010
0100
0001
0010
,
0011
0001
1000
0010
0001
0010
1000
0100
,
0110
0010
0001
0100
1000
0100
0001
1000
,
1010
0000
0010
0000
0100
0000
0000
0001
0100
0000
0010
0000
1000
0001
1000
0001
,
0110
0100
0001
1000
0020
0000
0030
1010
,
0000
0101
0000
1001
0000
1000
0001
0010
,
0011
0001
1000
0100
0000
0100
0000
0110
,
0000
0011
0000
0000
1001
0000
0110
0000
,
1100
0000
0100
0000
0001
0000
1000
0001
0000
0000
0000
0000
0000
0000
1000
0000
,
0010
0000
0100
0000
0001
0000
0100
0010
0000
0000
0000
0000
0000
0000
1000
0001
,
1000
0000
0000
0010
0000
0000
0100
0000
0001
0000
1000
0000
0010
0000
0100
0000
,
0001
0010
0100
0010
0001
1000
0010
0100
0010
1000
0001
0100
0001
0100
0010
1000
,
0001
0000
0100
0000
0010
0000
1000
0000
0001
0000
0100
0000
1000
0000
0100
0000
0010
0000
0100
0000
0000
0001
0000
0000
,
1001
0000
0000
1000
0010
0000
0100
0000
0001
0000
0000
0100
0010
0000
1000
0000
,
0100
0010
0001
1000
1010
0000
0010
0100
,
0010
0000
0000
1000
0001
0000
0100
0000
0010
0000
0200
0000
0000
0000
0301
1000
,
0001
0000
0100
0010
0000
2002
0000
3003
,
0020
0000
0000
2030
0000
0000
3002
0000
0023
0000
0000
0230
0000
0000
2300
0000
,
3200
0000
0000
0320
0000
0000
0032
0000
2003
0000
0000
0000
0000
0000
3001
0100
,
0001
0000
1000
0100
0000
0001
0100
1000
,
0001
1000
0001
1000
0010
0100
0001
0010
0100
0010
0001
0100
0010
0100
0010
1000
,
0001
0000
0000
0010
0100
0000
1000
0000
0001
0000
0000
1000
0010
0000
0100
0000
,
0010
1000
0100
0010
0011
0000
0001
0000
,
1001
0000
0000
1010
0000
0000
0101
0000
1010
0000
0000
0110
0000
0000
1001
0000
,
0011
0000
0002
0000
2000
0000
0000
3003
,
1010
0000
0000
0010
0000
0000
0100
0000
0101
0000
0000
0001
0000
0000
0010
0000
,
0011
0000
0000
0001
0000
0000
0100
0000
0110
0000
0000
0010
0000
0000
1000
0000
,
0001
0100
0001
0010
0100
1000
0010
0100
0010
0100
1000
0100
0001
0010
0100
0010
,
0001
1000
0100
1000
0001
0010
0001
0100
0010
0100
0001
1000
0001
1000
0010
0100
,
0010
0000
1000
0000
1100
0000
0100
1000
0100
0000
0010
0000
0011
0000
0001
0000
,
1001
1000
0010
0100
0010
1000
0000
1001
,
0000
0101
0100
0010
1000
0001
0000
0000
,
0011
0010
0100
1000
0010
0100
0000
0110
,
0000
1010
1000
0001
0010
0000
2002
3003
,
0100
0001
0010
0100
1000
0010
0001
0010
,
1000
0100
1000
0001
0010
0001
0100
0010
,
0001
0000
0010
0000
0100
0001
0100
0001
1000
0010
1000
0010
0100
0001
2000
0000
,
0000
0000
3001
1000
0100
0010
0001
0100
0010
1000
0100
0010
0100
1000
0001
0100
,
0001
0000
1000
0000
0010
0000
0100
0000
0001
1000
0001
1000
0010
0100
0010
0100
,
0001
1000
0010
0110
0100
0001
1001
1000
,
1100
0000
0100
0000
0010
0000
0001
0000
1000
0001
1000
0001
0100
0010
0100
0010
,
1000
0000
0001
0000
0010
0000
0011
0000
0001
0000
0000
1000
0100
0000
0010
0000
,
0001
0000
1000
0000
0010
0100
0010
0000
1000
0000
0001
0000
1000
0001
1000
0000
,
0100
0010
0001
0100
1000
0100
0001
0010
,
0100
1000
0100
1000
0001
1000
0001
0100
0001
0100
0010
0100
0010
1000
0100
0010
,
0002
0000
0000
2000
0000
3003
0110
2002
,
0000
0000
0000
0000
,
0000
0000
3003
0000
;

//---------------dance-single - ----------------
#NOTES:
     dance-single:
     :
     Medium:
     11:
     0.568308,0.555214,0.185422,0.345560,0.042141,409.000000,22.000000,41.000000,0.000000,0.000000,0.000000,0.568308,0.555214,0.185422,0.345560,0.042141,409.000000,22.000000,41.000000,0.000000,0.000000,0.000000:
0000
0000
0000
0000
,
0000
0000
0000
0000
,
1000
0010
1000
0001
0100
0010
0000
1001
,
0000
0100
0001
1000
0010
1000
0000
0000
,
1000
0100
0010
0001
1000
0001
0000
0110
,
0000
1000
0001
1000
0100
0000
0022
0033
,
0001
1000
0010
1000
,
0100
0010
0001
1000
,
0010
0100
0001
1000
0001
1000
0010
0200
,
0000
0301
1000
0001
0100
0010
0100
0001
,
1000
0000
0010
0100
0000
0001
1000
0001
,
1000
0000
0010
1000
0000
0001
0100
0001
,
0200
0000
0301
1000
0100
0010
0001
1000
,
0100
0000
0010
0001
0000
0000
1000
0100
,
1000
0001
0100
0100
0010
0100
0001
0001
,
1000
0010
0100
0001
0100
0010
1000
0100
,
0010
0001
0100
0001
1000
0010
1000
0001
,
0200
0000
0000
0320
0000
0030
2002
3003
,
0100
0100
0100
0100
,
1001
0010
0010
0010
,
0110
1000
1000
1000
,
1010
0001
0001
0110
,
1001
0100
0100
0100
,
0101
0001
0001
0001
,
1001
1000
1000
1000
,
2001
0000
3020
0000
0230
0000
0301
1000
,
0010
1000
0001
0000
1000
0000
0100
0010
,
0001
0000
0010
0000
0100
0000
1000
0100
,
1000
0000
0010
0000
0001
0000
1000
0010
,
0100
0001
1000
1010
,
1010
0000
0100
0000
0010
0000
1000
0001
,
0100
0000
0010
0000
1000
0000
0001
1000
,
0100
0000
0010
0000
0001
0000
1000
0010
,
1000
0000
0100
0000
1000
0001
0100
0010
,
0100
0000
0001
1000
0001
0000
0000
2000
,
0000
3002
0000
0203
0000
0310
0000
0010
,
1000
0001
1000
0020
0000
0130
0000
1001
,
0000
1001
0000
0000
0002
0000
2003
0000
,
3100
0010
0001
0010
0000
0000
0000
0001
,
1000
0100
1000
0010
0000
0000
0000
0100
,
0100
0000
0000
0001
0000
0000
1000
0000
0010
0000
0100
0000
0001
0000
1000
0000
,
0002
0000
0000
1000
2000
0000
0000
3003
,
0020
0000
0230
0000
0302
0000
1003
0010
,
0110
0000
0100
0000
0001
0000
1000
0001
,
1000
0000
0001
0100
0010
0000
0100
0000
,
0010
0100
0010
0000
0100
0001
0000
1000
,
0010
0000
0100
0010
0000
2002
0000
3003
,
0010
0000
0000
0010
0000
0000
0010
0000
0100
0000
0000
0100
0000
0000
0100
0000
,
0001
0000
0000
0001
0000
0000
0001
0000
2000
0000
0000
0000
0000
0000
0001
0000
,
3001
0000
0100
0010
0000
1000
0001
0010
,
0100
1000
0001
0010
0100
1000
0001
0010
,
0100
0000
1000
0000
0001
0000
1000
0010
,
1000
0000
0001
0010
0100
0000
1000
0000
,
0001
0000
0000
0001
0000
0000
0100
0000
0010
0000
0000
0010
0000
0000
1000
0000
,
0001
0000
2000
0000
0002
0000
0000
3003
,
2000
0000
0000
3010
0000
0000
0000
0000
0002
0000
0000
0103
0000
0000
0000
0000
,
2000
0000
0000
3100
0000
0000
0000
0000
0002
0000
0000
0013
0000
0000
1000
0000
,
0001
1000
0010
0100
0010
1000
0100
1000
,
0100
0010
0001
0010
0100
1000
0010
0100
,
0001
1000
0002
0000
0103
0010
0200
0000
,
0301
0100
0001
1000
0010
0100
0000
1001
,
0000
0010
1000
0001
0100
0001
0000
0000
,
0001
0010
0100
1000
0001
1000
0000
0110
,
0000
0001
1000
0001
0010
0000
2200
3300
,
1000
0001
0100
0001
,
0010
0100
1000
0001
,
0100
0010
1000
0001
1000
0001
0100
0020
,
0000
1030
0001
1000
0010
0100
0010
1000
,
0001
0000
0100
0010
0000
1000
0001
1000
,
0001
0000
0100
0001
0000
1000
0010
1000
,
0020
0000
1030
0001
0010
0100
1000
0001
,
0010
0000
0100
1000
0000
0000
0001
0010
,
0001
1000
0010
0010
0100
0010
1000
1000
,
0001
0100
0010
1000
0010
0100
0001
0010
,
0100
1000
0010
1000
0001
0100
0001
1000
,
0002
0000
0000
2000
0000
3003
0010
2002
,
0000
0000
0000
0000
,
0000
0000
3003
0000
;

//---------------dance-single - ----------------
#NOTES:
     dance-single:
     :
     Easy:
     5:
     0.403354,0.416358,0.193851,0.379273,0.000000,267.000000,23.000000,45.000000,0.000000,0.000000,0.000000,0.403354,0.416358,0.193851,0.379273,0.000000,267.000000,23.000000,45.000000,0.000000,0.000000,0.000000:
0000
0000
0000
0000
,
0000
0000
0000
0000
,
1000
0000
0001
0000
1000
0000
0000
1001
,
0000
0001
0100
0000
,
0001
0000
0100
0000
0001
0000
0000
1010
,
0000
0001
1000
0001
,
1000
0010
0010
1000
,
0100
0100
0010
0001
,
0002
0000
2003
0000
3020
0000
0130
0200
,
0000
0300
0001
0000
1000
0000
0001
0000
,
0100
0000
0000
0001
0000
0000
1000
0000
,
1000
0000
0000
0010
0000
0000
0100
0000
,
0100
0000
0000
0001
1000
0000
1000
0000
,
0100
0000
0000
0010
0000
0000
0001
0000
,
0010
0100
1000
0001
,
1000
0010
0100
0010
,
1000
0001
0010
0001
,
2000
0000
0000
3002
0000
0003
2002
3003
,
0100
0100
0100
0100
,
0110
0010
0010
0010
,
1010
1000
1000
1000
,
1001
0001
0001
2001
,
3100
0100
0100
0100
,
0110
0010
0010
0010
,
0011
0001
0001
0001
,
2001
3020
0230
0301
,
1000
0001
1000
0010
,
0100
0001
0010
0001
,
1000
0100
1000
0010
,
0100
0010
1000
1002
,
0103
0010
0100
0001
,
1000
0100
0010
0001
,
0100
0010
0100
0001
,
1000
0010
1000
0001
,
0100
0000
0020
0000
0130
0000
0000
1001
,
0000
1001
0000
0110
0000
0000
0000
0000
,
1000
0000
0010
0020
0000
0030
0000
1001
,
0000
1001
0000
0000
0200
0000
0302
0000
,
1003
0000
0000
0000
0000
0000
0000
0001
,
1000
0000
0000
0000
0000
0000
0000
1000
,
0010
0000
0000
0100
0001
0000
0000
1000
,
0002
0000
0000
1000
2000
0000
0000
3003
,
0020
0000
0000
0000
0000
0000
0130
0100
,
0100
0001
1000
0010
,
1000
0001
0200
0000
,
0310
0000
1000
0000
0001
0100
0000
0000
,
0010
0000
1000
0001
0000
2002
0000
3003
,
0020
0000
2030
0000
,
3002
0000
0000
0000
0203
0000
0000
0010
,
0310
1000
0001
1000
,
0020
2030
3002
0203
,
0310
1000
0001
1000
,
0010
1000
0001
0100
,
0110
0000
0000
1000
0001
0000
0000
0100
,
0010
1001
1001
0000
,
0020
0030
0200
0300
,
0002
0000
0003
0000
2000
0000
3000
0001
,
0010
0100
1000
0100
,
0010
0001
0010
0100
,
1000
0001
2000
0000
3001
0100
0020
0000
,
1030
0000
1000
0000
0001
0000
0000
1001
,
0000
1000
0010
0000
,
1000
0000
0010
0000
1000
0000
0000
0101
,
0000
1000
0001
1000
,
0001
0100
0100
0001
,
0010
0010
0100
1000
,
2000
0000
3002
0000
0203
0000
0310
0020
,
0000
0030
1000
0000
0001
0000
1000
0000
,
0010
0000
0000
1000
0000
0000
0001
0000
,
0001
0000
0000
0100
0000
0000
0010
0000
,
0010
0000
0000
1000
0001
0000
0001
0000
,
0010
0000
0000
0100
0000
0000
1000
0000
,
0100
0010
0001
1000
,
0001
0100
0010
0100
,
0001
1000
0100
1000
,
0002
0000
0000
2003
0000
3000
2002
0000
,
3003
0000
0000
0000
;

//---------------dance-single - ----------------
#NOTES:
     dance-single:
     :
     Beginner:
     2:
     0.221544,0.288248,0.067426,0.151709,0.000000,158.000000,8.000000,18.000000,0.000000,0.000000,0.000000,0.221544,0.288248,0.067426,0.151709,0.000000,158.000000,8.000000,18.000000,0.000000,0.000000,0.000000:
// measure 0
0000
0000
0000
0000
,  // measure 1
0000
0000
0000
0000
,  // measure 2
0001
0000
0000
0000
0001
0000
0000
1000
,  // measure 3
0000
0010
0010
0000
,  // measure 4
1000
0000
0000
0000
0001
0000
0000
0100
,  // measure 5
0000
1000
0000
1000
,  // measure 6
0000
0100
0000
0001
,  // measure 7
0000
0010
0000
0001
,  // measure 8
2000
3000
0001
0001
,  // measure 9
0000
1000
0000
0001
,  // measure 10
0000
0000
0000
1000
0000
0000
0001
0000
,  // measure 11
0000
0000
0000
0100
0000
0000
0010
0000
,  // measure 12
0000
0000
0000
1000
0001
0000
0000
0000
,  // measure 13
0010
0000
0000
0100
0000
0000
1000
0000
,  // measure 14
0000
0001
0000
0100
,  // measure 15
0000
0010
0000
1000
,  // measure 16
0000
0100
0000
0001
,  // measure 17
0002
0000
0000
0003
0000
0000
1000
0000
,  // measure 18
0010
0000
0010
0000
,  // measure 19
1001
0000
0100
0000
,  // measure 20
1001
0000
0001
0000
,  // measure 21
1001
0000
1000
0001
,  // measure 22
0001
0000
0010
0000
,  // measure 23
1001
0000
0100
0000
,  // measure 24
0110
0000
1000
0000
,  // measure 25
0001
0000
0020
1030
,  // measure 26
0000
0001
0000
1000
,  // measure 27
0000
0001
0000
1000
,  // measure 28
0000
0010
0000
0100
,  // measure 29
0000
0100
0000
0010
,  // measure 30
0010
0000
0010
0000
,  // measure 31
0001
0000
0100
0000
,  // measure 32
0010
0000
0010
0000
,  // measure 33
0001
0000
0001
0000
,  // measure 34
0010
0000
0100
0000
0010
0000
0000
0100
,  // measure 35
0000
0100
0000
0100
0000
0000
0000
0000
,  // measure 36
0001
0000
0001
0000
0000
0000
0000
1000
,  // measure 37
0000
1000
0000
0000
0010
0000
0000
0000
,  // measure 38
0010
0000
0000
0000
,  // measure 39
0001
0000
0000
0000
,  // measure 40
0100
0000
1000
0000
,  // measure 41
2000
0000
3001
0000
,  // measure 42
0200
0000
0000
0300
,  // measure 43
0010
0000
0001
0000
,  // measure 44
0001
0000
0020
0000
,  // measure 45
0130
0000
1000
0000
,  // measure 46
0100
0000
0000
0000
0000
0010
0000
0000
,  // measure 47
0200
0000
0320
0000
,  // measure 48
0230
0000
0302
0000
,  // measure 49
1003
0000
1000
0000
,  // measure 50
0020
0030
0200
0300
,  // measure 51
0010
0000
1000
0000
,  // measure 52
0001
0000
1000
0000
,  // measure 53
0110
0000
1000
0000
,  // measure 54
0001
0000
1001
0000
,  // measure 55
0100
0000
0010
0000
,  // measure 56
1000
0000
0001
0000
,  // measure 57
0100
0000
0001
0000
,  // measure 58
0100
0000
0100
0000
,  // measure 59
0000
0002
0003
2000
,  // measure 60
3001
0000
0000
0000
1000
0000
0000
0001
,  // measure 61
0000
0000
0100
0000
,  // measure 62
0001
0000
0000
0000
1000
0000
0000
0010
,  // measure 63
0000
0001
0000
1000
,  // measure 64
0000
0010
0000
1000
,  // measure 65
0000
0001
0000
1000
,  // measure 66
0002
0003
0100
0010
,  // measure 67
0000
0001
0000
0001
,  // measure 68
0000
0000
0000
0001
0000
0000
1000
0000
,  // measure 69
0000
0000
0000
0010
0000
0000
0100
0000
,  // measure 70
0000
0000
0000
0001
1000
0000
0000
0000
,  // measure 71
0100
0000
0000
0010
0000
0000
0001
0000
,  // measure 72
0000
0100
0000
0001
,  // measure 73
0000
0010
0000
0010
,  // measure 74
0000
0001
0000
0001
,  // measure 75
2000
0000
0000
3010
0000
0000
2002
0000
,  // measure 76
3003
0000
0000
0000
;
