#TITLE:SAtAN;
#SUBTITLE:;
#ARTIST:P*Light;
#TITLETRANSLIT:;
#SUBTITLETRANSLIT:;
#ARTISTTRANSLIT:;
#GENRE:;
#CREDIT:;
#BANNER:;
#BACKGROUND:;
#LYRICSPATH:;
#CDTITLE:;
#MUSIC:SAtAN.mp3;
#OFFSET:0.180000;
#SAMPLESTART:76.918533;
#SAMPLELENGTH:12.000000;
#SELECTABLE:YES;
#BPMS:0.000000=300.000000
,240.000000=150.000000
,296.500000=300.000000
,412.500000=150.000000
;
#STOPS:60.000000=1.200000,
86.500000=0.100000,
87.500000=0.100000,
88.500000=0.100000,
89.500000=0.100000,
110.000000=0.200000,
113.000000=0.200000,
114.500000=0.100000,
115.500000=0.100000,
116.500000=0.100000,
117.500000=0.100000,
119.000000=0.040000,
180.000000=0.400000,
206.500000=0.100000,
207.500000=0.100000,
208.500000=0.100000,
209.500000=0.100000,
230.000000=0.200000,
233.000000=0.200000,
238.000000=0.400000,
268.000000=1.400000,
296.500000=1.400000,
322.000000=0.100000,
323.000000=0.100000,
324.000000=0.100000,
325.000000=0.100000,
345.500000=0.200000,
348.500000=0.200000,
350.000000=0.100000,
351.000000=0.100000,
352.000000=0.100000,
353.000000=0.100000,
380.000000=0.100000,
381.000000=0.100000,
382.000000=0.100000,
383.000000=0.100000,
398.000000=0.100000,
399.500000=0.100000,
412.500000=0.600000
;
#BGCHANGES:;
#KEYSOUNDS:;
#ATTACKS:;

//---------------dance-single - ----------------
#NOTES:
     dance-single:
     :
     Hard:
     17:
     0.867075,1.275352,0.200645,0.117043,0.271707,726.000000,702.000000,24.000000,14.000000,0.000000,0.000000,0.867075,1.275352,0.200645,0.117043,0.271707,726.000000,702.000000,24.000000,14.000000,0.000000,0.000000:
// measure 0
0000
0000
0000
0000
,  // measure 1
1001
0000
0010
0000
1000
0001
1000
0100
,  // measure 2
0010
0000
0001
0000
1000
0010
0100
0001
,  // measure 3
0010
0000
0000
0000
0000
0000
0100
0000
0000
0000
0000
0000
1000
0000
0000
0010
0000
0000
0100
0000
0000
0001
0000
0010
,  // measure 4
0000
0100
0000
1000
0000
0000
0100
0000
0000
0010
0000
0000
0001
0000
0000
1000
0000
0000
0010
0000
0000
0100
0000
0000
,  // measure 5
0110
0000
0010
0000
0100
0001
0100
0010
,  // measure 6
1000
0000
0100
0000
0010
0001
0010
0100
,  // measure 7
1000
0000
0100
0000
1000
0001
0100
0001
,  // measure 8
0000
0000
0000
1000
0000
0010
0000
0100
0000
0001
0000
0000
0010
0000
0000
0100
0000
0000
1000
0000
0000
0001
0000
0000
,  // measure 9
1000
0001
1000
0010
,  // measure 10
0100
0001
0010
0100
,  // measure 11
1000
0010
0100
0001
,  // measure 12
1000
0100
0010
0100
,  // measure 13
1000
0001
1000
0010
0100
0001
0010
0100
,  // measure 14
1000
0100
0010
0001
1000
0010
1000
0001
,  // measure 15
0200
0000
0310
1000
,  // measure 16
0001
0001
1000
0010
,  // measure 17
1000
0000
0001
0100
0001
0000
0010
0000
,  // measure 18
0100
0000
1000
0010
0000
0010
0100
0001
,  // measure 19
1000
0010
0100
1000
,  // measure 20
0100
0001
0010
0100
,  // measure 21
1000
0000
0100
0000
1000
0010
0100
0001
,  // measure 22
0010
0100
1000
0001
0200
0000
0000
0000
,  // measure 23
0301
0010
0100
0100
,  // measure 24
1000
0000
0010
0000
0100
0000
0001
1000
,  // measure 25
0010
0000
0100
0000
0001
0000
1000
0100
,  // measure 26
0000
0100
1000
0100
0010
0000
0001
0000
,  // measure 27
1000
0001
0100
0001
0010
0000
0001
0010
,  // measure 28
0100
1000
0010
0000
0100
0010
1000
0001
,  // measure 29
0010
0100
1000
0001
0200
0000
0310
0000
,  // measure 30
0100
0010
1000
0100
,  // measure 31
0010
0000
0001
0000
0010
0000
0100
1000
,  // measure 32
0100
0010
0100
1000
,  // measure 33
0001
0000
0000
0100
0000
0000
0010
1000
0010
1000
0010
1000
,  // measure 34
0010
0100
0001
0010
,  // measure 35
0100
1000
0001
0100
,  // measure 36
0101
0000
0000
0110
0000
0000
1010
0000
,  // measure 37
0000
0001
1000
0000
0010
0100
0001
0100
,  // measure 38
0010
1000
0100
0001
,  // measure 39
0100
1000
0010
1000
,  // measure 40
1001
0001
0100
0010
,  // measure 41
0100
0000
0000
0001
0000
0000
0100
0001
0100
0001
0100
0001
,  // measure 42
0100
0010
1000
0100
,  // measure 43
0110
0010
0001
1000
,  // measure 44
0010
1000
0001
1000
0100
0010
0001
0100
,  // measure 45
2002
0000
0000
3003
0100
0000
0010
0000
,  // measure 46
1000
0001
0100
0001
,  // measure 47
1000
0000
0010
0100
0001
0000
0010
0000
,  // measure 48
0100
0000
1000
0100
0000
0100
0010
0001
,  // measure 49
1000
0100
1000
0010
,  // measure 50
0100
0001
0010
0001
,  // measure 51
1000
0000
0100
0000
0010
0001
1000
0100
,  // measure 52
0010
0001
1000
0010
0200
0000
0000
0000
,  // measure 53
1300
0100
0001
0010
,  // measure 54
0100
0000
1000
0000
0001
0000
0100
0010
,  // measure 55
0100
0000
0010
0000
1000
0000
0001
0010
,  // measure 56
0000
0010
0100
1000
0010
0000
0100
0000
,  // measure 57
0001
0010
1000
0010
0001
0000
1000
0010
,  // measure 58
0001
0010
1000
0000
0001
0100
0001
1000
,  // measure 59
0010
0100
0010
0100
0010
0100
0010
0000
0000
0000
0000
0000
,  // measure 60
1010
0000
0000
0110
0100
0010
1000
1000
,  // measure 61
0001
0000
0000
1000
0001
0010
0100
1000
,  // measure 62
1100
0000
0000
0000
0000
0000
0011
0000
0010
0000
0001
0000
0100
0000
0100
0001
,  // measure 63
1000
0010
1000
0100
0010
0001
1000
0000
,  // measure 64
0011
0000
0000
1100
1000
0010
0100
0100
,  // measure 65
0001
0000
0000
0100
0010
1000
0001
0100
,  // measure 66
0202
0000
0000
0000
0000
0000
0000
0003
,  // measure 67
0310
0000
1000
0001
1000
0000
0010
0000
0010
0000
0100
0001
0100
0000
0001
0000
,  // measure 68
0001
1000
0100
0000
1000
0000
0100
0000
0010
0001
0000
0001
0010
0100
1000
0000
,  // measure 69
0100
0000
0010
0001
0010
0000
0100
0000
0100
0000
1000
0010
1000
0000
0010
0000
,  // measure 70
0010
1000
0001
0000
0001
0000
0010
0000
0100
1000
0000
1000
0100
0010
0001
0000
,  // measure 71
0100
0000
0110
0000
0010
0000
1000
0000
0001
1000
0100
0000
0010
0000
0001
0000
,  // measure 72
1000
0010
0100
0000
0001
0000
0010
0000
0100
0010
0000
0010
0100
1000
0010
0000
,  // measure 73
0100
0000
0001
1000
0001
1000
0010
0100
0010
0100
0001
0010
0001
0010
0100
1000
,  // measure 74
0100
1000
0001
0000
0000
0000
1000
0000
0001
0000
0100
0000
0001
0000
1000
0000
,  // measure 75
0100
1000
0100
0010
0001
0010
0100
1000
,  // measure 76
0001
0000
0000
0100
0000
0010
0000
0100
0000
0010
0000
0000
1000
0000
0000
0100
0000
0000
1000
0000
0000
0010
0000
0000
,  // measure 77
0100
0001
0010
0000
0100
1000
0001
0100
,  // measure 78
0010
0000
0000
1000
0000
0100
0000
1000
0000
0100
0000
0000
0010
0000
0000
0001
0000
0000
0100
0000
0000
0001
0000
0000
,  // measure 79
1000
0010
1000
0100
0010
0100
1000
0100
,  // measure 80
0010
0000
0000
0001
0000
1000
0000
0001
0000
1000
0000
0000
0100
0000
0000
0010
0000
0000
0001
0000
0000
1000
0000
0000
,  // measure 81
0010
0100
0001
2000
0000
0000
0000
3001
,  // measure 82
0100
0001
1000
0010
1000
0100
0010
0001
,  // measure 83
0100
0000
0000
0010
0000
0000
1000
0000
0000
0001
0000
0000
0010
0000
0000
0001
0000
0010
0000
0100
0000
1000
0000
0000
,  // measure 84
0010
0100
0001
0010
0100
1000
0010
0000
,  // measure 85
0100
0000
0000
0001
0000
0000
1000
0000
0000
0010
0000
0000
1000
0000
0000
0001
0000
1000
0000
0001
0000
1000
0000
0000
,  // measure 86
0100
0010
0001
0010
0000
0100
1000
0010
,  // measure 87
0100
0001
0000
1000
0010
0100
0001
0010
,  // measure 88
0100
1000
0100
0020
0000
0031
0000
0010
,  // measure 89
0000
0100
0000
1000
0000
0100
0010
0001
,  // measure 90
0000
1000
0000
0010
0000
0100
0001
1000
,  // measure 91
0000
0010
0000
0100
0000
0001
0010
0000
,  // measure 92
0010
0000
0000
0100
0000
0000
0000
0000
0000
1000
0000
0001
0000
1000
0000
0001
0000
1000
0000
0001
0000
1000
0000
0000
,  // measure 93
0010
0100
0001
0010
0001
1000
0000
0010
,  // measure 94
1000
0001
0100
0001
1000
0010
0001
0010
,  // measure 95
1000
0001
0100
0001
0010
0100
1000
0200
,  // measure 96
0000
0000
0000
0310
0001
1000
0001
1000
,  // measure 97
0010
0000
0000
0100
0000
0000
0001
0000
0000
1000
0000
0000
0100
0000
0000
0010
0000
0001
0000
0010
0000
0100
0000
0000
,  // measure 98
1000
0010
1000
0001
1000
0100
0010
0001
,  // measure 99
1000
0010
0100
0001
2000
0000
0001
3001
,  // measure 100
0000
0000
0000
1000
0000
0000
0010
0000
0000
0100
0000
0000
0001
0000
0000
1000
0000
0100
0000
0010
0000
0001
0000
0000
,  // measure 101
0010
0000
0000
0100
0000
0000
1000
0000
0000
0010
0000
0000
0100
0000
0000
0001
0000
0010
0000
0100
0000
1000
0000
0000
,  // measure 102
0010
0100
0001
0010
0001
1000
0100
1000
,  // measure 103
0010
0100
0101
0000
0000
0110
0010
0100
,  // measure 104
0001
0001
1000
0000
0000
0001
1000
0100
,  // measure 105
0010
0001
0011
0000
0000
1100
0100
1000
,  // measure 106
0010
0000
0010
1000
0001
0000
0100
0000
0001
0000
0010
0000
0100
0000
1000
0000
,  // measure 107
0001
0000
1100
0000
0000
0011
0001
0100
,  // measure 108
0010
0000
0010
1000
0001
0000
0000
0000
0000
0000
0100
0000
0001
0000
0100
0000
,  // measure 109
0010
1000
1010
0000
0000
0101
0001
1000
,  // measure 110
0100
0000
0100
0010
0001
0000
1000
0000
0010
0000
0100
0000
0001
0000
1000
0000
,  // measure 111
0200
0010
0000
0010
0000
0000
0002
0000
,  // measure 112
0000
0000
0000
0000
,  // measure 113
0303
0000
0000
0000
;

//---------------dance-single - ----------------
#NOTES:
     dance-single:
     :
     Medium:
     13:
     0.655681,0.944705,0.091962,0.125403,0.033441,549.000000,538.000000,11.000000,15.000000,0.000000,0.000000,0.655681,0.944705,0.091962,0.125403,0.033441,549.000000,538.000000,11.000000,15.000000,0.000000,0.000000:
0000
0000
0000
0000
,
1000
0000
0001
0000
0100
0000
0010
0100
,
0010
0000
1000
0000
0100
0000
0010
0001
,
0010
0000
0100
0000
1000
0010
1000
0001
,
0000
1000
0100
0010
0001
1000
0010
1000
,
0100
0000
0010
0000
0001
0000
1000
0001
,
1000
0000
0010
0000
0100
0000
0010
1000
,
0010
0000
0100
0000
0001
1000
0010
1000
,
0000
0000
0001
0010
0100
1000
0010
0100
,
0010
1000
0001
0010
,
0100
0010
0001
1000
,
0010
1000
0001
0100
,
0010
1000
0001
0010
,
0100
1000
0100
0000
0010
0001
0010
0000
,
0100
1000
0001
0000
0100
0010
1000
0000
,
0020
0000
0130
0001
,
1000
0010
1000
0001
,
1000
0100
1000
0010
,
0100
0000
0001
1000
0000
0000
0010
1000
,
0010
0100
0001
1000
,
0100
0010
0001
0010
,
0001
0000
1000
0000
0001
1000
0001
1000
,
0010
0100
0010
0100
0002
0000
0000
0000
,
0103
0010
1000
0100
,
1000
0010
0100
0010
,
0100
0000
0001
0000
0010
0000
0100
1000
,
0000
0000
0100
0010
0100
0000
0010
0000
,
0001
0000
0010
0100
0010
0000
0001
0000
,
1000
0010
1000
0000
0001
0010
0001
0010
,
0100
1000
0100
1000
0020
0000
0130
0000
,
0010
0100
0001
1000
,
0001
1000
0100
1000
,
0100
0010
0100
0010
,
0001
0010
0001
1000
,
0010
1000
0001
0100
,
0001
1000
0010
1000
,
0002
0000
0000
2003
0000
0000
3010
0000
,
0000
0100
0010
0000
1000
0010
1000
0010
,
0100
0001
0010
0001
,
0100
0010
1000
0010
,
1010
1000
0001
0010
,
0001
0100
0010
0100
,
0101
0001
1000
0010
,
0110
0100
0001
1000
,
0010
1000
0010
0000
0100
0001
0100
0000
,
0020
0000
1030
0001
,
0100
0010
1000
0100
,
0010
0001
0100
0010
,
1000
0000
0001
0100
0000
0000
0010
1000
,
0010
0100
0001
1000
,
0100
1000
0001
0100
,
0001
0000
1000
0000
0010
1000
0010
1000
,
0001
0100
0001
0100
0020
0000
0000
0000
,
1030
0100
1000
0100
,
0010
0000
0100
0000
0010
0000
0001
0100
,
0001
0000
0010
0000
0100
0000
1000
0100
,
0000
0000
0010
0001
0010
0000
0100
0000
,
1000
0000
0010
0100
0001
0000
0010
0000
,
0100
1000
0010
0000
1000
0001
1000
0001
,
0200
0000
0310
0000
,
1001
0000
0000
0100
0000
0010
1000
0000
,
0001
0000
0000
1000
0001
0000
0100
0000
,
0101
0000
0000
0001
0100
0000
0010
0000
,
1000
0001
0100
0000
0010
0100
0001
0000
,
0011
0000
0000
0010
0100
0000
1000
0000
,
0010
0000
0000
0100
0010
0000
1000
0000
,
2020
0000
0000
0000
0000
0000
0000
0030
,
3010
0100
0100
0001
0001
0010
0010
0100
,
0100
0000
1000
0000
1000
0000
0100
0000
0010
0001
0000
0000
1000
0100
1000
0000
,
0001
1000
1000
0010
0010
0100
0100
0001
,
0001
0000
1000
0000
1000
0000
0001
0000
0100
0010
0000
0000
1000
0001
1000
0000
,
0010
0100
0100
0001
0001
1000
1000
0010
,
0010
0000
0100
0000
0100
0000
0001
0000
1000
0010
0000
0000
0100
0001
0100
0000
,
0010
0000
1000
0000
1000
0000
0100
0000
0100
0000
0010
0000
0010
0000
0001
1000
,
0001
1000
0001
0000
0000
0000
1000
0000
0000
0000
0100
0000
0000
0000
1000
0000
,
0000
0010
0000
0100
0000
0001
0000
1000
,
0000
0001
0000
0100
0000
0010
0000
1000
,
0000
0001
0010
0000
0000
0100
1000
0100
,
0000
0010
0000
0001
0000
1000
0000
0010
,
0000
0100
0000
0001
0000
1000
0000
0010
,
0000
0100
0000
0010
0100
0010
0100
0001
,
1000
0001
1000
0200
0000
0000
0000
0310
,
0000
0001
0000
0010
0000
0001
0000
1000
,
0000
0010
0000
1000
0000
0010
0000
0100
,
0000
0001
0000
0100
0000
0010
0100
0000
,
0000
0001
1000
0001
0000
0100
0000
0010
,
0000
1000
0001
0010
0000
0100
0000
1000
,
0001
0100
0000
0001
0010
0001
0100
0010
,
1000
0001
0100
0020
0000
1030
0000
0001
,
0000
0010
0000
0100
0000
1000
0000
0010
,
0000
0100
0000
0001
0000
0010
0000
0001
,
0000
1000
0000
0100
0000
1000
0010
0000
,
0100
0010
0000
1000
0000
0001
0000
0100
,
0000
0010
0000
1000
0001
1000
0000
0010
,
0000
0100
0000
0001
1000
0001
0000
1000
,
0010
0100
0001
0010
0100
1000
0001
2000
,
0000
0000
0000
3001
0000
0100
0000
0010
,
0000
0100
0000
0001
0000
1000
0000
0100
,
0000
1000
0000
0010
0000
0100
0000
0010
,
0000
1000
0000
0001
0020
0000
0130
1000
,
0000
0100
0000
1000
0000
0001
1000
0010
,
0000
0100
0000
0010
0000
1000
0010
0100
,
0000
0001
0000
0010
0100
1000
0100
0010
,
0001
1000
1001
0000
0000
0001
0000
0100
,
0010
0000
1000
0000
0000
0001
1000
0000
,
0010
0000
0110
0000
0000
0100
0001
0000
,
1000
0000
0010
0100
0001
0000
0100
0010
,
1000
0000
1010
0000
0000
0010
0100
0000
,
0001
0000
1000
0000
0000
0100
0010
0000
,
0001
0000
0101
0000
0000
0100
0001
0000
,
1000
0000
0001
1000
0010
0000
1000
0001
,
0200
0000
0000
0000
,
0000
0000
0000
0000
,
0300
0000
0000
0000
;

//---------------dance-single - ----------------
#NOTES:
     dance-single:
     :
     Easy:
     6:
     0.476533,0.472353,0.000000,0.133764,0.012540,399.000000,399.000000,0.000000,16.000000,0.000000,0.000000,0.476533,0.472353,0.000000,0.133764,0.012540,399.000000,399.000000,0.000000,16.000000,0.000000,0.000000:
0000
0000
0000
0000
,
0100
0010
1000
0100
,
1000
0010
0100
0010
,
0100
0000
0001
0000
1000
0000
0001
1000
,
0000
0010
1000
0010
,
1000
0100
0010
0100
,
0010
0001
1000
0001
,
1000
0010
1000
0001
,
0000
0100
0010
0100
,
0001
0010
0001
0010
,
0100
1000
0010
0100
,
0010
1000
0100
1000
,
0001
0010
0001
0010
,
0100
1000
0010
0100
,
0010
1000
0001
1000
,
0020
0000
0130
0001
,
1000
0100
1000
0010
,
0100
0001
0010
0001
,
1000
0000
0100
1000
0000
0000
0010
0000
,
0100
0001
0010
0001
,
1000
0100
1000
0010
,
0100
0001
0200
0000
,
0000
0000
0320
0000
,
1030
0001
0100
0010
,
1000
0100
0010
0001
,
1000
0000
0100
0000
1000
0000
0001
0010
,
0000
0100
1000
0100
,
0010
0100
0010
0001
,
0100
0001
2000
0000
,
0000
0000
3010
0010
,
0100
0001
1000
0010
,
1000
0001
0010
0001
,
1000
0100
1000
0010
,
0100
0010
1000
0001
,
1000
0010
0100
0001
,
0010
0001
0010
0100
,
2000
0000
0000
3100
0000
0000
0010
0000
,
0000
0001
0000
0000
0010
0000
0001
0000
,
1000
0010
1000
0001
,
0100
0010
1000
0001
,
0100
0010
1000
0100
,
0010
0001
0010
0100
,
1000
0010
0100
0001
,
0100
0010
1000
0001
,
0010
0001
1000
0100
,
2000
0000
3010
0100
,
0001
0100
0010
1000
,
0001
1000
0010
0100
,
0010
0000
1000
0001
0000
0000
0100
0000
,
0010
0100
0001
1000
,
0010
1000
0010
0100
,
0010
0100
0002
0000
,
0000
0000
2003
0000
,
3010
0100
0010
1000
,
0001
0010
0001
1000
,
0100
0000
1000
0000
0010
0000
0100
0001
,
0000
1000
0001
1000
,
0010
0100
0001
1000
,
0100
0010
0001
1000
,
0020
0000
0130
0000
,
0001
0000
0000
1000
,
0001
0000
1000
0010
,
1000
0000
0001
1000
,
0010
0100
0010
1000
,
0100
0000
0010
0001
,
0100
0000
0010
1000
,
0020
0000
0000
0000
0000
0000
0000
0030
,
0100
0001
0000
1000
0000
0010
0000
1000
,
0000
0000
0001
0000
0000
0000
0010
0000
0100
1000
0000
0000
0000
0000
0010
0000
,
0000
1000
0000
0010
0000
0100
0000
0001
,
0000
0000
0010
0000
0000
0000
0001
0000
0100
0001
0000
0000
0000
0000
1000
0000
,
0000
0010
0000
0100
0000
0001
0000
0010
,
0000
0000
0001
0000
0000
0000
1000
0000
0010
1000
0000
0000
0000
0000
0001
0000
,
0000
1000
0000
0100
0000
1000
0000
0010
,
0000
0100
0000
0001
0000
1000
0000
0010
,
0000
0100
0000
0001
0000
0010
0000
0100
,
0000
0010
0000
0001
0000
1000
0000
0010
,
0000
0100
0010
0000
0000
0100
0000
0001
,
0000
1000
0000
0100
0000
0010
0000
0100
,
0000
1000
0000
0010
0000
0100
0000
0001
,
0000
1000
0000
0002
0000
0000
0000
0000
,
0000
0000
0000
2003
0000
0000
0000
3010
,
0000
1000
0000
0100
0000
0010
0000
0001
,
0000
0010
0000
0100
0000
1000
0000
0010
,
0000
0100
0000
0001
0000
1000
0100
0000
,
0000
0010
0000
0001
0000
1000
0000
0001
,
0000
0100
0000
0010
0000
0100
0000
0001
,
0000
1000
0000
0002
0000
0000
0000
0000
,
0000
0000
0000
1003
0000
0010
0000
1000
,
0000
0100
0000
0010
0000
0001
0000
1000
,
0000
0100
0000
1000
0000
0010
0000
0100
,
0000
0010
0000
1000
0000
0001
1000
0000
,
0000
0010
0000
0100
0000
0001
0000
0010
,
0000
0001
0000
0100
0000
0010
0000
1000
,
0000
0100
0000
1000
0000
0010
0000
0200
,
0000
0000
0000
0000
0000
0000
0000
0320
,
0000
0000
0000
1030
0000
0001
0000
1000
,
0000
0100
0000
0010
0000
0100
0000
0010
,
0000
0001
0000
0010
0000
0100
0000
0010
,
0000
0001
0000
1000
0000
0000
0010
0000
,
0000
0100
0000
0001
0000
1000
0000
0010
,
0000
0100
0000
0001
0000
1000
0000
0100
,
0000
1000
0000
0010
0000
0100
0000
0001
,
0000
1000
0001
0000
0000
0000
0000
0000
,
1000
0010
0000
0100
,
0001
1000
0000
0010
,
0100
0001
1000
0100
,
0010
0001
0000
0100
,
0001
1000
0000
0010
,
1000
0100
0000
0010
,
0001
0100
0010
1000
,
0020
0000
0000
0000
,
0000
0000
0000
0000
,
0030
0000
0000
0000
;

//---------------dance-single - ----------------
#NOTES:
     dance-single:
     :
     Beginner:
     4:
     0.266333,0.283412,0.000000,0.125403,0.012540,223.000000,223.000000,0.000000,15.000000,0.000000,0.000000,0.266333,0.283412,0.000000,0.125403,0.012540,223.000000,223.000000,0.000000,15.000000,0.000000,0.000000:
0000
0000
0000
0000
,
0010
0000
0001
0000
,
0001
0000
0010
0000
,
0010
0000
0000
0000
0001
0000
0000
0001
,
0000
0100
0000
0100
,
0000
0010
0000
0010
,
0000
1000
0000
1000
,
0000
0100
0000
1000
,
0000
0010
0000
0010
,
0000
0100
0000
0100
,
0000
0001
0000
0010
,
0000
0001
0000
0001
,
0000
0100
0000
0100
,
0000
0001
0000
0010
,
0000
0001
0000
0100
,
0200
0000
0310
0000
,
0001
0000
0001
0000
,
0010
0000
0100
0000
,
0001
0000
0000
0001
0000
0000
0100
0000
,
0000
1000
0000
1000
,
0000
0010
0000
0100
,
0000
1000
0020
0000
,
0000
0000
0230
0000
,
0301
0000
0010
0000
,
0001
0000
0100
0000
,
0001
0000
0000
0000
0001
0000
0000
0100
,
0000
0010
0000
0010
,
0000
0010
0000
1000
,
0000
1000
0002
0000
,
0000
0000
0103
0000
,
0010
0000
0001
0000
,
0001
0000
0100
0000
,
0001
0000
0001
0000
,
0010
0000
0001
0000
,
0001
0000
0010
0000
,
0100
0000
0100
0000
,
0001
0000
0000
0010
0000
0000
0100
0000
,
0000
1000
0000
0000
0100
0000
0000
0000
,
0001
0000
0001
0000
,
0010
0000
0001
0000
,
0010
0000
0001
0000
,
0100
0000
0100
0000
,
0001
0000
0010
0000
,
0010
0000
0001
0000
,
0100
0000
0001
0000
,
0002
0000
0103
0000
,
1000
0000
0100
0000
,
1000
0000
0100
0000
,
0100
0000
0000
1000
0000
0000
0010
0000
,
0000
0010
0000
0001
,
0000
0001
0000
0010
,
0000
0010
2000
0000
,
0000
0000
3002
0000
,
0103
0000
0100
0000
,
1000
0000
1000
0000
,
0010
0000
0000
0000
0100
0000
0000
1000
,
0000
0001
0000
0001
,
0000
0010
0000
0001
,
0000
0100
0000
0001
,
0200
0000
0310
0000
,
1000
0000
0000
0001
,
0000
0000
0001
0000
,
0001
0000
1000
0000
,
0100
0000
0100
0000
,
0010
0000
0100
0000
,
0010
0000
0100
0000
,
0200
0000
0000
0000
0000
0000
0000
0300
,
0010
1000
0000
0000
0000
0100
0000
0000
,
0000
0000
1000
0000
0000
0000
0000
0000
0000
0001
0000
0000
0000
0000
0000
0000
,
0000
0001
0000
0000
0000
0010
0000
0000
,
0000
0000
0100
0000
0000
0000
0000
0000
0000
1000
0000
0000
0000
0000
0000
0000
,
0000
0100
0000
0000
0000
1000
0000
0000
,
0000
0000
1000
0000
0000
0000
0000
0000
0000
0001
0000
0000
0000
0000
0000
0000
,
0000
0001
0000
0000
0000
0001
0000
0000
,
0000
0010
0000
1000
0000
0000
0000
0100
,
0000
0000
0000
1000
0000
0000
0000
0010
,
0000
0000
0000
1000
0000
0000
0000
0100
,
0000
0000
0100
0000
0000
0010
0000
0000
,
0000
0001
0000
0000
0000
0100
0000
0000
,
0000
0001
0000
0000
0000
0010
0000
0000
,
0000
0001
0000
2000
0000
0000
0000
0000
,
0000
0000
0000
3002
0000
0000
0000
0103
,
0000
0000
0000
0010
0000
0000
0000
1000
,
0000
0000
0000
0010
0000
0000
0000
0100
,
0000
0000
0000
1000
0000
0000
0010
0000
,
0000
0000
0000
1000
0000
0000
0000
1000
,
0000
0000
0000
0100
0000
0010
0000
0000
,
0000
0001
0000
2000
0000
0000
0000
0000
,
0000
0000
0000
3001
0000
0000
0000
0001
,
0000
0000
0000
0100
0000
0000
0000
0001
,
0000
0000
0000
0001
0000
0000
0000
0010
,
0000
0000
0000
0001
0000
0000
0001
0000
,
0000
0000
0000
0010
0000
0000
0000
0100
,
0000
0000
0000
0010
0000
0000
0000
0001
,
0000
0000
0000
0001
0000
0000
0000
0020
,
0000
0000
0000
0000
0000
0000
0000
0230
,
0000
0000
0000
0301
0000
0000
0000
0001
,
0000
0000
0000
0100
0000
0000
0000
0100
,
0000
0000
0000
0100
0000
0000
0000
0100
,
0000
0000
0000
0001
0000
0000
0100
0000
,
0000
0010
0000
0000
0000
0001
0000
0000
,
0000
0010
0000
0000
0000
0001
0000
0000
,
0000
0001
0000
0000
0000
0010
0000
0000
,
0000
0001
1000
0000
0000
0000
0000
0000
,
0001
0000
0000
0010
,
0000
0001
0000
0100
,
0000
1000
0000
0010
,
0000
1000
0000
0010
,
0000
0001
0000
0100
,
0000
0010
0000
0100
,
0000
0010
0000
0001
,
0200
0000
0000
0000
,
0000
0000
0000
0000
,
0300
0000
0000
0000
;
