#TITLE:SAMBA de ASPEL;
#SUBTITLE:;
#ARTIST:Anemo=Aspel by MLREC.;
#TITLETRANSLIT:;
#SUBTITLETRANSLIT:;
#ARTISTTRANSLIT:;
#CREDIT:;
#BANNER:SAMBA de ASPEL-bn.png;
#BACKGROUND:SAMBA de ASPEL-bg.png;
#LYRICSPATH:;
#CDTITLE:;
#MUSIC:SAMBA de ASPEL.mp3;
#OFFSET:0.000;
#SAMPLESTART:85.100;
#SAMPLELENGTH:12.000;
#SELECTABLE:YES;
#BPMS:0.000=145.000;
#STOPS:33.000=0.160
,34.000=0.220
,34.500=0.100
,35.500=0.140
,103.500=0.160
,104.500=0.220
,105.000=0.100
,106.000=0.140
,138.500=0.620
,141.000=0.620
,152.500=0.160
,153.000=0.160
,154.000=0.280
,155.000=0.160
,155.500=0.160
,156.500=0.120
,226.000=0.200
,226.500=0.100
,227.500=0.080
,259.500=0.220
,260.500=0.220
,261.000=0.100
,262.000=0.260
,263.000=0.220
,263.500=0.100
,264.500=0.160
;
#BGCHANGES:;

//---------------dance-single - Copied from----------------
#NOTES:
     dance-single:
     Copied from:
     Challenge:
     15:
     0.723,0.726,0.403,0.369,0.999: // measure 1
0000
0000
0000
0000
0000
0000
1001
0000
0001
1000
0000
0100
0000
1000
0000
0010
,  // measure 2
0000
0100
0001
0000
0100
0000
0110
0000
0010
1000
0000
0001
0000
0100
0000
0010
,  // measure 3
0000
1000
0001
0000
1000
0000
1100
0000
0100
0010
0000
0001
0000
1000
0000
0010
,  // measure 4
0000
0100
0001
0000
0100
0000
0101
0000
0001
1000
0000
0100
0000
0010
0100
0010
,  // measure 5
0100
1000
0100
1000
0001
1000
0001
0000
0100
0000
0001
0000
1000
0100
0000
1000
,  // measure 6
0000
0010
0100
0000
0001
0000
1000
0000
0010
0000
0100
0001
0000
1000
0000
0010
,  // measure 7
0000
0100
0001
0000
1000
0000
0001
0000
0100
0000
0001
0010
0000
0100
0000
1000
,  // measure 8
0000
0100
0010
0000
0001
0000
0010
0000
1000
0000
0010
0001
0000
1000
0000
0010
,  // measure 9
0000
0100
0001
0000
1001
0000
0110
0000
1010
0000
0120
0000
0100
0000
0230
0000
,  // measure 10
0010
0310
0000
0000
0000
0000
0000
0000
,  // measure 11
2002
0000
0000
3003
0220
0000
0000
0300
,  // measure 12
1030
0000
0001
1000
0000
0010
0000
0100
0000
0001
0000
1000
0000
0000
0010
0100
,  // measure 13
0010
0000
1000
0001
0000
0100
0000
1000
0000
0100
0000
0001
0000
0000
0010
0100
,  // measure 14
1000
0000
0010
0100
0000
1000
0000
0100
0000
0001
0000
0010
0000
0000
0100
1000
,  // measure 15
0002
0000
0000
0203
0000
0000
0320
0000
0000
0000
0000
0000
0000
0000
0130
0001
,  // measure 16
1000
0000
0010
0100
0000
1000
0000
0001
0000
0010
0000
1000
0000
0000
0100
0010
,  // measure 17
0001
0000
0010
1000
0000
0001
0000
0100
0000
1000
0000
0000
0010
0000
0100
0000
,  // measure 18
0001
0000
0000
0002
0000
0000
0000
0000
1000
0000
0000
0000
0100
0000
0000
0000
,  // measure 19
0003
0000
1010
0000
0000
0101
0000
0000
1001
0000
0000
1010
0000
0000
0101
0000
,  // measure 20
0001
0000
1000
0001
0000
0100
0000
0010
0000
1000
0000
0002
0000
0000
0000
0000
,  // measure 21
0103
0000
0001
1000
0000
0010
0000
0001
0000
0010
0000
2000
0000
0000
0000
3000
,  // measure 22
0001
0000
0100
0010
0000
0001
0000
0010
0000
1000
0000
0100
0000
0000
0000
1000
,  // measure 23
0002
0000
0000
0023
0000
0000
0230
0000
0000
0000
0000
0000
0000
0000
0000
0300
,  // measure 24
1000
0000
0100
0010
0000
0001
0000
1000
0000
0100
0000
0001
0000
0000
0000
0000
,  // measure 25
0100
0000
1000
0001
0000
0100
0000
0010
0000
0001
0010
0000
0100
0000
0001
0000
,  // measure 26
0100
1000
0001
1000
0100
0010
0100
0100
,  // measure 27
1001
0101
1010
0101
1001
0010
0100
0001
,  // measure 28
0000
0010
0000
0100
0000
1000
0000
0100
0010
0000
0001
0000
1000
0000
0010
0000
,  // measure 29
0000
0100
0000
0001
0000
1000
0000
0010
0100
0000
0001
0000
0100
0000
0010
0000
,  // measure 30
0000
1000
0000
0100
0000
0001
0000
0100
1000
0000
0001
0000
0010
0000
0001
0000
,  // measure 31
0000
1000
0000
0010
0000
0100
0000
0010
0100
0000
0001
0000
0010
0000
0100
0000
,  // measure 32
0000
1000
0000
0010
0000
0001
0000
0010
1000
0000
0001
0000
0100
0000
0001
0000
,  // measure 33
0000
0010
0000
0100
0000
1000
0000
0010
0100
0000
0001
0000
0100
0000
0010
0000
,  // measure 34
0000
1000
0000
0100
0000
0001
0000
0100
0001
0000
1000
0000
0010
0000
0001
0000
,  // measure 35
0000
1000
0000
0010
0000
0100
0010
0000
0100
0000
2002
0000
3000
0000
0103
0000
,  // measure 36
0202
0300
2000
3003
1010
0010
0100
0110
,  // measure 37
0000
0000
0000
0010
0000
0000
1000
0000
0000
1010
0000
0000
0000
0000
0000
1001
0000
0000
1000
0000
0000
0001
0000
0010
,  // measure 38
0000
0001
0000
1000
0000
0010
0000
1000
0000
0100
0000
0010
0000
0001
0000
0100
0000
0010
0000
1000
0000
0100
0000
0000
,  // measure 39
1000
0002
0203
0010
0320
1000
0230
0302
,  // measure 40
1003
2000
3001
0000
0000
0000
0000
0000
,  // measure 41
0000
0000
0220
0000
0000
0330
2002
0000
,  // measure 42
0000
0000
3003
0000
1000
0000
0001
1000
0000
0010
0000
0100
0000
0001
0000
1000
,  // measure 43
0000
0000
0010
0100
0010
0000
1000
0001
0000
0100
0000
1000
0000
0100
0000
0001
,  // measure 44
0000
0000
0010
0100
1000
0000
0010
0100
0000
1000
0000
0100
0000
0001
0000
0010
,  // measure 45
0000
0000
0100
1000
0002
0000
0000
0203
0000
0000
0320
0000
0000
0000
0000
0000
,  // measure 46
0000
0000
0130
0001
1000
0000
0010
0100
0000
1000
0000
0001
0000
0010
0000
1000
,  // measure 47
0000
0000
0100
0010
0001
0000
0010
1000
0000
0001
0000
0100
0000
1000
0000
0000
,  // measure 48
0010
0000
0100
0000
0001
0000
0000
0002
0000
0000
0000
0000
1000
0000
0000
0000
,  // measure 49
0100
0000
0000
0000
0003
0000
1010
0000
0000
0101
0000
0000
1001
0000
0000
1010
,  // measure 50
0000
0000
0101
0000
0001
0000
1000
0001
0000
0100
0000
0010
0000
1000
0000
0001
,  // measure 51
0000
0000
0100
0010
0100
0000
0001
1000
0000
0010
0000
0001
0000
0010
0000
1000
,  // measure 52
0000
0000
0100
0010
0001
0000
0100
0010
0000
0001
0000
0010
0000
1000
0000
0100
,  // measure 53
0000
0000
0010
0001
2000
0000
0000
3020
0000
0000
0230
0000
0010
0000
0000
0001
,  // measure 54
0000
0000
0310
1000
0001
0000
0100
0010
0000
0001
0000
1000
0000
0100
0000
0001
,  // measure 55
0000
0000
0010
0100
1000
0000
0100
0001
0000
1000
0000
0010
0000
0001
0000
0000
,  // measure 56
0100
0000
0010
0000
1000
0000
0000
2000
0000
0000
0000
0000
0001
0000
0000
0000
,  // measure 57
0010
0000
0000
3010
1010
0101
1001
0011
,  // measure 58
1000
0000
0010
0100
0000
0001
0000
1000
0000
0010
0000
0100
0010
0000
1000
0000
,  // measure 59
0100
0010
0001
0010
0100
0010
0001
0010
0100
0010
0001
0010
0100
0000
0010
0000
,  // measure 60
0011
0000
0001
1000
0000
0010
0000
0100
0000
0010
0000
1000
0001
0000
0100
0000
,  // measure 61
0010
0100
0001
0100
0010
0100
0001
0100
0010
0100
0001
0100
0010
0000
1000
0000
,  // measure 62
1001
0000
0001
0000
0100
0010
0000
1000
0000
0001
0000
0100
0010
0000
1000
0000
,  // measure 63
1010
0000
0010
0000
0100
0010
0000
0001
0000
0010
0000
1000
0100
0000
0010
0000
,  // measure 64
0011
0000
0001
0000
0100
0001
0000
0010
0000
1000
0000
0010
0001
0000
1001
0000
,  // measure 65
0110
0000
0101
0000
0100
0010
0000
0100
0000
0001
0000
1000
0100
0000
0020
0000
,  // measure 66
0031
0011
0210
1300
2000
3010
1010
2000
,  // measure 67
0001
3010
2002
0000
3003
0000
0000
0000
;

//---------------dance-single - Copied from Copied f----------------
#NOTES:
     dance-single:
     Copied from Copied f:
     Hard:
     13:
     0.489,0.530,0.109,0.260,0.227:
0000
0000
0000
1001
0000
0000
0000
0000
,
0000
0000
0100
0110
0000
0000
0000
0000
,
0000
0000
1000
1010
0000
0000
0000
0000
,
0000
0000
0100
0101
0000
0000
0010
1000
,
0010
0000
0100
0000
0001
1000
0001
0000
0100
0000
0001
0000
1000
0010
0000
0000
,
0000
0000
0100
0000
0001
0000
1000
0000
0010
0000
0100
0001
0000
0000
0000
0000
,
0000
0000
1000
0000
0010
0000
0100
0000
0010
0000
1000
0001
0000
0000
0000
0000
,
0000
0000
0010
0000
0100
0000
0010
0000
0100
0000
1000
0001
0000
0000
0000
0000
,
0000
0001
1001
1000
1000
0010
0010
0100
,
0001
0001
0000
0000
0000
0000
0000
0000
,
0002
0000
0000
0000
2000
0000
0000
0003
,
3010
0100
0001
0000
1000
0010
0100
0000
,
0001
1000
0010
0000
0100
0001
1000
0000
,
0010
0100
0001
0000
0100
0010
1000
0000
,
0001
1000
0100
0020
0000
0000
0000
0000
,
0031
1000
0100
0000
0010
0001
1000
0000
,
0010
0100
0001
0000
1000
0010
0100
0000
,
0001
0000
0000
2000
0000
0000
0000
0000
0000
0000
0000
0000
0000
0000
0000
3000
,
0000
0000
0020
0000
0000
1000
0000
0000
0100
0000
0000
1000
0000
0000
0100
0000
,
1030
0000
1000
0001
0000
0000
0000
0000
0010
0000
1000
0000
0001
0000
0000
0000
,
0100
0001
1000
0000
0010
0100
0001
0000
,
1000
0010
0100
0000
0001
1000
0010
0000
,
0100
0000
0000
0100
0000
0000
0020
0000
0000
0000
0000
0000
0000
0000
0000
0000
,
1030
0001
0100
0000
0010
0100
0010
0000
,
0100
0001
1000
0000
0010
1000
0100
0000
,
0010
0001
0100
0010
1000
0001
0100
0010
,
1001
1010
0020
1000
0130
0100
0010
1000
,
0000
0100
0000
0010
0000
0001
0000
0000
0000
0000
0100
0000
1000
0000
0001
0000
,
0000
0010
0000
1000
0000
0001
0000
0000
0000
0000
1000
0000
0010
0000
0100
0000
,
0000
0001
0000
0010
0000
1000
0000
0000
0000
0000
0001
0000
0100
0000
1000
0000
,
0000
0001
0000
0100
0000
0010
0000
0000
0000
0000
1000
0000
0100
0000
0010
0000
,
0000
0001
0000
0100
0000
1000
0000
0000
0000
0000
0001
0000
0010
0000
1000
0000
,
0000
0100
0000
0010
0000
0001
0000
0000
0000
0000
1000
0000
0010
0000
0100
0000
,
0000
0001
0000
0010
0000
1000
0000
0000
0000
0000
0001
0000
0100
0000
1000
0000
,
0000
0001
0000
0100
0000
0010
0000
0000
0000
0000
2002
0000
3000
0000
0100
0000
,
0200
0003
0020
0330
0100
0001
0000
0101
,
0000
0000
0000
0100
0000
0000
0000
0000
0000
0110
0000
0000
0000
0000
0000
0010
0000
0000
0000
0000
0000
1000
0000
0001
,
0000
1000
0000
0001
0000
1000
0000
0001
0000
1000
0000
0001
0000
1000
0000
0001
0000
1000
0000
0001
0000
1000
0000
0000
,
0010
2000
3020
0100
2030
3200
0320
0001
,
0031
0002
1003
0000
0000
0000
0000
0000
,
0000
0020
0000
0200
,
0000
0030
0310
0010
1000
0000
0001
0100
,
0010
0000
1000
0001
0100
0000
0010
1000
,
0001
0000
0100
0010
1000
0000
0010
0100
,
0001
0000
1000
0001
0010
0200
0000
0000
,
0000
0000
1300
0001
0010
0000
0100
1000
,
0001
0000
0100
0010
1000
0000
0001
0100
,
0010
0000
0000
0000
1000
0000
0000
0002
0000
0000
0000
0000
0000
0000
0000
0000
,
0000
0000
0000
0003
0000
0000
0200
0000
0000
0001
0000
0000
0010
0000
0000
0001
,
0000
0000
0010
0000
0301
0000
0001
1000
0000
0000
0000
0000
0100
0000
0001
0000
,
1000
0000
0010
1000
0001
0000
0100
0010
,
1000
0000
0001
0100
0010
0000
1000
0001
,
0100
0000
0000
0000
0010
0000
0000
0010
0000
0000
0200
0000
0000
0000
0000
0000
,
0000
0000
0301
1000
0010
0000
0100
0010
,
0100
0000
0010
1000
0001
0000
0100
0001
,
0010
0000
0000
0000
0100
0000
0000
2000
0000
0000
0000
0000
0001
0000
0000
0000
,
0010
0000
0000
3002
1000
0100
1000
1003
,
0010
0000
0100
0010
0000
0000
0000
0000
1000
0000
0010
0000
1000
0000
0000
0000
,
0001
0001
0100
0100
0001
0001
0100
0100
,
0110
0000
0010
1000
0000
0000
0000
0000
0010
0000
0100
0000
0001
0000
0000
0000
,
1000
1000
0010
0010
1000
1000
0010
0010
,
1010
0000
1000
0000
0001
0010
0000
0000
0000
0000
0000
0000
0100
0000
1000
0000
,
0001
0000
0100
0000
0010
1000
0000
0000
0000
0000
0000
0000
0001
0000
1000
0000
,
0001
0000
0100
0000
0010
1000
0000
0000
0000
0000
0000
0000
0001
0000
1000
0000
,
1000
0000
1000
0000
0001
0010
0000
0000
0000
0000
0000
0000
0100
0000
0200
0000
,
1300
2000
3020
0100
0130
0001
0002
0103
,
0100
0010
2002
0000
3003
0000
0000
0000
;

//---------------dance-single - Copied from Copied f----------------
#NOTES:
     dance-single:
     Copied from Copied f:
     Medium:
     10:
     0.380,0.419,0.084,0.218,0.013:
0000
0000
0000
1001
0000
0000
0000
0000
,
0000
0000
0100
0100
0000
0000
0000
0000
,
0000
0000
0010
0010
0000
0000
0000
0000
,
0000
0000
0100
0100
0000
0000
0000
0001
,
0100
0001
0000
1000
0010
1000
0000
0000
,
0000
1000
0001
1000
0010
0100
0000
0000
,
0000
0001
1000
0001
0100
0010
0000
0000
,
0000
0100
0010
0100
0001
1000
0000
0000
,
0000
0001
0001
1000
1000
0000
0010
0010
,
0100
0100
0000
0000
0000
0000
0000
0000
,
0002
0000
2000
3003
,
0010
0100
0001
0000
1000
0010
0100
0000
,
0001
1000
0010
0000
0100
0001
1000
0000
,
0010
0100
0001
0000
0100
0010
1000
0000
,
0001
1000
0100
0020
0000
0000
0000
0000
,
0031
1000
0100
0000
0010
0001
1000
0000
,
0010
0100
0001
0000
1000
0010
0100
0000
,
0001
0000
0000
2000
0000
0000
0000
0000
0000
0000
0000
0000
0000
0000
0000
3000
,
0000
0220
0000
0000
0000
0000
0000
0000
,
0330
1000
0000
0000
0010
1000
0001
0000
,
0100
0001
1000
0000
0010
0100
0001
0000
,
1000
0010
0100
0000
0001
1000
0010
0000
,
0100
0000
0000
0020
0000
0000
0000
0000
,
1030
0001
0100
0000
0010
0100
0010
0000
,
0100
0001
1000
0000
0010
1000
0100
0000
,
0010
0001
0100
0010
1000
0001
0100
0010
,
0100
0100
0001
0001
0100
0100
0010
1000
,
0000
0000
0000
0000
0000
0100
1000
0001
,
0000
0000
0000
0000
0000
1000
0010
0100
,
0000
0000
0000
0000
0000
0001
0100
1000
,
0000
0000
0000
0000
0000
1000
0100
0010
,
0000
0000
0000
0000
0000
0001
0010
1000
,
0000
0000
0000
0000
0000
1000
0010
0100
,
0000
0000
0000
0000
0000
0001
0100
1000
,
0000
0000
0000
0000
0000
1001
0000
0100
,
0100
0000
0110
0000
0010
0010
0000
1001
,
0000
0100
0000
1001
0000
0010
0000
2000
,
3000
0002
0003
2000
3000
0002
0003
2000
,
3010
0010
0000
0100
0100
0010
0010
0000
,
0100
0100
0010
0000
0000
0000
0000
0000
,
0000
0020
0000
0200
,
0000
0030
0310
0010
1000
0000
0001
0100
,
0010
0000
1000
0001
0100
0000
0010
1000
,
0001
0000
0100
0010
1000
0000
0010
0100
,
0001
0000
1000
0001
0010
0200
0000
0000
,
0000
0000
1300
0001
0010
0000
0100
1000
,
0001
0000
0100
0010
1000
0000
0001
0100
,
0010
0000
0000
0000
1000
0000
0000
0002
0000
0000
0000
0000
0000
0000
0000
0000
,
0000
0000
0000
0003
0000
0000
0220
0000
0000
0000
0000
0000
0000
0000
0000
0000
,
0000
0000
0330
0001
0000
0000
0100
0001
,
1000
0000
0010
1000
0001
0000
0100
0010
,
1000
0000
0001
0100
0010
0000
1000
0001
,
0100
0000
0010
0000
0000
0200
0000
0000
,
0000
0000
0301
1000
0010
0000
0100
0010
,
0100
0000
0010
1000
0001
0000
0100
0001
,
0010
0000
0000
0000
0100
0000
0000
2000
0000
0000
0000
0000
0001
0000
0000
0000
,
0010
0000
0000
0002
0000
0000
0000
3003
,
0010
1000
0001
0100
,
0001
0000
0100
0000
0001
0000
0100
0100
,
0110
0010
0100
0001
,
1000
0000
0010
0000
1000
0000
0010
0010
,
1010
1000
0001
0100
,
0001
1000
0010
1000
,
0001
0000
0010
0000
0100
0000
0000
0001
,
0001
0001
0000
0000
0000
0000
0100
0200
,
0000
1300
2000
0000
3001
0002
0000
0103
,
0100
2002
3003
0000
;

//---------------dance-single - Copied from Copied f----------------
#NOTES:
     dance-single:
     Copied from Copied f:
     Easy:
     5:
     0.254,0.307,0.092,0.202,0.004:
0000
0000
0000
0000
,
0000
0000
0000
0110
0000
0000
0000
0000
,
0000
0000
0000
1001
0000
0000
0000
0000
,
0000
0000
0000
0110
0000
0000
0000
0001
,
0000
1000
0000
0001
0000
1000
0000
0000
,
0000
0010
0000
0100
0000
0010
0000
0000
,
0000
0100
0000
0001
0000
1000
0000
0000
,
0000
0010
0000
0100
0000
0001
0000
0000
,
0000
2002
0000
0000
0000
0000
0000
0000
,
0000
3003
0000
0000
0000
0000
0000
0000
,
0002
0000
2000
3003
,
0010
1000
0001
1000
,
0000
0001
1000
0001
,
0100
0000
0010
1000
,
0001
0000
0100
0020
0000
0000
0000
0000
,
1030
0001
0100
0010
,
1000
0001
0010
0100
,
2000
0000
0000
0000
0000
0000
0000
0000
0000
0000
0000
0000
0000
0000
0000
3000
,
0000
0002
0000
0000
0000
0000
0000
0000
,
1003
0010
1000
0001
,
0000
1000
0001
0100
,
0010
0000
0100
0010
,
0100
0020
0000
0000
,
1030
0001
0100
0010
,
0000
1000
0001
1000
,
0010
0000
0100
0000
0010
0000
0000
0200
,
0000
0000
0310
0000
,
0000
0000
0000
0000
0000
0100
0100
0100
,
0000
1000
0001
1000
,
0000
0000
0000
0000
0000
0010
0010
0010
,
0000
0001
1000
0100
,
0000
0000
0000
0000
0000
0001
0001
0001
,
0000
1000
0010
0100
,
0000
0000
0000
0000
0000
0010
0010
0010
,
0000
0000
0000
0000
0000
1001
0000
0000
,
0000
0000
1001
0000
0000
0000
0000
1001
,
0000
0000
0000
1001
0000
0000
0000
0200
,
0000
0000
0000
0000
,
0301
0002
0000
1003
2000
0000
3001
0002
,
0000
0103
0100
0000
0000
0000
0000
0000
,
0000
0002
0000
2000
,
3003
0010
1000
0001
,
1000
0000
0001
1000
,
0001
0100
0000
0010
,
1000
0000
0001
0000
0100
0020
0000
0000
,
0000
1030
0001
0100
,
0010
1000
0001
0010
,
0100
2000
0000
0000
,
0000
0000
0000
3000
0000
0000
0002
0000
0000
0000
0000
0000
0000
0000
0000
0000
,
0000
1003
0010
1000
,
0001
0000
1000
0001
,
0100
0010
0000
0100
,
0010
0100
0020
0000
,
0000
1030
0001
0100
,
0010
0000
1000
0001
,
1000
0000
0000
0000
0010
0000
0000
2000
0000
0000
0000
0000
0001
0000
0000
0000
,
0010
0000
0000
0002
0000
0000
0000
3003
,
0010
1000
0001
0000
,
1000
0001
1000
0000
,
0110
0000
0100
0001
,
1000
0000
0010
0000
,
1001
0000
0001
0100
,
0001
0000
0010
1000
,
0001
0000
0000
0000
0100
0000
0000
0002
,
0000
0003
0000
0000
0000
0000
0100
0100
,
0000
0000
1000
0000
0001
0001
0000
1000
,
0000
1000
2002
0000
3003
0000
0000
0000
;

//---------------dance-single - Copied from Copied f----------------
#NOTES:
     dance-single:
     Copied from Copied f:
     Beginner:
     3:
     0.169,0.168,0.076,0.151,0.000:
0000
0000
0000
0000
,
0000
0000
0000
0100
0000
0000
0000
0000
,
0000
0000
0000
1001
0000
0000
0000
0000
,
0000
0000
0000
0100
0000
0000
0000
0000
,
0000
1000
0000
0001
0000
1000
0000
0000
,
0000
0000
0000
0100
0000
0010
0000
0000
,
0000
0000
0000
0001
0000
1000
0000
0000
,
0000
0000
0000
0100
0000
0001
0000
0000
,
0000
0220
0000
0000
0000
0000
0000
0330
,
0000
0000
0000
0000
,
0001
0000
1000
0000
,
0010
0000
0001
0000
,
1000
0000
0001
0000
,
0100
0000
0010
0000
,
0100
0000
0020
0000
,
1030
0000
0001
0000
,
1000
0000
0010
0000
,
0200
0000
0000
0000
,
0300
1001
0000
0000
0000
0000
0000
0000
,
1000
0000
0010
0000
,
0100
0000
0001
0000
,
0010
0000
0100
0000
,
1000
0020
0000
0000
,
1030
0000
0001
0000
,
0100
0000
0010
0000
,
1000
0000
0000
0000
0001
0000
0000
0220
,
0000
0000
0330
0000
,
0000
0000
0000
0100
,
0000
1000
0001
1000
,
0000
0000
0000
0010
,
0000
0001
1000
0100
,
0000
0000
0000
0001
,
0000
1000
0010
0100
,
0000
0000
0000
0010
,
0000
0000
0000
0000
0000
1001
0000
0000
,
0000
0000
0000
0000
0000
0000
0000
1001
,
0000
0000
0000
0100
0000
0000
0000
0020
,
0000
0000
0000
0000
,
0030
2000
0000
0000
0000
0000
0000
0000
,
0000
3001
0000
0000
,
0000
1000
0000
0010
,
0000
0010
0000
0100
,
0000
0001
0000
1000
,
0000
0010
0000
0100
,
0000
0001
1000
0020
,
0000
0130
0000
0001
,
0000
1000
0000
0010
,
0000
2000
0000
0000
,
0000
0000
0000
3000
0000
0000
0002
0000
0000
0000
0000
0000
0000
0000
0000
0000
,
0000
1003
0000
0010
,
0000
0100
0000
0001
,
0000
1000
0000
0001
,
0000
0100
0020
0000
,
0000
1030
0000
0001
,
0000
0010
0000
0100
,
0000
1000
0000
1000
,
0000
0002
0000
0000
,
1003
0000
0010
0000
,
0100
0000
0001
0000
,
1000
0000
0010
0000
,
0100
0000
0010
0000
,
1001
0000
0000
0100
,
0001
0000
0000
1000
,
0001
0000
0000
0000
0000
0000
0000
2002
,
0000
3003
0000
0000
0000
0000
0100
0010
,
0000
0000
0000
0000
0100
0010
0000
0000
,
0000
2002
3003
0000
;
