#TITLE:Ristaccia;
#SUBTITLE:;
#ARTIST:Zektbach;
#TITLETRANSLIT:;
#SUBTITLETRANSLIT:;
#ARTISTTRANSLIT:;
#CREDIT:;
#BANNER:;
#BACKGROUND:Ristaccia-jacket.png;
#LYRICSPATH:;
#CDTITLE:;
#MUSIC:Ristaccia.mp3;
#OFFSET:1.600;
#SAMPLESTART:16.260;
#SAMPLELENGTH:12.000;
#SELECTABLE:YES;
#BPMS:0.000=160.000;
#STOPS:;
#BGCHANGES:;

//---------------dance-single - ----------------
#NOTES:
     dance-single:
     :
     Challenge:
     15:
     0.788,1.000,0.348,0.726,0.797:
0000
0000
0000
0000
,
0000
0000
0000
0000
,
0000
0000
0000
0000
,
0000
0000
0000
0000
,
0000
0000
0000
0000
,
0000
0000
0000
0000
,
0000
0000
0000
0000
,
0000
0000
0000
0000
,
0000
0000
0000
0000
,
0000
0000
0000
0000
0000
0000
0000
0001
,
1000
0000
0010
0100
0000
0100
0001
0100
0000
0010
1000
0010
0000
0010
0100
0010
,
0000
0100
0001
0000
0001
0100
0000
0100
0000
0010
1000
0001
0000
0000
2020
0000
,
3030
0202
0303
2002
3003
0220
0330
1020
,
0000
0000
0000
0230
0000
0000
0000
0310
,
0110
0100
0101
0002
0003
2001
0000
3002
,
0000
0000
0000
0000
0000
0000
2003
0000
0000
0000
3010
0000
0100
0000
0010
1000
,
0001
0010
0100
1000
0100
0010
0001
0100
0001
0100
0010
0100
0010
1000
0100
0010
,
0100
1000
0010
0100
1000
0100
0001
0010
0100
0010
0001
1000
0010
1000
0001
0100
,
0001
0010
0100
0010
0001
0100
0010
0001
0010
0100
0010
1000
0001
0010
1000
0001
,
0100
1000
0010
0100
0001
0010
0001
1000
0100
1000
0010
0001
1000
0100
0001
0010
,
0100
1000
0100
0010
0001
0100
0010
0001
1000
0100
0010
1000
0100
0010
0001
0010
,
0100
0010
0100
1000
0001
0010
0001
1000
0100
1000
0010
0100
0010
0000
2020
0000
,
0000
0000
3030
0202
0000
0000
0303
0120
,
0030
0210
0300
0120
0030
0210
0300
2002
,
0000
0000
0003
0002
0000
3000
0000
2000
,
0000
0003
0000
0020
0000
3000
0000
0200
,
0000
0000
0030
0000
0000
0000
0002
0000
0000
0000
0300
0000
0000
0000
1003
0010
,
0100
0001
1000
0010
0100
0001
0010
0100
1000
0001
0010
0100
1000
0010
0200
0000
,
0000
0000
0000
0302
0000
0000
0000
2003
,
0000
3020
0000
0130
0010
1000
0001
1000
,
0010
0001
0010
1000
0100
0001
0100
2000
,
0000
0000
3010
0210
0000
0310
0000
0110
,
0001
1000
0001
0010
1000
0010
0001
1000
,
0010
0100
0001
0100
1000
0100
0010
1000
,
0001
0010
0100
1000
0010
0100
1000
0100
,
0010
1000
0001
0010
1000
0001
0100
1001
,
0001
0010
0001
0100
1000
0100
0001
0010
,
0100
0000
0001
0000
1000
0000
0010
0000
0001
0000
0100
0000
1000
0000
0100
0001
,
1000
0000
0010
0100
0001
0000
0010
0100
0010
0000
0001
0010
0100
0000
1000
0010
,
0100
0000
0001
1000
0100
0000
0010
0001
0100
0000
0010
0100
0010
0000
1001
0000
,
1000
0010
1000
1010
0010
0100
0001
0101
,
0010
1010
0100
0101
0010
1001
0100
0110
,
0000
1000
0102
0000
0103
2010
0000
3010
,
1002
0000
0000
0000
1003
0100
0001
0100
1000
0010
0001
0010
1000
0001
0100
0000
,
0000
0010
1200
0000
1300
0012
0000
0103
,
0110
0000
0000
0000
1000
0100
0010
0100
1000
0010
0100
1000
0100
0001
1000
0000
,
0000
0001
2010
0000
3010
0102
0000
0103
,
2001
0000
0000
0000
3001
0010
1000
0010
0001
0100
1000
0100
0001
1000
0010
0000
,
0000
0100
0021
0000
0031
2100
0000
3010
,
0110
0000
0000
0000
0001
0010
0100
0010
0001
0100
0010
0001
0010
1000
0002
0000
,
0000
0000
1003
2001
0000
0000
0000
0000
,
0000
0020
3000
0000
0200
0030
0000
2000
,
0300
0000
3100
0102
0000
0000
0000
0000
,
0000
0020
0000
0003
0200
0000
0030
2000
,
0300
0000
3010
1002
0000
0000
0000
0000
,
0000
0203
0000
0000
0020
0000
0300
0002
,
0030
0000
0013
2010
0000
0002
0000
3000
,
0000
2000
0003
0000
0020
3000
0000
0230
,
0000
0000
0301
0010
0100
1000
0002
0000
0000
0000
0013
0100
1000
0001
0020
0000
,
0000
0000
0130
1000
0001
0010
0200
0000
0000
0000
1300
0001
0010
0100
2000
0000
,
0000
0000
3001
0010
0100
1000
0002
0000
0000
0000
0013
0100
1000
0001
0020
0000
,
0000
0000
0031
0100
0010
1000
0100
0001
0100
1000
0010
0001
0010
1000
0002
0000
,
0000
0000
1003
0100
0010
0001
2000
0000
0000
0000
3100
0010
0001
1000
0200
0000
,
0000
0000
0310
0001
1000
0100
0020
0000
0000
0000
0031
1000
0100
0010
0002
0000
,
0000
0000
1003
0100
0010
0001
2000
0000
0000
0000
3100
0010
0001
1000
0200
0000
,
0000
0000
1300
0010
0100
0001
0010
1000
0010
0001
0100
1000
0100
0001
0020
0000
,
0000
0000
0000
0230
0000
0000
0000
2300
,
0000
0000
0000
3002
0000
0000
0000
0203
,
0000
0000
0000
0000
0000
0000
0302
0000
0000
0000
0000
0000
0103
0010
2000
0000
,
0000
0000
0000
0000
0000
0000
3020
0000
0000
0000
0130
0000
0000
0100
0002
0000
,
0000
0000
0000
2003
0000
0000
0000
3020
,
0000
0000
0000
0000
0000
0000
0000
0000
0000
0130
0000
0000
0000
0000
0000
0010
0000
1000
0000
0001
0000
0200
0000
0000
,
0000
0000
0300
2002
0000
0000
3003
0101
,
0000
0000
0000
1010
0000
0000
0000
0000
0000
0010
0000
0100
0000
0010
0000
1000
0000
0001
0000
0100
0000
0001
0000
0000
,
0000
0000
0000
1000
0000
0010
0000
0001
0000
0020
0000
0000
0000
0000
0000
1030
0000
0100
0000
0001
0000
0200
0000
0000
,
0000
0000
0000
1300
0000
0001
0000
0100
0000
1000
0000
0100
0000
0001
0000
0010
0000
1000
0000
0010
0000
0001
0000
0000
,
0000
0000
0000
0100
0000
0010
0000
1000
0000
0010
0000
0100
0000
0001
0000
0100
0000
0010
0000
1000
0000
0100
0000
0010
,
0000
0100
0000
1000
0000
0000
0000
0000
0000
1000
0000
0100
0000
0010
0000
0001
0000
0100
0000
0010
0000
0100
0000
0000
,
0000
0000
0000
0001
0000
0010
0000
1000
0000
0020
0000
0000
0000
0000
0000
0031
0000
0010
0000
1000
0000
0020
0000
0000
,
0000
0000
0000
1030
0000
0010
0000
0001
0000
0100
0000
1000
0000
0100
0000
0001
0000
0010
0000
0100
0000
1000
0000
0000
,
0000
0000
0000
0010
0000
0100
0000
0001
0000
0100
0000
0010
0000
1000
0000
0010
0000
0100
0000
0001
0000
0010
0000
0100
,
0000
0010
0000
0001
0000
0010
0000
1000
0000
0010
0000
0001
0000
0100
0000
1000
0000
0000
0000
0000
0000
0100
0000
0001
,
0000
1000
0000
0010
0000
0010
0000
0100
0000
0001
0000
0010
0000
0100
0000
1000
0000
1000
0000
0001
0000
0100
0000
0010
,
0000
1000
0000
0001
0000
0001
0000
0100
0000
0010
0000
0001
0000
1000
0000
0100
0000
0001
0000
0100
0000
0010
0000
1000
,
0000
0100
0000
0001
0000
0001
0000
0100
0000
0010
0000
0001
0000
1000
0000
0010
0000
0010
0000
1000
0000
0010
0000
0100
,
0000
1000
0000
0100
0000
0100
0000
0001
0000
1000
0000
0010
0000
1000
0000
0001
0000
1000
0000
1010
0000
0000
0000
0000
,
0000
2002
0000
0000
3003
0120
0000
0000
,
0000
0000
0000
0000
0000
0200
0000
0000
,
0000
0000
0000
0000
,
0330
0000
0000
0000
;

//---------------dance-single - Copied from----------------
#NOTES:
     dance-single:
     Copied from:
     Hard:
     14:
     0.627,0.791,0.222,0.645,0.496:
0000
0000
0000
0000
,
0000
0000
0000
0000
,
0000
0000
0000
0000
,
0000
0000
0000
0000
,
0000
0000
0000
0000
,
0000
0000
0000
0000
,
0000
0000
0000
0000
,
0000
0000
0000
0000
,
0000
0000
0000
0000
,
0000
0000
0000
0000
,
0000
0000
0000
0000
,
0000
0000
0000
0000
0000
0000
0000
2002
,
3003
2020
3030
0202
0303
2002
3003
0102
,
0000
0000
0000
2000
0000
0000
3003
0001
,
0011
0010
0110
0200
0000
1300
0000
1002
,
0000
0000
0000
0000
0000
0000
2003
0000
0000
0000
3001
0000
0010
0000
0100
1000
,
0000
0000
1000
0100
0000
0000
0100
0010
0000
0000
0010
0001
0000
0000
0001
1000
,
0000
0000
1000
0010
0000
0000
0010
0001
0000
0000
0001
1000
0000
0000
1000
0100
,
0000
0000
0100
0010
0000
0000
0010
1000
0000
0000
1000
0001
0000
0000
0001
0010
,
0000
0000
0010
0100
0000
0000
0100
1000
0000
0000
1000
0100
0000
0000
0100
0010
,
0000
0000
0010
0001
0000
0000
0001
1000
0000
0000
1000
0010
0000
0000
0010
0100
,
0000
0000
0100
1000
0000
0000
1000
0100
0000
0000
0001
1000
0001
0000
2002
0000
,
0000
0000
3003
0202
0000
0000
0303
1010
,
0000
0110
0000
0101
0000
1100
0000
2100
,
0000
0000
0000
0020
0000
3000
0000
0230
,
0000
0000
0000
0302
0000
0000
0000
0023
,
0000
0000
0000
0000
0000
0000
0230
0000
0000
0000
0000
0000
0000
0000
1300
0010
,
1000
0010
0100
0001
0100
0001
0010
0001
0010
0001
1000
0010
1000
0010
2000
0000
,
0000
0000
0000
3020
0000
0000
0000
0130
,
0000
1001
0000
1000
0010
1000
0001
0100
,
0001
0010
0100
1000
0010
0100
0010
0200
,
0000
0000
0301
2000
0000
3001
0000
1001
,
0001
1000
0010
0100
1000
0100
0001
1000
,
0010
1000
0001
0201
0000
0320
0000
1030
,
0010
0100
0001
0010
0001
1000
0100
1000
,
0010
0100
0010
2010
0000
3010
0000
1001
,
0001
0100
0010
0100
0001
1000
0010
1000
,
0010
0001
1000
0100
0010
1000
0001
0010
,
0100
1000
0010
0100
1000
0100
0001
0010
,
0001
1000
0100
1000
0010
0100
0010
2001
,
0000
3010
0000
1020
0000
0130
0010
0101
,
0100
1001
1000
1100
0100
0110
0010
0011
,
0000
0001
2000
0000
3010
0200
0000
0310
,
2000
0000
0000
0000
3001
0100
0001
0000
1000
0010
1000
0000
0001
0100
0001
0000
,
0000
1000
0002
0000
0013
0200
0000
1300
,
0020
0000
0000
0000
1030
0001
1000
0000
0010
0100
0010
0000
1000
0001
0100
0000
,
0000
0010
2000
0000
3010
0200
0000
0301
,
0020
0000
0000
0000
0130
1000
0100
0000
1000
0001
0100
0000
0010
1000
0001
0000
,
0000
0100
0020
0000
0130
0002
0000
1003
,
0020
0000
0000
0000
1030
0001
0100
0000
0001
0010
0100
0000
0010
0001
2000
0000
,
0000
0000
3010
0200
0000
0000
0000
0000
,
0000
0302
0000
0000
2003
0000
0000
3020
,
0000
0000
0130
0002
0000
0000
0000
0000
,
0000
2003
0000
0000
3020
0000
0000
0230
,
0000
0000
0310
2000
0000
0000
0000
0000
,
0000
3002
0000
0000
0203
0000
0000
0320
,
0000
0000
0130
0002
0000
2003
0000
0000
,
0000
3020
0000
0000
0100
0000
0000
0130
,
0000
0000
0001
0010
0001
0000
1000
0000
0000
0000
0010
0100
0010
0000
0100
0000
,
0000
0000
0001
0010
0001
0000
0010
0000
0000
0000
0100
1000
0010
0000
0100
0000
,
0000
0000
0001
1000
0100
0000
0010
0000
0000
0000
0001
0010
0001
0000
0100
0000
,
0000
0000
0010
0100
0010
0000
1000
0010
1000
0000
0001
0100
0001
0000
1000
0000
,
0000
0000
0001
0100
0001
0000
1000
0000
0000
0000
0100
0010
0001
0000
1000
0000
,
0000
0000
0010
0100
0001
0000
0100
0000
0000
0000
0001
0100
1000
0000
0100
0000
,
0000
0000
0010
0100
0001
0000
1000
0000
0000
0000
0100
0010
0001
0000
0100
0000
,
0000
0000
0010
1000
0010
0000
0100
0001
0100
0000
0010
1000
0001
0000
0200
0000
,
0000
0000
0000
0320
0000
0000
0000
0230
,
0000
0000
0000
0320
0000
0000
0000
2030
,
0000
0000
0000
0000
0000
0000
3200
0000
0000
0000
0000
0000
0310
0001
0020
0000
,
0000
0000
0000
0000
0000
0000
0230
0000
0000
0000
1300
0000
0000
1000
0020
0000
,
0000
0000
0000
2030
0000
0000
0000
3002
,
0000
0000
0000
0000
0000
0000
0000
0000
0000
1003
0000
0000
0000
0000
0000
0010
0000
0100
0000
0010
0000
0200
0000
0000
,
0000
0000
0300
2002
0000
0000
3003
0120
,
0000
0000
0000
1000
0000
0000
0000
0000
0000
0130
0000
0010
0000
1000
0000
0001
0000
0010
0000
0100
0000
2000
0000
0000
,
0000
0000
0000
3001
0000
0100
0000
0010
0000
0200
0000
0000
0000
0000
0000
0000
0000
0000
0000
0000
0000
0320
0000
0000
,
0000
0000
0000
0130
0000
0001
0000
1000
0000
0020
0000
0000
0000
0000
0000
0000
0000
0000
0000
0000
0000
0130
0000
0000
,
0000
0000
0000
0100
0000
0001
0000
1000
0000
0001
0000
0010
0000
0100
0000
1000
0000
0010
0000
1000
0000
0100
0000
0010
,
0000
0001
0000
0200
0000
0000
0000
0000
0000
0310
0000
1000
0000
0010
0000
0100
0000
0001
0000
0010
0000
0100
0000
0000
,
0000
0000
0000
1000
0000
0010
0000
0100
0000
0002
0000
0000
0000
0000
0000
0000
0000
0000
0000
0000
0000
2003
0000
0000
,
0000
0000
0000
3010
0000
0100
0000
0001
0000
0200
0000
0000
0000
0000
0000
0000
0000
0000
0000
0000
0000
0310
0000
0000
,
0000
0000
0000
0010
0000
1000
0000
0001
0000
0100
0000
0010
0000
1000
0000
0100
0000
0010
0000
0001
0000
0010
0000
0100
,
0000
1000
0000
0010
0000
0100
0000
0001
0000
0010
0000
0001
0000
0010
0000
0100
0000
0000
0000
0000
0000
1000
0000
0010
,
0000
0100
0000
0001
0000
0010
0000
0100
0000
1000
0000
0010
0000
0100
0000
1000
0000
0100
0000
0010
0000
1000
0000
0001
,
0000
0010
0000
0100
0000
1000
0000
0100
0000
0010
0000
0001
0000
0010
0000
0100
0000
1000
0000
0010
0000
0100
0000
0010
,
0000
1000
0000
0001
0000
0100
0000
0001
0000
1000
0000
0010
0000
1000
0000
0001
0000
0100
0000
0001
0000
0010
0000
0100
,
0000
0010
0000
0100
0000
1000
0000
0100
0000
1000
0000
0010
0000
0100
0000
0010
0000
0100
0000
0001
0000
0000
0000
0000
,
0000
2002
0000
0000
3003
0020
0000
0000
,
0000
0000
0000
0000
0000
0230
0000
0000
,
0000
0000
0000
0000
,
0300
0000
0000
0000
;

//---------------dance-single - Copied from Copied f----------------
#NOTES:
     dance-single:
     Copied from Copied f:
     Medium:
     12:
     0.494,0.561,0.222,0.534,0.004:
0000
0000
0000
0000
,
0000
0000
0000
0000
,
0000
0000
0000
0000
,
0000
0000
0000
0000
,
0000
0000
0000
0000
,
0000
0000
0000
0000
,
0000
0000
0000
0000
,
0000
0000
0000
0000
,
0000
0000
0000
0000
,
0000
0000
0000
0000
,
0000
0000
0000
0000
,
0000
0000
0000
0000
0000
0000
0000
1001
,
0000
1001
0000
1001
0000
1001
0000
2002
,
0000
0000
3003
0200
0000
0300
0000
0010
,
0010
1000
1000
0002
0000
1003
0000
1020
,
0000
0000
0000
0130
0000
0001
0010
0100
,
1000
0010
1000
0100
0010
0001
0100
0001
,
1000
0010
1000
0010
0100
0010
0001
0010
,
0100
0010
0001
1000
0010
0100
0010
0001
,
0010
0100
0001
0010
0001
0010
0001
1000
,
0100
1000
0010
0100
0010
0100
0001
0010
,
0001
1000
0100
1000
0010
0100
0010
2002
,
0000
0000
3003
0200
0000
0000
0300
0010
,
0000
0101
0000
0010
0000
1010
0000
0200
,
0000
0000
0000
0302
0000
0000
0000
2003
,
0000
0000
0000
3200
0000
0000
0000
0320
,
0000
0000
0000
0032
0000
0000
0000
0103
,
0100
0010
0010
0100
0100
0001
0001
0200
,
0000
0000
0000
0320
0000
0000
0000
0130
,
0000
1001
0000
1000
0010
1000
0000
0001
,
0100
0010
0000
1000
0010
0100
0001
0020
,
0000
0000
0130
0200
0000
1300
0000
1001
,
0001
1000
0000
0100
1000
0010
0000
1000
,
0010
0100
0000
0101
0000
0010
0000
1000
,
0001
0100
0000
0001
0010
0100
0000
1001
,
0000
0100
0000
0110
0000
0010
0000
1001
,
0001
0100
0000
0010
0100
0010
0000
1000
,
0001
0100
0000
0110
0000
1001
0000
0010
,
0100
1000
0000
0100
0001
1000
0000
0001
,
0100
0001
0000
1000
0010
0100
0000
1010
,
0000
0100
0000
0101
0000
0010
0000
0101
,
0000
1001
0000
1100
0000
0101
0000
0110
,
0000
0001
0020
0000
0130
2000
0000
3001
,
0020
0000
0130
0100
1000
1000
0001
0001
,
0000
1000
0020
0000
0130
0002
0000
1003
,
0200
0000
1300
1000
0010
0010
0100
0100
,
0000
0001
0200
0000
0301
0020
0000
0130
,
2000
0000
3100
0100
0010
0010
0001
0001
,
0000
0100
0002
0000
1003
0200
0000
0310
,
0002
0000
0103
0100
0010
0010
1000
2000
,
0000
0000
3001
0002
0000
0000
0000
0000
,
0000
0203
0000
0000
0302
0000
0000
2003
,
0000
0000
3010
0020
0000
0000
0000
0000
,
0000
0230
0000
0000
0302
0000
0000
0023
,
0000
0000
0130
2000
0000
0000
0000
0000
,
0000
3200
0000
0000
0320
0000
0000
0032
,
0000
0000
1003
2000
0000
3200
0000
0000
,
0000
0320
0000
0000
0032
0000
0000
1003
,
0000
0001
0100
0001
0000
1000
0010
1000
,
0000
0010
0100
0001
0000
0010
0100
1000
,
0000
0100
0010
0001
0000
0001
1000
0010
,
0000
0100
0010
1000
0010
0100
0001
0010
,
0000
0100
1000
0100
0000
0010
0001
1000
,
0000
0010
0100
0001
0000
1000
0010
1000
,
0000
0001
0100
0001
0000
1000
0010
0100
,
0000
0001
0010
0100
1000
0100
0010
0002
,
0000
0000
0000
2003
0000
0000
0000
3020
,
0000
0000
0000
0230
0000
0000
0000
0302
,
0000
0000
0000
2003
0000
0000
3010
0020
,
0000
0000
0000
0000
0000
0000
0230
0000
0000
0000
0301
0000
0000
0001
2000
0000
,
0000
0000
0000
3020
0000
0000
0000
0230
,
0000
0000
0000
0310
0000
0010
0010
0200
,
0000
0000
0300
2002
0000
0000
3003
0010
,
0000
0100
0000
0100
0010
0100
0000
0020
,
0000
0130
0010
2000
0000
0000
0000
3001
,
0000
0100
0001
0200
0000
0000
0000
0310
,
1000
0010
0000
0100
0001
1000
0000
0010
,
1000
0200
0000
0310
0001
0010
0000
0100
,
1000
0001
0100
0002
0000
0000
0000
0023
,
0000
0130
1000
0002
0000
0000
0000
0103
,
0000
0010
0000
0110
0000
1001
0000
0010
,
1000
0001
0100
0010
1000
0001
0000
1000
,
0100
1000
0000
0001
0100
0001
0000
1000
,
0010
0100
0000
0110
0000
0101
0000
0010
,
1000
0001
0000
0100
0010
1000
0000
0001
,
0010
0100
1000
0100
0010
0001
0100
0000
,
0000
2002
0000
0000
3003
0020
0000
0000
,
0000
0000
0000
0000
0000
0230
0000
0000
,
0000
0000
0000
0000
,
0300
0000
0000
0000
;

//---------------dance-single - Copied from Copied f----------------
#NOTES:
     dance-single:
     Copied from Copied f:
     Easy:
     5:
     0.308,0.462,0.015,0.563,0.000:
0000
0000
0000
0000
,
0000
0000
0000
0000
,
0000
0000
0000
0000
,
0000
0000
0000
0000
,
0000
0000
0000
0000
,
0000
0000
0000
0000
,
0000
0000
0000
0000
,
0000
0000
0000
0000
,
0000
0000
0000
0000
,
0000
0000
0000
0000
,
0000
0000
0000
0000
,
0000
0000
0000
0000
0000
0000
0000
0001
,
0000
1000
0000
0001
0000
1000
0000
0020
,
0000
0000
0000
0230
0000
0300
0000
0100
,
0000
0001
0000
2000
0000
3002
0000
0000
,
0000
0000
0000
0003
0000
0000
0000
0100
,
0000
0000
0000
0100
0000
0010
0000
0100
,
0000
0010
0000
0001
0000
0010
0000
1000
,
0000
0100
0000
1000
0000
1000
0000
0100
,
0000
0001
0000
1000
0000
0001
0000
1000
,
0000
0010
0000
0100
0000
1000
0000
0001
,
0000
1000
0000
0010
0000
0100
0000
2002
,
0000
0000
3003
0020
0000
0000
0030
0100
,
0000
0100
0000
0100
0000
0100
0000
0020
,
0000
0000
0000
2030
0000
0000
0000
3002
,
0000
0000
0000
0023
0000
0000
0000
0230
,
0000
0000
0000
2300
0000
0000
0000
3002
,
0000
0000
0000
0000
0000
0000
0000
0103
,
0000
0000
0000
0100
0000
0000
0000
0010
,
0000
1000
0000
0001
0000
0000
0000
0001
,
0000
1000
0000
0010
0000
0100
0000
0020
,
0000
0000
0000
0130
0000
0000
0000
0010
,
0000
0000
0000
1000
0000
0001
0000
0100
,
0000
0001
0000
1000
0000
0000
0000
0001
,
0000
0100
0000
0010
0000
1000
0000
0002
,
0000
0000
0000
0203
0000
0000
0000
0310
,
0000
0000
0000
0100
0000
0100
0000
0001
,
0000
0001
0000
1000
0000
1000
0000
0010
,
0000
0010
0000
0100
0000
0100
0000
0001
,
0000
0001
0000
1000
0000
1000
0000
0002
,
0000
0000
0000
2003
0000
0000
0000
3002
,
0000
0203
0000
0320
0000
2030
0000
3020
,
0000
0030
0200
0000
0300
0002
0000
0003
,
0200
0000
0300
0010
0000
0010
0000
0010
,
0000
0000
0200
0000
0300
2000
0000
3000
,
0020
0000
0030
0100
0000
0100
0000
0100
,
0000
0000
0020
0000
0030
0200
0000
0300
,
0002
0000
0003
1000
0000
1000
0000
1000
,
0000
0000
0002
0000
0003
0020
0000
0030
,
0200
0000
0300
1000
0000
1000
0000
0002
,
0000
0000
0003
2000
0000
0000
0000
0000
,
0000
3020
0000
0000
2030
0000
0000
3002
,
0000
0000
0003
0200
0000
0000
0000
0000
,
0000
0320
0000
0000
2030
0000
0000
3200
,
0000
0000
0300
0001
0000
0000
0000
0000
,
0000
0100
0000
0000
0100
0000
0000
0100
,
0000
0000
0000
0002
0000
0023
0000
0000
,
0000
0230
0000
0000
2300
0000
0000
3001
,
0000
0000
0000
1000
0000
0001
0000
0001
,
0000
0100
0000
0100
0000
0010
0000
0010
,
0000
0000
0000
0000
,
0000
0000
0000
0000
,
0000
0000
0000
0000
0000
0100
0000
0100
,
0000
0010
0000
0010
0000
1000
0000
1000
,
0000
0001
0000
0001
0000
0000
0000
0000
,
0000
0000
0000
1000
0000
0010
0000
2000
,
0000
0000
0000
3002
0000
0000
0000
2003
,
0000
0000
0000
3002
0000
0000
0000
2003
,
0000
0000
0000
3002
0000
0000
0003
0200
,
0000
0000
0000
0320
0000
0000
0000
2030
,
0000
0000
0000
3002
0000
0000
0000
0103
,
0000
0000
0000
0100
0000
0100
0000
0200
,
0000
0000
0300
2002
0000
0000
3003
0100
,
0000
0100
0000
0100
0000
0010
0000
0200
,
0000
0300
0000
0002
0000
0000
0000
1003
,
0000
1000
0000
0020
0000
0000
0000
0130
,
0000
0100
0000
0020
0000
0230
0000
0302
,
0000
0023
0000
0230
0000
2300
0000
3001
,
0000
0001
0000
2000
0000
0000
0000
3010
,
0000
0010
0000
2000
0000
0000
0000
3010
,
0000
0100
0000
0100
0000
0001
0000
0001
,
0000
1000
0000
1000
0000
0010
0000
0000
,
0000
0100
0000
0100
0000
0001
0000
0001
,
0000
1000
0000
1000
0000
0010
0000
0010
,
0000
0010
0000
0010
0000
0010
0000
0100
,
0000
0100
0000
0100
0000
0100
0000
0000
,
0000
0020
0000
0000
0000
0230
0000
0000
,
0000
0000
0000
0000
0000
0320
0000
0000
,
0000
0000
0000
0000
,
0030
0000
0000
0000
;

//---------------dance-single - ----------------
#NOTES:
     dance-single:
     :
     Beginner:
     3:
     0.192,0.231,0.000,0.371,0.000: // measure 1
0000
0000
0000
0000
,  // measure 2
0000
0000
0000
0000
,  // measure 3
0000
0000
0000
0000
,  // measure 4
0000
0000
0000
0000
,  // measure 5
0000
0000
0000
0000
,  // measure 6
0000
0000
0000
0000
,  // measure 7
0000
0000
0000
0000
,  // measure 8
0000
0000
0000
0000
,  // measure 9
0000
0000
0000
0000
,  // measure 10
0000
0000
0000
0000
,  // measure 11
0000
0000
0000
0000
,  // measure 12
0000
0000
0000
0000
0000
0000
0000
0001
,  // measure 13
0000
0000
0000
0100
0000
0000
0000
0010
,  // measure 14
0000
0000
0000
0200
0000
0000
0000
0300
,  // measure 15
0000
0000
0000
2000
0000
3002
0000
0000
,  // measure 16
0000
0000
0000
0003
0000
0000
0000
0100
,  // measure 17
0000
0000
0000
0100
0000
0000
0000
0100
,  // measure 18
0000
0000
0000
0001
0000
0000
0000
1000
,  // measure 19
0000
0000
0000
1000
0000
0000
0000
0100
,  // measure 20
0000
0000
0000
1000
0000
0000
0000
1000
,  // measure 21
0000
0000
0000
0100
0000
0000
0000
0001
,  // measure 22
0000
0000
0000
0010
0000
0000
0000
0200
,  // measure 23
0000
0000
0000
0310
0000
0000
0000
0100
,  // measure 24
0000
0000
0000
0100
0000
0000
0000
0020
,  // measure 25
0000
0000
0000
2030
0000
0000
0000
3002
,  // measure 26
0000
0000
0000
0003
0000
0000
0000
0200
,  // measure 27
0000
0000
0000
0300
0000
0000
0000
0002
,  // measure 28
0000
0000
0000
0000
0000
0000
0000
0103
,  // measure 29
0000
0000
0000
0000
0000
0000
0000
0010
,  // measure 30
0000
0000
0000
0001
0000
0000
0000
0000
,  // measure 31
0000
1000
0000
0000
0000
0100
0000
0010
,  // measure 32
0000
0000
0000
0000
0000
0000
0000
0010
,  // measure 33
0000
0000
0000
1000
0000
0000
0000
0100
,  // measure 34
0000
0000
0000
1000
0000
0000
0000
0000
,  // measure 35
0000
0100
0000
0000
0000
1000
0000
0001
,  // measure 36
0000
0000
0000
0200
0000
0000
0000
0300
,  // measure 37
0000
0000
0000
0100
0000
0000
0000
0001
,  // measure 38
0000
0000
0000
1000
0000
0000
0000
0010
,  // measure 39
0000
0000
0000
0100
0000
0000
0000
0001
,  // measure 40
0000
0000
0000
1000
0000
0000
0000
0001
,  // measure 41
0000
0000
0000
1000
0000
0000
0000
0001
,  // measure 42
0000
0100
0000
0000
0000
1000
0000
0000
,  // measure 43
0000
0000
0200
0000
0300
0002
0000
0003
,  // measure 44
0200
0000
0300
0000
0000
0010
0000
0000
,  // measure 45
0000
0000
0200
0000
0300
2000
0000
3000
,  // measure 46
0020
0000
0030
0000
0000
0100
0000
0000
,  // measure 47
0000
0000
0020
0000
0030
0200
0000
0300
,  // measure 48
0002
0000
0003
0000
0000
1000
0000
0000
,  // measure 49
0000
0000
0002
0000
0003
0020
0000
0030
,  // measure 50
0200
0000
0300
0000
0000
1000
0000
0000
,  // measure 51
0000
0000
0000
0100
0000
0000
0000
0000
,  // measure 52
0000
0020
0000
0000
2030
0000
0000
3002
,  // measure 53
0000
0003
0000
0000
,  // measure 54
0000
0020
0000
0000
2030
0000
0000
3200
,  // measure 55
0000
0300
0000
0000
,  // measure 56
0000
0100
0000
0000
0100
0000
0000
0100
,  // measure 57
0000
0000
0000
0000
0000
0020
0000
0000
,  // measure 58
0000
0130
0000
0000
0100
0000
0000
0100
,  // measure 59
0000
0000
0000
1000
0000
0000
0000
0001
,  // measure 60
0000
0100
0000
0000
0000
0010
0000
0000
,  // measure 61
0000
0000
0000
0000
,  // measure 62
0000
0000
0000
0000
,  // measure 63
0000
0000
0000
0000
0000
0100
0000
0000
,  // measure 64
0000
0010
0000
0000
0000
1000
0000
0000
,  // measure 65
0000
0000
0000
0000
,  // measure 66
0000
0000
0000
0000
0000
0000
0000
2000
,  // measure 67
0000
0000
0000
3002
0000
0000
0000
2003
,  // measure 68
0000
0000
0000
3002
0000
0000
0000
2003
,  // measure 69
0000
0000
0000
3002
0000
0000
0003
0200
,  // measure 70
0000
0000
0000
0320
0000
0000
0000
2030
,  // measure 71
0000
0000
0000
3002
0000
0000
0000
0003
,  // measure 72
0000
0000
0000
0000
0000
0000
0000
0200
,  // measure 73
0000
0000
0300
0020
0000
0000
0000
1030
,  // measure 74
0000
0000
0000
0100
0000
0000
0000
0020
,  // measure 75
0000
0030
0000
0200
0000
0000
0000
0300
,  // measure 76
0000
1000
0000
0020
0000
0000
0000
0030
,  // measure 77
0000
0100
0000
0000
0000
0200
0000
0300
,  // measure 78
0000
0020
0000
0030
0000
2000
0000
3000
,  // measure 79
0000
0001
0000
2000
0000
0000
0000
3000
,  // measure 80
0000
0010
0000
0200
0000
0000
0000
0000
,  // measure 81
0300
0100
0000
0000
0000
0001
0000
0000
,  // measure 82
0000
1000
0000
0000
0000
0010
0000
0000
,  // measure 83
0000
0100
0000
0000
0000
0001
0000
0000
,  // measure 84
0000
1000
0000
0000
0000
0010
0000
0000
,  // measure 85
0000
0010
0000
0000
0000
0010
0000
0000
,  // measure 86
0000
0100
0000
0000
0000
0010
0000
0000
,  // measure 87
0000
0100
0000
0000
0000
0010
0000
0000
,  // measure 88
0000
0000
0000
0000
0000
0200
0000
0000
,  // measure 89
0000
0000
0000
0000
,  // measure 90
0300
0000
0000
0000
;
