#VERSION:0.83;
#TITLE:凛として咲く花の如く~ひなビタ♪edition~;
#SUBTITLE:;
#ARTIST:日向美ビタースイーツ♪;
#TITLETRANSLIT:Rin to shite saku hana no gotoku ~HinaBitter edition~;
#SUBTITLETRANSLIT:;
#ARTISTTRANSLIT:Hinatabi Bittersweets;
#GENRE:;
#ORIGIN:;
#CREDIT:;
#BANNER:;
#BACKGROUND:Rin to shite saku hana no gotoku ~HinaBitter edition~-bg.png;
#PREVIEWVID:;
#JACKET:Rin to shite saku hana no gotoku ~HinaBitter edition~-jacket.png;
#CDIMAGE:Rin to shite saku hana no gotoku ~HinaBitter edition~-bn.png;
#DISCIMAGE:;
#LYRICSPATH:;
#CDTITLE:;
#MUSIC:Rin to shite saku hana no gotoku _HinaBitter edition_.ogg;
#OFFSET:0.000000;
#SAMPLESTART:40.132996;
#SAMPLELENGTH:15.000000;
#SELECTABLE:YES;
#DISPLAYBPM:81.500000:163.000000;
#BPMS:0.000=163.000,
148.000=81.500,
156.000=163.000,
200.000=81.500,
220.000=163.000;
#STOPS:;
#DELAYS:;
#WARPS:;
#TIMESIGNATURES:0.000=4=4;
#TICKCOUNTS:0.000=4;
#COMBOS:0.000=1;
#SPEEDS:0.000=1.000=0.000=0;
#SCROLLS:0.000=1.000;
#FAKES:;
#LABELS:0.000=Song Start,
314.000=Song End;
#BGCHANGES:0.000=Rin to shite saku hana no gotoku _HinaBitter edition_.avi=1.000=0=0=0=StretchNoLoop====,
99999=-nosongbg-=1.000=0=0=0 // don't automatically add -songbackground-
;
#KEYSOUNDS:;
#ATTACKS:
;

//---------------dance-single - ----------------
#NOTEDATA:;
#CHARTNAME:;
#STEPSTYPE:dance-single;
#DESCRIPTION:;
#CHARTSTYLE:;
#DIFFICULTY:Beginner;
#METER:3;
#RADARVALUES:0.181771,0.265407,0.054643,0.156122,0.000000,163.000000,156.000000,7.000000,20.000000,0.000000,0.000000,0.000000,0.000000,0.000000,0.181771,0.265407,0.054643,0.156122,0.000000,163.000000,156.000000,7.000000,20.000000,0.000000,0.000000,0.000000,0.000000,0.000000;
#CREDIT:;
#DISPLAYBPM:81.500000:163.000000;
#NOTES:
0000
0000
0000
0000
,
0000
0000
0000
0000
,
0000
0000
0000
0000
,
0000
0000
0000
0000
,
0001
0000
0001
0000
,
1000
0000
1000
0000
,
0001
0000
0001
0000
,
1000
0000
1000
0000
,
0010
0000
0010
0000
,
0100
0000
0100
0000
,
0010
0000
0010
0000
,
0100
0000
0100
0000
,
0002
0000
0003
0000
,
2000
0000
3000
0000
,
0002
0000
0003
0000
,
2000
0000
3000
0000
,
0002
0000
0003
0000
,
0020
0000
0030
0000
,
2000
0000
3000
0000
,
0020
0000
0030
0000
,
0001
0001
0001
0000
,
1000
1000
1000
0000
,
0001
0000
0010
0000
,
0001
0001
0001
0000
,
1000
1000
1000
0000
,
0001
0001
0001
0000
,
1000
0000
0001
0000
,
1001
0000
0000
0000
,
1000
0000
0010
0000
,
1000
1000
1000
0000
,
0001
0000
0010
0000
,
0001
0001
0001
0000
,
0010
0000
0100
0000
,
0010
0010
0010
0000
,
1000
0000
0001
0000
,
2000
0000
3000
0000
,
0002
0000
0003
0000
,
1001
0000
0000
0000
,
0000
0000
0000
0000
,
0010
0000
0000
0000
,
0010
0000
0000
0000
,
0001
0000
1000
0000
,
0010
0010
0010
0010
,
0000
0000
0000
0000
,
0001
0000
0001
0000
,
1000
0000
1000
0000
,
0001
0000
1000
0000
,
0001
0001
0001
0000
,
0010
0000
0010
0000
,
0100
0000
0100
0000
,
0010
0000
0100
0000
,
0010
0010
0010
0000
,
2000
0000
3000
0000
,
0200
0000
0300
0000
,
0002
0000
0003
0000
,
0020
0000
0030
0000
,
0002
0000
0003
0000
,
0020
0000
0030
0000
,
2000
0000
3000
0000
,
0002
0000
0003
0000
,
1001
0000
0000
0000
,
1001
0000
0000
0000
,
0010
0000
0010
0000
,
0010
0010
0010
0000
,
1000
1000
1000
0000
,
0001
0001
0001
0000
,
1000
0000
0001
0000
,
1001
0000
0000
0000
,
0010
0000
0001
0000
,
1000
1000
1000
0000
,
0010
0000
1000
0000
,
0001
0001
0001
0000
,
0100
0000
0001
0000
,
1000
1000
1000
0000
,
0001
0000
1000
0000
,
1001
0000
0000
0000
,
0001
0001
0001
0001
,
0001
0001
0001
0000
,
1000
1000
1000
1000
,
1000
1000
1000
0000
,
0010
0000
1000
0000
,
0010
0010
0010
0000
,
0001
0000
0100
0000
,
0020
0000
0030
0000
,
0200
0000
0300
0000
,
1001
0000
0000
0000
,
0000
0000
0000
0000
;

//---------------dance-single - ----------------
#NOTEDATA:;
#CHARTNAME:;
#STEPSTYPE:dance-single;
#DESCRIPTION:;
#CHARTSTYLE:;
#DIFFICULTY:Easy;
#METER:5;
#RADARVALUES:0.214110,0.265407,0.031224,0.187346,0.000000,192.000000,188.000000,4.000000,24.000000,0.000000,0.000000,0.000000,0.000000,0.000000,0.214110,0.265407,0.031224,0.187346,0.000000,192.000000,188.000000,4.000000,24.000000,0.000000,0.000000,0.000000,0.000000,0.000000;
#CREDIT:;
#DISPLAYBPM:81.500000:163.000000;
#NOTES:
0000
0000
0000
0000
,
0000
0000
0000
0000
,
0000
0000
0000
0000
,
0000
0000
0000
0000
,
1000
0000
0001
0000
,
1000
1000
0001
0001
,
1000
0000
0001
0000
,
1000
0001
1000
0000
,
0010
0000
0100
0000
,
0010
0010
0100
0100
,
0010
0000
0100
0000
,
0010
0100
0010
0000
,
2000
0000
3000
0000
,
0002
0000
0003
0000
,
0200
0000
0300
0000
,
0010
0000
1000
0000
,
0002
0000
0003
0000
,
2000
0000
3000
0000
,
0010
0000
1000
0000
,
0002
0000
0003
0000
,
0010
0010
0001
0000
,
0010
0010
1000
0000
,
0001
0000
1000
0000
,
0001
1000
0001
0000
,
0010
1000
0100
0000
,
0100
0001
0010
0000
,
0001
0010
0100
1000
,
0020
0000
0030
0000
,
0010
0000
0100
0000
,
0010
1000
0001
0000
,
0010
0000
0100
0000
,
0010
0001
1000
0000
,
0001
0000
1000
0000
,
0001
1000
0001
0000
,
0010
0000
0001
0000
,
2000
0000
0000
3000
,
0002
0000
0000
0003
,
1001
0000
0000
0000
,
0000
0000
0000
0000
,
0020
0030
0200
0300
,
0010
1000
0001
0000
,
0010
0010
0100
0100
,
0010
0100
0010
0200
,
0000
0000
0000
0300
,
1000
0000
0001
0000
,
1000
1000
0001
0001
,
1000
0000
0001
0000
,
1000
0001
1000
0000
,
0010
0000
0100
0000
,
0010
0010
0100
0100
,
0010
0000
0100
0000
,
0010
0100
0010
0000
,
0020
0000
0030
0000
,
2000
0000
3000
0000
,
0200
0000
0300
0000
,
0002
0000
0003
0000
,
0010
0000
0001
0000
,
0010
0000
1000
0000
,
0010
0000
0001
0000
,
1000
0001
1000
0000
,
2002
0000
3003
0000
,
0220
0000
0330
0000
,
1000
1000
0001
0001
,
1000
0001
1000
0000
,
0010
0001
1000
0000
,
0010
1000
0001
0000
,
0010
1000
0100
0001
,
0020
0000
0030
0000
,
0010
0000
0100
0000
,
0010
0001
1000
0000
,
0010
0000
0100
0000
,
0010
1000
0001
0000
,
1000
0000
0001
0000
,
1000
0001
1000
0000
,
0010
0000
0001
0000
,
0020
0000
0030
0000
,
1000
1000
0010
0010
,
1000
0010
1000
0000
,
0001
0001
0010
0010
,
0001
0010
0001
0000
,
1000
1000
0100
0100
,
1000
0100
1000
0000
,
0001
0001
0100
0100
,
0002
0000
0000
0003
,
2000
0000
0000
3000
,
1001
0000
0000
0000
,
0000
0000
0000
0000
;

//---------------dance-single - ----------------
#NOTEDATA:;
#CHARTNAME:;
#STEPSTYPE:dance-single;
#DESCRIPTION:;
#CHARTSTYLE:;
#DIFFICULTY:Medium;
#METER:8;
#RADARVALUES:0.357965,0.497639,0.171734,0.249795,0.000000,321.000000,299.000000,22.000000,32.000000,0.000000,0.000000,0.000000,0.000000,0.000000,0.357965,0.497639,0.171734,0.249795,0.000000,321.000000,299.000000,22.000000,32.000000,0.000000,0.000000,0.000000,0.000000,0.000000;
#CREDIT:;
#DISPLAYBPM:81.500000:163.000000;
#NOTES:
0000
0000
0000
0000
,
0000
0000
0000
0000
,
0000
0000
0000
0000
,
0000
0000
0000
0000
,
0010
0010
0100
0100
,
0010
0000
0001
0000
1000
0001
0100
0000
,
0010
0010
0100
0100
,
0010
0000
1000
0000
0001
1000
0100
0000
,
1000
1000
0001
0001
,
0100
0000
0001
0000
1000
0100
0010
0000
,
0001
0001
1000
1000
,
0001
0100
0010
1000
0001
0000
0000
0000
,
0020
0000
0030
0001
,
2000
0000
3000
0010
,
0200
0000
0300
0010
,
2000
0000
0002
3003
,
2000
0000
3000
0001
,
0020
0000
0030
0100
,
0020
0000
0032
0000
,
2000
0000
0000
3003
,
0010
0000
1000
0010
0100
0000
0000
0000
,
0010
0000
0001
0010
0100
0000
0000
0000
,
0010
1000
0100
0001
,
0010
1000
0001
0000
,
1001
0110
1001
0000
,
0110
1001
0110
0000
,
1000
0000
0010
0000
0100
0000
0001
1000
,
0020
0000
0100
0130
,
0010
0000
1000
0100
0010
0000
0001
0000
,
0100
0000
0010
1000
0001
0000
1000
0000
,
0001
0000
0010
0100
1000
0000
0001
0000
,
0100
0001
1001
0000
,
0001
0000
1000
0100
0010
0000
0001
0000
,
0010
0000
0100
0010
0100
0000
1000
0000
,
0010
0001
0010
1000
,
0002
0100
0100
0103
,
2000
0000
0100
0000
0100
0000
3010
1000
,
0002
0000
0203
0000
,
0310
1000
0200
0000
,
0320
0000
0230
0000
,
0310
0001
1000
0000
,
0001
0001
1000
1000
,
0010
0000
0010
0000
1000
0001
0200
0000
,
0000
0000
0000
0300
,
0010
0010
0100
0100
,
0010
0000
1000
0000
0001
1000
0100
0000
,
0010
0010
0100
0100
,
0010
0001
1000
0110
,
0001
0001
1000
1000
,
0100
0000
1000
0000
0001
0100
0010
0000
,
1000
1000
0001
0001
,
1000
0100
0010
0001
1000
0000
0000
0000
,
0020
0000
0030
0100
,
0002
0000
0003
0010
,
0002
0000
2003
0000
,
3002
0000
0000
1003
,
0010
1000
0001
0000
,
0010
0001
1000
0000
,
0010
1000
0001
0100
,
0001
0010
0100
0000
,
0022
0000
0000
0033
,
2200
0000
0000
3300
,
0001
0001
1000
0001
,
0010
0001
1001
0000
,
0010
1000
0100
1100
,
0010
0001
0100
0101
,
0010
0000
0001
0000
0100
0000
1000
0010
,
0200
0000
0001
0301
,
0010
0000
0001
0100
0010
0000
1000
0000
,
0100
0000
0010
0001
1000
0000
0001
0000
,
1000
0000
0010
0100
0001
0000
1000
0000
,
0100
1000
1001
0100
,
1000
0000
0001
0100
0010
0000
1000
0000
,
0010
0000
0100
0010
0100
0000
0001
0000
,
0010
1000
0010
0001
,
2000
0000
0001
3001
,
0011
0011
1100
1100
,
0010
0000
0001
1000
0100
0000
1000
0000
,
1010
1010
0101
0101
,
0010
0000
0100
0001
1000
0000
0001
0000
,
0100
0000
0010
0100
0001
0000
1000
0000
,
0001
0000
0010
0001
1000
0000
0001
0000
,
0100
1000
0010
0001
,
2000
0010
0001
3010
,
0002
0000
0010
0000
1000
0000
0013
0001
,
1000
0000
0000
0000
,
0000
0000
0000
0000
;

//---------------dance-single - ----------------
#NOTEDATA:;
#CHARTNAME:;
#STEPSTYPE:dance-single;
#DESCRIPTION:;
#CHARTSTYLE:;
#DIFFICULTY:Hard;
#METER:13;
#RADARVALUES:0.560924,1.040065,0.327856,0.281019,0.132704,503.000000,461.000000,42.000000,36.000000,0.000000,0.000000,0.000000,0.000000,0.000000,0.560924,1.040065,0.327856,0.281019,0.132704,503.000000,461.000000,42.000000,36.000000,0.000000,0.000000,0.000000,0.000000,0.000000;
#CREDIT:;
#DISPLAYBPM:81.500000:163.000000;
#NOTES:
0000
0000
0000
0000
,
0000
0000
0000
0000
,
0000
0000
0000
0000
,
0000
0000
0000
0000
,
0010
1000
0010
1000
0100
1000
0100
1000
,
0010
1000
0100
1000
0001
1000
0100
0000
,
0010
0001
0010
0001
0100
0001
0100
0001
,
0010
0001
0100
0001
1000
0001
0100
0000
,
0010
0100
0010
0100
0001
0100
0001
0100
,
1000
0100
0001
1000
0100
0010
0001
0000
,
1000
0100
1000
0100
0001
0100
0001
0100
,
1000
0100
0010
0001
1000
0000
0000
0000
,
0020
0000
0000
1030
,
0002
0000
0000
0103
,
0020
0000
0000
1030
,
0200
0000
0020
0330
,
0002
0000
0000
1003
,
0020
0000
0000
0130
,
0020
0000
2000
0030
,
0002
0000
0000
3003
,
0010
0000
0001
0010
0001
0000
0010
0000
0100
0000
0000
0000
1000
0000
0000
0000
,
0010
0000
1000
0010
1000
0000
0010
0000
0100
0000
0000
0000
0001
0000
0000
0000
,
0010
0000
0001
0000
0100
0000
1000
0010
,
0001
0100
1000
0000
,
0011
1010
1100
0000
,
0101
0011
1010
0000
,
0001
0000
0010
0000
0100
0000
1000
0001
,
0020
0000
0100
0130
,
0110
0000
0001
0100
0010
0000
1000
0100
,
0010
0001
0010
0100
1000
0000
0001
0100
,
1000
0000
1000
0100
0001
0001
1000
0100
,
0010
0001
0100
0010
1000
0000
0001
0010
,
0100
0000
1000
0010
0100
0000
0001
0100
,
0010
0100
1000
0100
0001
0000
1000
0001
,
0100
0000
0010
0100
0001
0000
0010
0001
,
1000
0010
0001
0100
,
1000
0000
0100
0000
0001
0000
0010
0001
,
2000
3002
0203
0320
,
1030
0000
0000
0100
0000
0000
0010
0000
0000
0001
0000
0000
0010
0000
0000
0100
0000
0000
0010
0000
0000
0100
0000
0000
0010
0000
0000
0100
0000
0000
1000
0000
0000
0100
0000
0000
1000
0000
0000
0100
0010
0000
0100
0000
0000
0000
0000
0000
,
0010
0000
0000
0000
1100
0000
0000
0000
1100
0000
0001
0100
0001
0000
0100
0000
,
0100
0010
0001
0010
0010
0100
0020
0000
,
0000
0000
0000
0000
0000
0000
0000
0030
,
0010
1000
0010
1000
0100
1000
0100
1000
,
0010
1000
0100
1000
0010
1000
0100
0000
,
0010
1000
0100
1000
0001
1000
0100
0000
,
0010
0001
0010
0001
0010
0000
0101
0000
,
0100
0010
0100
0010
0100
0010
0100
0000
,
0001
0010
0100
1000
0100
1000
0100
0000
,
1000
0100
0010
0001
0010
0001
0010
0000
,
1000
0100
0001
0010
1000
0010
0002
0000
,
0013
0100
1000
0010
0000
0000
0100
0000
2000
0000
0000
0000
0000
0000
0000
0000
,
3002
0000
0000
0000
0000
0000
0000
0000
0000
0000
0000
0000
0203
0000
0000
0000
0000
0000
0000
0000
0000
0000
0000
0000
0320
0000
0000
0000
0000
0000
0000
0000
0000
0030
0000
0000
1000
0000
0001
0000
1000
0000
0001
0000
1000
0000
0000
0000
,
0010
0100
0010
0100
1000
0100
1000
0100
0010
0001
0010
0100
1000
0100
0001
1000
,
0100
0001
0010
1000
0100
1000
0100
0010
0100
0010
0100
0010
0001
0010
0001
0000
,
2200
0000
3300
0000
0022
0000
0033
0000
0220
0000
0330
0000
2020
0000
0000
3030
,
0002
0000
1000
0000
1000
0000
1003
0001
,
0010
1000
0001
0010
1100
0000
1100
0000
,
0010
0100
1000
0010
0100
1000
0011
0000
,
0100
0010
0001
0100
1000
0001
0110
0000
,
1000
0010
0100
0001
1000
0100
0010
0001
,
2020
3030
1001
0110
,
0110
1000
0100
0010
0001
0010
0100
1000
,
0100
1000
0100
1000
0101
0000
0001
0010
,
1000
0100
0010
0100
0010
0100
0010
0100
,
0010
1000
0001
1000
1100
0000
1000
0100
,
0010
0001
1000
0001
0101
0001
0001
1000
,
0010
0001
1000
0100
1100
1000
0001
0010
,
1100
0000
0010
0100
0011
0000
0001
1000
,
0110
0000
1000
0010
1000
0010
1000
0010
1000
0000
0100
0000
0001
0000
0100
0000
,
0110
1000
0010
0100
1001
0000
1000
0100
,
0001
1000
0001
0010
1001
0000
0001
0100
,
0011
1000
0100
0010
0001
0100
1000
0010
,
0100
1000
0001
0010
1100
0000
1000
0100
,
0011
0100
0001
0100
1001
0100
0001
1000
,
0100
0000
0010
0100
1001
0001
0000
0110
,
1001
1010
1001
0010
0100
0010
0001
1000
,
0020
0000
0100
0000
0001
0000
1000
0030
,
2200
0000
0000
0000
0000
3300
1000
0001
,
0200
0000
0000
0300
0000
0000
0000
0000
;

//---------------dance-double - ----------------
#NOTEDATA:;
#CHARTNAME:;
#STEPSTYPE:dance-double;
#DESCRIPTION:;
#CHARTSTYLE:;
#DIFFICULTY:Easy;
#METER:6;
#RADARVALUES:0.254256,0.298583,0.031224,0.179540,0.000000,228.000000,224.000000,4.000000,23.000000,0.000000,0.000000,0.000000,0.000000,0.000000,0.254256,0.298583,0.031224,0.179540,0.000000,228.000000,224.000000,4.000000,23.000000,0.000000,0.000000,0.000000,0.000000,0.000000;
#CREDIT:;
#DISPLAYBPM:81.500000:163.000000;
#NOTES:
00000000
00000000
00000000
00000000
,
00000000
00000000
00000000
00000000
,
00000000
00000000
00000000
00000000
,
00000000
00000000
00000000
00000000
,
00000001
00000001
00001000
00001000
,
00000001
00000100
00001000
00010000
,
00001000
00001000
00010000
00010000
,
00100000
10000000
00010000
00000000
,
10000000
10000000
00010000
00010000
,
10000000
01000000
00010000
00001000
,
00010000
00010000
00001000
00001000
,
00000010
00000001
00001000
00000000
,
00000002
00000000
00000003
00000000
,
00002000
00000000
00003000
00000000
,
00000200
00000000
00000300
00000000
,
00010000
00000000
00001000
00000000
,
00020000
00000000
00030000
00000000
,
00200000
00000000
00300000
00000000
,
10000000
00000000
01000000
00000000
,
20000000
00000000
30000000
00000000
,
00010000
01000000
00010000
00000000
,
10000000
01000000
10000000
00000000
,
01000000
01000000
00100000
00100000
,
00010000
00001000
00010000
00000000
,
00000010
00001000
00000100
00000000
,
00000010
00000001
00000100
00000000
,
00000010
00000100
00001000
00010000
,
00002000
00000000
00003000
00000000
,
00100000
00100000
01000000
01000000
,
00100000
00010000
10000000
00000000
,
00100000
00100000
01000000
01000000
,
00100000
10000000
00010000
00000000
,
10000000
10000000
01000000
01000000
,
00010000
00001000
00010000
00000000
,
00000010
00000010
00001000
00001000
,
00000002
00000000
00000000
00000003
,
00002000
00000000
00000000
00003000
,
00001001
00000000
00000000
00000000
,
00000000
00000000
00000000
00000000
,
00000020
00000030
00000200
00000300
,
00000010
00000001
00000100
00000000
,
00001000
00001000
00010000
00010000
,
00001000
00100000
01000000
20000000
,
00000000
00000000
00000000
30000000
,
00010000
00010000
01000000
01000000
,
00010000
01000000
00100000
10000000
,
01000000
01000000
00100000
00100000
,
00001000
00010000
00001000
00000000
,
00000010
00000010
00000100
00000100
,
00000010
00001000
00000001
00000100
,
00000001
00000001
00000100
00000100
,
00001000
00010000
00001000
00000000
,
00200000
00000000
00300000
00000000
,
00020000
00000000
00030000
00000000
,
02000000
00000000
03000000
00000000
,
00200000
00000000
00300000
00000000
,
10000000
00000000
01000000
00000000
,
00100000
00000000
00010000
00000000
,
00001000
00000000
00000100
00000000
,
00000010
00000001
00001000
00000000
,
00000220
00000000
00000330
00000000
,
00002002
00000000
00003003
00000000
,
00000010
00000010
00000100
00000100
,
00001000
00010000
00001000
00000000
,
00100000
00010000
00001000
00000000
,
00000010
00001000
00010000
00000000
,
00001000
00010000
00100000
10000000
,
00020000
00000000
00030000
00000000
,
00100000
00100000
01000000
01000000
,
00010000
00001000
00010000
00000000
,
00000010
00000010
00001000
00001000
,
00000001
00001000
00000100
00000000
,
00000010
00000010
00000100
00000100
,
00000010
00000001
00001000
00000000
,
00000010
00001000
00000100
00010000
,
00001000
00000000
00010000
00010000
,
00001000
00001000
00100000
00100000
,
00010000
00100000
01000000
00000000
,
10000000
10000000
00010000
00010000
,
01000000
00100000
10000000
00000000
,
01000000
01000000
00010000
00010000
,
00001000
00010000
00001000
00000000
,
00000010
00000010
00000001
00000001
,
00002000
00000000
00000000
00003000
,
00000002
00000000
00000000
00000003
,
00001001
00000000
00000000
00000000
,
00000000
00000000
00000000
00000000
;

//---------------dance-double - ----------------
#NOTEDATA:;
#CHARTNAME:;
#STEPSTYPE:dance-double;
#DESCRIPTION:;
#CHARTSTYLE:;
#DIFFICULTY:Medium;
#METER:8;
#RADARVALUES:0.352390,0.497639,0.171734,0.249795,0.000000,316.000000,294.000000,22.000000,32.000000,0.000000,0.000000,0.000000,0.000000,0.000000,0.352390,0.497639,0.171734,0.249795,0.000000,316.000000,294.000000,22.000000,32.000000,0.000000,0.000000,0.000000,0.000000,0.000000;
#CREDIT:;
#DISPLAYBPM:81.500000:163.000000;
#NOTES:
00000000
00000000
00000000
00000000
,
00000000
00000000
00000000
00000000
,
00000000
00000000
00000000
00000000
,
00000000
00000000
00000000
00000000
,
10000000
10000000
00010000
00010000
,
10000000
00000000
01000000
00000000
00010000
00001000
00010000
00000000
,
00001000
00001000
00000010
00000010
,
00000001
00000000
00001000
00000000
00000010
00001000
00000100
00000000
,
00010000
00010000
00001000
00001000
,
00010000
00000000
01000000
00000000
10000000
00010000
10000000
00000000
,
00100000
00100000
01000000
01000000
,
00100000
10000000
00100000
01000000
00100000
00000000
00000000
00000000
,
20000000
00000000
30000000
01000000
,
00020000
00000000
00030000
00001000
,
00000020
00000000
00000030
00000001
,
00002000
00000000
00000002
00003003
,
00000200
00000000
00000300
00000010
,
00002000
00000000
00003000
00010000
,
00200000
00000000
02300000
00000000
,
20000000
00000000
00000000
33000000
,
00010000
00000000
01000000
00100000
10000000
00000000
00000000
00000000
,
01000000
00000000
00100000
00001000
00010000
00000000
00000000
00000000
,
00000010
00010000
00001000
00000100
,
00000001
00000010
00001000
00000000
,
00000101
00000110
00001100
00000000
,
00001001
00001010
00011000
00000000
,
00001000
00000000
00100000
00000000
00010000
00000000
10000000
00010000
,
02000000
00000000
00100000
03100000
,
10000000
00000000
00010000
01000000
00100000
00000000
10000000
00000000
,
01000000
00000000
00010000
00001000
00010000
00000000
00000010
00000000
,
00001000
00000000
00000010
00000100
00000001
00000000
00001000
00000000
,
00000001
00000010
00000110
00000000
,
00000010
00000000
00000001
00000100
00000010
00000000
00001000
00000000
,
00010000
00000000
01000000
00100000
01000000
00000000
00010000
00000000
,
01000000
10000000
00100000
00010000
,
20000000
00000000
00100000
30100000
,
00020000
00000000
00000000
00000000
00100000
00000000
01030000
00010000
,
20000000
00000000
30200000
00000000
,
01300000
00001000
00020000
00000000
,
00032000
00000000
00003020
00000000
,
00000031
00001000
00000100
00000000
,
00000010
00000010
00000001
00000010
,
00000100
00000000
00010000
00000000
00001000
00100000
00020000
00000000
,
00000000
00000000
00000000
00030000
,
01000000
01000000
00100000
00100000
,
10000000
00000000
01000000
00000000
00100000
00010000
01000000
00000000
,
00100000
00100000
01000000
01000000
,
00001000
00010000
00001000
00011000
,
00000100
00000100
00000001
00000001
,
00001000
00000000
00000100
00000000
00000010
00000001
00000100
00000000
,
00000010
00000010
00001000
00001000
,
00010000
01000000
00100000
01000000
00010000
00000000
00000000
00000000
,
20000000
00000000
30000000
00100000
,
02000000
00000000
03000000
00100000
,
20000000
00000000
32000000
00000000
,
03020000
00000000
00000000
00031000
,
00100000
00001000
00010000
00000000
,
00000010
00010000
00001000
00000000
,
01000000
00001000
00010000
00001000
,
00000100
00000001
00000010
00000000
,
00002200
00000000
00000000
00003300
,
00000202
00000000
00000000
00000303
,
00000010
00000010
00001000
00010000
,
01000000
00100000
10010000
00000000
,
01000000
00010000
00100000
00110000
,
01000000
10000000
00100000
10100000
,
01000000
00000000
00010000
00000000
00100000
00000000
01000000
00010000
,
00002000
00000000
00010000
00013000
,
00000010
00000000
00001000
00000100
00000010
00000000
00000001
00000000
,
00000100
00000000
00001000
00010000
00001000
00000000
00100000
00000000
,
00010000
00000000
00100000
01000000
10000000
00000000
00010000
00000000
,
10000000
00100000
01100000
00000000
,
00100000
00000000
10000000
01000000
00100000
00000000
00010000
00000000
,
00001000
00000000
00000100
00000010
00000100
00000000
00001000
00000000
,
00000100
00000001
00000010
00001000
,
00000002
00000000
00000010
00000013
,
00001100
00001100
00011000
00011000
,
00100000
00000000
00010000
01000000
10000000
00000000
01000000
00000000
,
01010000
01010000
10100000
10100000
,
00010000
00000000
10000000
01000000
00010000
00000000
01000000
00000000
,
00100000
00000000
00001000
00010000
00001000
00000000
00000100
00000000
,
00000010
00000000
00001000
00000001
00000010
00000000
00000100
00000000
,
00000010
00000001
00000100
00001000
,
00020000
00000000
00001000
00031000
,
00200000
00000000
00000000
00000000
01000000
00000000
01300000
10000000
,
00010000
00000000
00000000
00000000
,
00000000
00000000
00000000
00000000
;

//---------------dance-double - ----------------
#NOTEDATA:;
#CHARTNAME:;
#STEPSTYPE:dance-double;
#DESCRIPTION:;
#CHARTSTYLE:;
#DIFFICULTY:Hard;
#METER:11;
#RADARVALUES:0.486208,0.563990,0.202959,0.249795,0.011709,436.000000,410.000000,26.000000,32.000000,0.000000,0.000000,0.000000,0.000000,0.000000,0.486208,0.563990,0.202959,0.249795,0.011709,436.000000,410.000000,26.000000,32.000000,0.000000,0.000000,0.000000,0.000000,0.000000;
#CREDIT:;
#DISPLAYBPM:81.500000:163.000000;
#NOTES:
00000000
00000000
00000000
00000000
,
00000000
00000000
00000000
00000000
,
00000000
00000000
00000000
00000000
,
00000000
00000000
00000000
00000000
,
00000010
00000001
00000010
00000001
00001000
00000001
00001000
00000001
,
00000010
00000001
00000100
00001000
00010000
01000000
10000000
00000000
,
00100000
10000000
00100000
10000000
00010000
10000000
00010000
10000000
,
00100000
10000000
01000000
00010000
00001000
00000100
00000001
00000000
,
00000010
00000100
00000010
00000100
00001000
00000100
00001000
00000100
,
00000010
00000001
00000100
00001000
00010000
00100000
10000000
00000000
,
00100000
01000000
00100000
01000000
00010000
01000000
00010000
01000000
,
00100000
10000000
01000000
00010000
00001000
00000000
00000000
00000000
,
00000020
00000000
00000000
00000031
,
00002000
00000000
00000000
00003100
,
00000020
00000000
00000000
00000031
,
00000200
00000000
00000020
00000330
,
00020000
00000000
00000000
00130000
,
02000000
00000000
00000000
03100000
,
20000000
00000000
02000000
30000000
,
00200000
00000000
00000000
03300000
,
00010000
00000000
00100000
01000000
00100000
00000000
01000000
00000000
10000000
00000000
00000000
00000000
00010000
00000000
00000000
00000000
,
01000000
00000000
00001000
00010000
00001000
00000000
00010000
00000000
00001000
00000000
00000000
00000000
00000100
00000000
00000000
00000000
,
00000010
00000000
00001000
00000000
00000100
00000000
00000001
00000010
,
00001000
00010000
00001000
00000000
,
00001010
00011000
00110000
00000000
,
10100000
11000000
01010000
00000000
,
00001000
00000000
00010000
00000000
01000000
00000000
10000000
00010000
,
02000000
00000000
00100000
03100000
,
01100000
00000000
10000000
01000000
00100000
00000000
00010000
01000000
,
00001000
00010000
00001000
00000100
00000001
00000000
00001000
00000100
,
00000010
00000000
00000001
00000100
00000010
00001000
00000010
00000100
,
00010000
00001000
00100000
00010000
00100000
00000000
10000000
00010000
,
01000000
00000000
00100000
01000000
00010000
00000000
10000000
01000000
,
00100000
01000000
10000000
01000000
00010000
00000000
00001000
00010000
,
00000100
00000000
00000010
00000100
00001000
00000000
00000010
00001000
,
00000001
00000010
00001000
00010000
,
01000000
00000000
10000000
00000000
00100000
00000000
01000000
00010000
,
20000000
00000000
30020000
00000000
,
00130000
01000000
20000000
00000000
,
32000000
00000000
03020000
00000000
,
00031000
00000010
00000001
00000000
,
00000011
00000000
00000000
00000000
00001100
00000000
00000000
00000000
00000101
00000000
00000010
00000100
00000010
00000000
00000100
00000000
,
00001000
00000000
00010000
00000000
01000000
10000000
00020000
00000000
,
00000000
00000000
00000000
00030000
,
00100000
10000000
00100000
10000000
00010000
10000000
00010000
10000000
,
00100000
10000000
01000000
00010000
00001000
00000100
00000001
00000000
,
00000010
00000001
00000010
00000001
00001000
00000001
00001000
00000001
,
00000010
00000001
00000100
00001000
00010000
00000000
01010000
00000000
,
00100000
01000000
00100000
01000000
00010000
01000000
00010000
01000000
,
00100000
10000000
01000000
00010000
00001000
00000010
00000001
00000000
,
00000010
00000100
00000010
00000100
00001000
00000100
00001000
00000100
,
00000010
00000001
00000100
00001000
00010000
00000000
00000000
00000000
,
00200000
00000000
00000000
00310000
,
02000000
00000000
00000000
03100000
,
20000000
00000000
32000000
00000000
,
03020000
00000000
00000000
00031000
,
00010000
00001000
00000100
00000001
,
00000010
00000001
00001000
00000100
,
00000010
00001000
00010000
00100000
,
10000000
00010000
00100000
01000000
10000000
00000000
00000000
00000000
,
20200000
30000000
02000000
03300000
,
02020000
00030000
00002000
03003000
,
00011000
00000000
00011000
00000000
00001010
00000000
00000001
00000010
,
00000100
00001100
00001001
00000000
,
00000010
00000001
00001000
00000100
00010000
00001000
00011000
00000000
,
00000010
00010000
00001000
00100000
00010000
01000000
01010000
00000000
,
00100000
00000000
10000000
00000000
00010000
00000000
00100000
01000000
,
20000000
00000000
00010000
30010000
,
01100000
00000000
10000000
01000000
00100000
00000000
00010000
01000000
,
00001000
00010000
00001000
00000100
00000001
00000000
00001000
00000100
,
00000010
00000000
00000001
00000100
00000010
00001000
00000010
00000100
,
00010000
00001000
00100000
00010000
00100000
00000000
10000000
00010000
,
01000000
00000000
00100000
01000000
00010000
00000000
10000000
01000000
,
00100000
01000000
10000000
01000000
00010000
00000000
00001000
00010000
,
00000100
00000000
00000010
00000100
00001000
00000000
00000010
00001000
,
00000002
00000010
00001000
00001003
,
00000011
00000000
00000010
00000100
00010000
00001000
00010000
00001000
,
00100000
00010000
10000000
00010000
01000000
00000000
01010000
00000000
,
11000000
00000000
00100000
01000000
00010000
00001000
00010000
00001000
,
00000100
00000010
00000001
00000010
00000100
00000000
00001010
00000000
,
00000011
00000000
00000010
00000100
00001000
00000001
00000100
00000010
,
00010000
00001000
00010000
01000000
10000000
00000000
00010000
01000000
,
00100000
10000000
00100000
01000000
00010000
10000000
01000000
00010000
,
00002000
00000010
00000010
00003010
,
00000002
00000000
00000010
00000000
00000010
00000000
00001003
00000001
,
00000100
00000000
00000000
00000000
,
00000000
00000000
00000000
00000000
;

//---------------dance-single - ----------------
#NOTEDATA:;
#CHARTNAME:;
#STEPSTYPE:dance-single;
#DESCRIPTION:;
#CHARTSTYLE:keyboard;
#DIFFICULTY:Challenge;
#METER:15;
#RADARVALUES:0.793992,1.930253,0.718161,0.577651,0.550330,712.000000,620.000000,92.000000,74.000000,0.000000,0.000000,0.000000,0.000000,0.000000,0.793992,1.930253,0.718161,0.577651,0.550330,712.000000,620.000000,92.000000,74.000000,0.000000,0.000000,0.000000,0.000000,0.000000;
#CREDIT:;
#DISPLAYBPM:82.000000:163.000000;
#NOTES:
// measure 0
0000
0000
0000
0000
,  // measure 1
1001
0000
1000
0010
0100
0000
0101
0000
1001
0000
1000
0100
0010
0000
0011
0000
,  // measure 2
0101
0000
0100
0001
1000
0000
0001
0000
0101
0000
0110
0000
2002
0000
0000
0000
,  // measure 3
0000
0000
0000
3003
,  // measure 4
0001
0000
0010
0000
0100
0000
1000
0000
0001
0100
0010
0100
0001
0000
0100
0000
,  // measure 5
0010
1010
1000
0001
0010
0100
0110
0000
,  // measure 6
0010
0000
0001
0000
0010
0000
0001
0000
1000
0001
0100
0001
1000
0000
0001
0000
,  // measure 7
0010
0000
0100
1000
0001
0000
1000
0001
0100
0000
0001
0000
1001
0000
0000
0000
,  // measure 8
1000
0000
0100
0000
0010
0000
0001
0000
1000
0010
0100
0010
1000
0000
0010
0000
,  // measure 9
0100
0101
0001
1000
0100
0010
0110
0000
,  // measure 10
0100
0000
1000
0000
0100
0000
1000
0000
0001
1000
0010
1000
0001
0000
1000
0000
,  // measure 11
0100
0000
0010
0001
1000
0000
0001
1000
0010
0000
0100
0010
0100
0000
0001
0000
,  // measure 12
0020
0000
0031
1000
0002
0000
1003
0010
,  // measure 13
0200
0000
0302
0000
0023
0000
0130
1000
,  // measure 14
0200
0000
0310
0001
0020
0000
0130
1000
,  // measure 15
0002
0000
0000
0003
1001
0000
1000
0010
,  // measure 16
0200
0000
0301
1000
0001
0010
0100
1000
,  // measure 17
0100
0000
0110
0000
0022
0000
0000
0033
,  // measure 18
0001
0000
0100
0010
1000
0000
1001
0000
,  // measure 19
1001
0000
0000
0000
0000
0000
0000
0000
0001
1000
0001
0100
0010
1000
0100
0000
,  // measure 20
1000
0001
1000
0001
1000
0000
0020
0000
0200
0000
0000
0000
0000
0000
0330
0000
,  // measure 21
0100
0001
0100
0001
0100
0000
0010
0000
1000
0010
0100
0001
0010
0000
0000
0000
,  // measure 22
0120
0000
1030
0000
2100
0000
3001
0010
,  // measure 23
0200
0000
0000
0000
2300
0000
0000
0000
3001
0000
0000
1000
0001
0000
0100
0000
,  // measure 24
0202
0303
0220
0330
2200
0000
0000
3300
,  // measure 25
0022
0033
0220
0330
2020
0000
0000
3030
,  // measure 26
2000
0000
3002
0000
0103
0010
1000
0100
,  // measure 27
0010
0000
0001
0010
0100
0010
0001
1000
0002
0000
0000
0000
2003
0000
0000
0000
,  // measure 28
3020
0000
0130
0001
0020
0000
0130
1000
,  // measure 29
0100
0010
0001
0010
0200
0000
1300
0010
,  // measure 30
2000
0000
3001
0100
0001
0010
0100
1000
,  // measure 31
0020
0000
0130
0010
2000
0000
3001
0010
,  // measure 32
0200
0000
0000
0000
1300
0000
0010
0000
0200
0000
0000
0000
0301
0000
1000
0001
,  // measure 33
1000
0000
0001
0000
0100
0000
0100
0000
0010
0000
1000
0000
0001
0010
0100
1000
,  // measure 34
0001
0000
0010
0100
2000
0000
3010
0100
,  // measure 35
0002
0010
0100
1003
,  // measure 36
0010
0000
0100
0001
1000
0010
0100
0010
0100
0000
0001
0000
0100
0000
0100
0000
,  // measure 37
1001
0001
0100
0001
1000
0010
0100
0001
0010
0100
1000
0010
0100
0001
0010
0001
,  // measure 38
1000
0000
0100
0000
0010
0000
0100
0000
1000
0000
0010
0000
0100
0000
0001
0000
0010
0000
0001
0000
1000
0000
0010
0000
1000
0100
0010
0001
1000
0000
0010
0000
,  // measure 39
0110
0000
0100
0001
1000
0000
1010
0000
0110
0000
0100
0001
1000
0000
1001
0000
,  // measure 40
0101
0000
0100
0010
1000
0001
0010
0000
0011
0000
0110
0000
2002
0000
0000
0000
,  // measure 41
3003
0000
0100
0010
0100
0010
0100
0010
0100
0010
0100
0010
0100
0010
0100
0010
,  // measure 42
1000
0000
0100
0000
0010
0000
0001
0000
1000
0010
0100
0010
1000
0000
0010
0000
,  // measure 43
0100
0101
0001
1000
0100
0010
0110
0000
,  // measure 44
0100
0000
1000
0000
0100
0000
1000
0000
0001
1000
0010
1000
0001
0000
1000
0000
,  // measure 45
0100
0000
0010
0001
1000
0000
0001
1000
0010
0000
1000
0000
1001
0000
0000
0000
,  // measure 46
0001
0000
0010
0000
0100
0000
1000
0000
0001
0100
0010
0100
0001
0000
0100
0000
,  // measure 47
0010
1010
1000
0001
0010
0100
0110
0000
,  // measure 48
0010
0000
0001
0000
0010
0000
0001
0000
1000
0001
0100
0001
1000
0000
0001
0000
,  // measure 49
0010
0000
0100
1000
0001
0000
1000
0001
0100
0000
0010
0000
1000
0001
1000
0000
,  // measure 50
0001
0010
0100
1000
0002
0000
0000
0000
1003
0010
0100
0001
0010
0000
0100
0000
,  // measure 51
1000
0000
0010
0000
0200
0000
0000
0000
0301
0000
0010
0000
0200
0000
0000
0000
2300
0000
0000
0000
0000
0000
0000
0000
3001
1000
0000
0010
0100
0010
0100
0000
,  // measure 52
0001
1000
0001
1000
0100
0010
0001
0010
0100
1000
0010
0100
0001
0010
0001
0010
0100
1000
0100
1000
0010
0100
0010
0100
0001
0100
0001
0100
0010
1000
0010
1000
,  // measure 53
0001
0010
0100
1000
0001
0010
0100
1000
0010
0100
0001
0010
0001
1000
0010
1000
0010
0100
0010
1000
0100
1000
0001
0010
0001
0000
0000
0000
0000
0000
0000
0000
,  // measure 54
2002
0000
0000
3003
0220
0000
0000
0330
,  // measure 55
0101
0000
1010
0000
0110
0000
1000
0001
,  // measure 56
0011
0000
0000
0000
1100
0000
0000
0000
1001
0000
0000
0100
1000
0000
1000
0000
,  // measure 57
1010
0110
0101
1000
,  // measure 58
0011
0101
1001
0100
,  // measure 59
0020
0000
2030
0000
3001
0010
0100
1000
,  // measure 60
0001
0000
0100
0010
0100
0010
0100
0010
0100
0000
0000
0000
0010
0000
0000
0000
,  // measure 61
2010
0000
3100
0010
0012
0000
1003
0100
,  // measure 62
0010
0001
1000
0100
0120
0000
0031
1000
,  // measure 63
1200
0000
1300
0010
0100
0100
0010
1000
,  // measure 64
0001
0010
0001
0100
0102
0000
1003
0010
,  // measure 65
2010
0000
0000
0000
3001
0000
0100
0000
0120
0000
0000
0000
0130
0000
0001
1000
,  // measure 66
0000
0000
1000
0010
0000
0000
0010
0100
0001
0100
0001
0010
0100
0000
1000
0000
,  // measure 67
2100
0000
3001
0100
0102
0000
1003
0001
,  // measure 68
1001
0000
0100
0010
0100
0010
0100
0010
0200
0000
0000
0000
0310
0000
0000
0000
,  // measure 69
0110
0000
1010
0100
1001
0000
0101
0010
,  // measure 70
1001
0100
1010
0001
0110
0000
1010
1000
,  // measure 71
0101
0000
0110
0010
1010
0000
1001
0010
,  // measure 72
0101
0100
1010
0010
0101
0000
1010
0100
,  // measure 73
0110
0000
0101
0001
1001
0000
1001
1000
,  // measure 74
1100
0100
0110
0010
0011
0000
0001
1000
,  // measure 75
1020
0000
0130
0001
2001
0000
3001
0100
,  // measure 76
0120
0000
1000
0000
0100
0000
1000
0030
,  // measure 77
2002
0000
0000
0000
0000
3003
0001
1000
,  // measure 78
0220
0000
0330
0000
;
