#TITLE:凛として咲く花の如く;
#SUBTITLE:;
#ARTIST:紅色リトマス;
#TITLETRANSLIT:Rin To Shite Saku Hana No Gotoku;
#SUBTITLETRANSLIT:;
#ARTISTTRANSLIT:Koushoku Ritomasu;
#CREDIT:;
#BANNER:Rin To Shite Saku Hana No Gotoku.png;
#BACKGROUND:Rin To Shite Saku Hana No Gotoku-bg.png;
#LYRICSPATH:;
#CDTITLE:./CDTITLES/DanceDanceRevolution X.png;
#MUSIC:Rin To Shite Saku Hana No Gotoku.mp3;
#OFFSET:-0.135;
#SAMPLESTART:39.037;
#SAMPLELENGTH:15.000;
#SELECTABLE:YES;
#BPMS:0.000=163.000;
#STOPS:;
#BGCHANGES:0.000=Rin To Shite Saku Hana No Gotoku.avi=1.000=1=0=0,
99999=-nosongbg-=1.000=0=0=0 // don't automatically add -songbackground-
;

//---------------dance-single - ----------------
#NOTES:
     dance-single:
     :
     Beginner:
     3:
     0.168,0.234,0.018,0.000,0.000:
0000
0000
0000
0000
,
0000
0000
0000
0000
,
0000
0000
0000
0000
,
0001
0000
0001
0000
,
0001
0000
0001
0000
,
1000
0000
1000
0000
,
1000
0000
1000
0000
,
0001
0000
0001
0000
,
0001
0000
0001
0000
,
1000
0000
1000
0000
,
1000
0000
1000
0000
,
0100
0000
0000
0000
,
0100
0000
0000
0000
,
0001
0000
0000
0000
,
0001
0000
0000
0000
,
1000
0000
0000
0000
,
1000
0000
0000
0000
,
0100
0000
0000
0000
,
0100
0000
0000
0000
,
0001
0000
0001
0000
,
1000
0000
1000
0000
,
0100
0000
0100
0000
,
0100
0100
0100
0000
,
1000
0000
1000
0000
,
0001
0000
0001
0000
,
0100
0000
0100
0000
,
0010
0000
0000
0000
,
0001
0000
1000
0000
,
0001
0000
0001
0000
,
0100
0000
0100
0000
,
0001
0000
0100
0000
,
1000
0000
1000
0000
,
0001
0000
1000
0000
,
0100
0000
0100
0000
,
0010
0000
0000
0000
,
0010
0000
0000
0010
,
0010
0000
0000
0000
,
0100
0000
0000
0000
,
0001
0000
1000
0000
,
0001
0000
1000
0000
,
0000
0000
0000
0000
,
1000
0000
1000
0000
,
1000
0000
1000
0000
,
0001
0000
0001
0000
,
0001
0000
0001
0000
,
0100
0000
0100
0000
,
0100
0000
0100
0000
,
0010
0000
0010
0000
,
0100
0000
0100
0000
,
0001
0000
0000
0000
,
1000
0000
0000
0000
,
0100
0000
0100
0000
,
0100
0100
0100
0000
,
0001
0001
0001
0000
,
1000
1000
1000
0000
,
0001
0000
1000
0000
,
1001
0000
0000
0000
,
0001
0000
0001
0000
,
1000
0000
0001
0000
,
0100
0000
0100
0000
,
0001
0000
0100
0000
,
1000
0000
1000
0000
,
0001
0000
1000
0000
,
0100
0000
0100
0000
,
1000
0000
0000
0000
,
1001
0000
0000
0000
,
0100
0000
0100
0000
,
0001
0000
0100
0000
,
1000
0000
0100
0000
,
0001
0000
0001
0000
,
1000
0000
1000
0000
,
0001
0000
1000
0000
,
0100
0000
0100
0000
,
0010
0000
0000
0100
,
0100
0000
0000
0000
;

//---------------dance-single - ----------------
#NOTES:
     dance-single:
     :
     Easy:
     6:
     0.276,0.301,0.081,0.145,0.000:
0000
0000
0000
0000
,
0000
0000
0000
0000
,
0000
0000
0000
0000
,
0001
0001
0100
0000
,
0100
0100
0100
0000
,
1000
1000
0100
0000
,
0100
0100
0100
0000
,
0001
0001
0100
0000
,
1000
1000
1000
0000
,
1000
1000
0100
0000
,
0001
0001
0001
0000
,
0200
0000
0300
0000
,
0002
0000
0003
0000
,
2000
0000
3000
0000
,
0200
0000
0300
0000
,
0020
0000
0030
0000
,
0200
0000
0300
0000
,
0002
0000
0003
0000
,
2000
0000
3000
0000
,
0010
0100
0010
0000
,
1000
0100
0001
0000
,
1000
1000
0001
0001
,
1000
0001
1000
0000
,
0001
0010
1000
0000
,
1000
0100
0001
0000
,
0100
0100
0100
0100
,
1001
0000
0000
0000
,
0001
0001
0010
0100
,
1000
1000
1000
0000
,
1000
0010
1000
0010
,
0100
0100
0100
0000
,
1000
1000
0100
0010
,
0001
0001
0001
0000
,
0100
0010
1000
0001
,
0200
0000
0000
0300
,
0020
0000
0030
0010
,
0110
0000
0000
0000
,
1001
0000
0000
0000
,
1000
0100
0010
0001
,
0001
0010
0100
2000
,
0000
0000
0000
3000
,
1000
1000
0100
0000
,
0100
0100
0100
0000
,
0001
0001
0100
0000
,
0100
0100
0100
0000
,
1000
1000
0100
0000
,
0001
0001
0001
0000
,
0001
0001
0100
0000
,
1000
1000
1000
0000
,
0200
0000
0000
0300
,
0020
0000
0000
0030
,
0001
0001
1000
1000
,
0001
1000
0001
0000
,
0010
0010
0010
0000
,
0100
0100
0100
0000
,
0010
1000
0001
0100
,
0010
0000
0000
0000
,
0100
0100
0010
1000
,
0100
0010
0001
0000
,
0100
0100
0001
1000
,
0010
0100
0010
0000
,
1000
1000
0001
0001
,
1000
0001
1000
0000
,
0100
0100
0010
0010
,
0200
0000
0300
0000
,
1001
0000
1001
0000
,
0100
0100
0100
0000
,
1001
0000
1001
0000
,
0010
0010
0010
0000
,
1001
0100
0100
0010
,
0010
1000
1000
0001
,
0001
0100
0100
0010
,
0200
0000
0000
0000
,
0020
0000
0330
0000
,
1001
0000
0000
0000
;

//---------------dance-single - ----------------
#NOTES:
     dance-single:
     :
     Medium:
     8:
     0.391,0.602,0.307,0.244,0.000:
0000
0000
0000
0000
,
0000
0000
0000
0000
,
0000
0000
0000
0000
,
0001
1000
0100
0001
,
0010
0000
1000
0000
0001
0100
0001
0000
,
1000
0010
0001
0100
,
1000
0010
0100
0100
,
1000
0001
0100
1000
,
0010
0000
0001
0000
1000
0100
1000
0000
,
0001
0010
1000
0100
,
0001
0010
0100
0000
,
0020
0000
0000
0031
,
0002
0000
0000
1003
,
2000
0000
0000
3100
,
0200
0300
0020
0030
,
0002
0000
0000
1003
,
2000
0000
0000
3000
,
0020
0030
0200
0300
,
2002
0000
3003
0000
,
0001
0001
0011
0000
,
1000
1000
1100
0000
,
0001
0001
1000
1000
,
0010
0001
1000
0000
,
0010
0001
0200
0000
,
1300
0010
0002
0000
,
0103
0010
0010
0100
,
0200
0000
0310
0010
,
1001
0000
0001
0100
1000
0000
0100
0000
,
0010
0100
0100
0000
,
1000
0000
0001
0100
1000
0000
0010
0000
,
0100
0010
0010
0000
,
1001
0000
1000
0100
0001
0000
0100
0000
,
0010
0100
0100
0000
,
0001
0000
1000
0100
0001
0000
0010
0000
,
0200
0000
0000
0000
,
0002
0000
0303
1010
,
1001
0020
0030
0000
,
1001
0200
0300
0000
,
1000
0100
0001
0010
,
1000
0001
0010
0200
,
0000
0000
0000
0300
,
1000
0001
0100
1000
,
0010
0000
0001
0000
1000
0100
1000
0000
,
0001
0010
1000
0100
,
0001
0010
0010
0000
,
0001
1000
0100
0001
,
0010
0000
1000
0000
0001
0100
0001
0000
,
1000
0010
0001
0100
,
1000
0010
0100
0000
,
0202
0000
0000
0003
,
2000
0000
0000
3300
,
0010
0010
0101
1100
,
0010
0010
0010
0000
,
0010
0110
1001
0000
,
0110
0110
1001
0000
,
0001
0100
1000
0010
,
0002
0000
1000
1003
,
1001
0000
0001
0100
0001
0000
0001
0000
,
0100
0000
1000
0000
0100
0000
1000
0100
,
1000
1000
0100
0001
,
0100
0000
0010
0100
0010
0000
0100
0000
,
0100
0000
0100
0010
0100
0000
0100
0000
,
0010
1000
0100
1000
,
0010
0001
0100
0100
,
2002
3003
0010
0010
,
1001
1001
1001
1001
,
1100
1100
1100
1100
,
0011
0011
0011
0011
,
0110
0110
1001
0000
,
1001
0000
1000
0001
0100
0000
1000
0000
,
0001
0000
0100
0000
0100
0000
0001
1000
,
0100
0001
1000
0100
,
0020
0000
0100
0130
,
0200
0000
0000
0000
0000
0000
0310
0001
,
1000
0000
0000
0000
;

//---------------dance-single - ----------------
#NOTES:
     dance-single:
     :
     Hard:
     10:
     0.536,0.569,0.488,0.217,0.009:
0000
0000
0000
0000
,
0000
0000
0000
0000
,
0000
0000
0000
0000
,
1100
0000
0101
0000
0010
0100
0100
0000
,
0001
0000
1000
0000
0010
1000
0100
0000
,
0101
0000
1100
0000
0010
0100
0100
0000
,
1000
0000
0001
0000
0010
0001
0100
0000
,
1001
0000
1001
0000
0010
0100
0100
0000
,
1000
0000
0001
0000
1000
0001
1000
0000
,
1001
0000
1001
0000
0010
0100
0100
0000
,
0001
1000
0001
1000
0001
0000
0000
0000
,
2000
0000
3001
1000
,
0002
0000
0103
0001
,
2000
0000
3010
0100
,
0002
0000
0103
0000
,
0020
0000
0130
1000
,
0002
0000
1003
0010
,
2000
0000
3010
0001
,
2002
0000
3003
0000
,
1000
0010
0100
0010
1000
0000
0101
0000
,
0010
0001
0100
0001
0010
0000
1100
0000
,
0001
0000
0100
0000
1000
0000
0100
0001
,
0001
1000
1001
0000
,
0110
1001
0110
0000
,
1001
0110
1001
0000
,
0010
0000
0010
0000
0100
0000
0010
0100
,
0020
0000
0130
0100
,
1001
0000
1000
0100
0001
0000
1000
0001
,
0100
0001
0010
0001
1000
0000
0001
1000
,
0100
0000
0001
0100
1000
0000
0001
0010
,
0100
0000
1000
0010
0100
0000
0001
1000
,
0001
0000
0001
0100
1000
0000
0001
1000
,
0100
1000
0010
1000
0001
0000
1000
0001
,
0100
0000
1000
0100
0001
0000
1000
0010
,
0200
0010
0010
0310
,
0002
0000
1000
0000
1000
0000
1003
0010
,
1001
0000
0000
0000
0010
0000
0000
0010
0000
0000
0000
0000
0000
0000
0000
0000
,
1001
0000
0000
0000
0100
0000
0000
0100
0000
0000
0000
0000
0000
0000
0000
0000
,
1000
0000
0001
0000
1000
0010
0100
0001
,
0100
0000
0001
0000
0100
0010
2000
0000
,
0000
0000
0000
3000
,
1100
0000
0101
0000
0010
0010
0100
0000
,
0001
0000
1000
0000
0010
1000
0100
0000
,
0101
0000
1100
0000
0010
0010
0100
0000
,
1000
0001
0010
0001
1000
0000
0110
0000
,
1001
0000
1001
0000
0010
0010
0100
0000
,
0001
0000
1000
0000
0001
1000
0001
0000
,
1001
0000
1001
0000
0010
0010
0100
0000
,
0001
1000
0100
1000
0001
0000
0000
0000
,
2200
3000
0002
0003
,
0020
0300
0200
0330
,
1001
1100
1001
0101
,
1100
0101
0220
0330
,
0010
0100
0010
0100
1001
0000
0000
0000
,
0100
0010
0100
0010
1001
0000
0000
0000
,
0001
0000
0010
0000
1000
0000
0100
0001
,
0020
0000
0130
0100
,
1001
0000
0001
0100
0001
0100
1000
0100
,
1000
0100
0001
0100
1000
0000
0001
1000
,
0001
1000
0010
0100
0010
0100
0001
1000
,
0001
1000
0100
0010
0001
0000
1000
0100
,
0001
0000
1000
0100
0001
0100
1000
0001
,
1000
0100
1000
0001
0100
0000
0001
0100
,
0010
0000
1000
0100
0010
0000
0100
0010
,
0200
0000
0310
0010
,
1001
1001
1100
0101
,
0001
0010
0100
1000
0100
0000
0110
0000
,
1010
1010
0011
0011
,
1001
0110
1001
0010
,
1001
0000
0010
1000
0100
0010
0001
0100
,
0010
1000
0001
0100
0010
0000
1000
0001
,
0010
0100
1000
0100
0001
0100
0010
1000
,
0020
0100
0100
0130
,
2000
0000
0001
0000
3001
0000
0010
1000
,
0100
0000
0000
0000
;

//---------------dance-double - ----------------
#NOTES:
     dance-double:
     :
     Medium:
     7:
     0.366,0.402,0.280,0.181,0.000:
00000000
00000000
00000000
00000000
,
00000000
00000000
00000000
00000000
,
00000000
00000000
00000000
00000000
,
00000010
00000001
00001000
00000100
,
00010000
00000000
00001000
00000000
00010000
01000000
10000000
00000000
,
00100000
10000000
00010000
01000000
,
00001000
00000000
00010000
00000000
00001000
00000100
00000001
00000000
,
00000010
00001000
00000001
00000100
,
00000010
00000000
00010000
00000000
00001000
00010000
01000000
00000000
,
00100000
00010000
10000000
01000000
,
00100000
00000000
00010000
00001000
00000100
00000000
00000000
00000000
,
00000002
00000000
00000003
00000000
,
00020000
00000000
00030000
00000000
,
00000020
00000000
00000030
00000000
,
00200000
00300000
00002000
00003000
,
02000000
00000000
03000000
00000000
,
00000200
00000000
00000300
00000000
,
00020000
00000000
00030000
00000000
,
20000000
00000000
00000000
30000000
,
10000000
01000000
00100000
00011000
,
00000001
00000010
00000100
00011000
,
00100000
00100000
00010000
00000000
,
00000010
00000010
00001000
00000000
,
00000010
00000001
00000100
00001000
,
00010000
00100000
10000000
01000000
,
00010000
00001000
00000100
00000001
,
00001001
00000000
00000010
00000010
,
00001100
00000000
00010000
00001000
00010000
00000000
00001000
00000000
,
00100000
01000000
11000000
00000000
,
00110000
00010000
00001000
00010000
,
00001000
00000000
00010000
01000000
00100000
00000000
00100000
00000000
,
01010000
00000000
00001000
00010000
00001000
00000000
00010000
00000000
,
00000010
00000100
00000101
00000000
,
00001010
00001000
00010000
00001000
,
00020000
00000000
00000000
00000000
,
02030000
00000000
00000000
13000000
,
10010000
00200000
00300000
00000000
,
00011000
00000020
00000030
00000000
,
00000001
00000010
00000100
00001000
,
00010000
01000000
00100000
20000000
,
00000000
00000000
00000000
30000000
,
00100000
10000000
00010000
01000000
,
00001000
00000000
00010000
00000000
00001000
00000100
00000001
00000000
,
00000010
00000001
00001000
00000100
,
00010000
00000000
00001000
00010000
01000000
00000000
00000000
00000000
,
00100000
00010000
10000000
01000000
,
00100000
00000000
00001000
00000000
00010000
00001000
00000100
00000000
,
00000010
00001000
00000001
00000100
,
00000010
00000000
00001000
00000100
00000001
00000000
00000000
00000000
,
00000200
00000000
00000000
00000000
,
00020000
00000000
00000000
00030300
,
00001000
00001000
00010000
01000000
,
01100000
01100000
01100000
00000000
,
01000000
01000000
10010000
00000000
,
00001000
00001000
00011000
00000000
,
00000100
00000010
00000100
00010000
,
00002000
00000000
00010000
00013000
,
00011000
00000000
00010000
01000000
10000000
00000000
00010000
00000000
,
01000000
10000000
01000000
00100000
,
10000000
00000000
01000000
00010000
00001000
00000000
00010000
00000000
,
00001000
00000100
00000110
00000000
,
00011000
00000000
00001000
00000100
00000001
00000000
00001000
00000000
,
00000100
00000001
00000100
00000010
,
00000001
00000000
00000100
00001000
00010000
00000000
00001000
00000000
,
00020000
00000000
00030000
00000000
,
01100000
00000000
00110000
00000000
,
10010000
00000000
01001000
00000000
,
00011000
00000000
00010100
00000000
,
00001010
00000000
00000110
00000000
,
00001001
00000000
00000001
00001000
00000001
00000000
00000001
00000100
,
00001000
00010000
00100000
01000000
,
10010000
00000000
01100000
00000000
,
20020000
00000000
00000000
30000000
,
00100000
00000000
00100000
00000000
00100000
00000000
00130000
00001000
,
01000000
00000000
00000000
00000000
;

//---------------dance-double - ----------------
#NOTES:
     dance-double:
     :
     Easy:
     5:
     0.257,0.268,0.090,0.127,0.000:
00000000
00000000
00000000
00000000
,
00000000
00000000
00000000
00000000
,
00000000
00000000
00000000
00000000
,
10000000
10000000
01000000
00000000
,
00100000
00100000
00010000
00000000
,
00001000
00001000
00000100
00000000
,
00000010
00000010
00000001
00000000
,
00000100
00000100
00000010
00000000
,
00000100
00000100
00001000
00000000
,
01000000
01000000
00100000
00000000
,
01000000
01000000
00010000
00000000
,
20000000
00000000
30000000
00000000
,
00200000
00000000
00300000
00000000
,
02000000
00000000
03000000
00000000
,
00020000
00000000
00030000
00000000
,
00002000
00000000
00003000
00000000
,
00000200
00000000
00000300
00000000
,
00000002
00000000
00000003
00000000
,
00000020
00000000
00000030
00000000
,
00000100
00000100
00000100
00000000
,
00010000
00010000
00010000
00000000
,
00001000
00010000
00010000
00000000
,
01000000
10000000
01000000
00000000
,
00100000
00001000
00010000
00000000
,
00000010
00010000
00001000
00000000
,
00010000
00001000
00001000
00000100
,
00000010
00000000
00000000
00000000
,
00000001
00000000
00000001
00000001
,
00000100
00001000
00001000
00000000
,
00010000
00000000
00010000
00010000
,
01000000
10000000
10000000
00000000
,
00100000
00000000
00100000
00100000
,
10000000
00010000
00010000
00000000
,
00001000
00000000
00000100
00000000
,
00000020
00000000
00000000
00000030
,
00002000
00000000
00000000
00003001
,
00001001
00000000
00000000
00000000
,
00011000
00000000
00000000
00000000
,
00010000
00000000
01000000
00000000
,
10000000
10000000
10000000
20000000
,
00000000
00000000
00000000
30000000
,
10000000
10000000
00100000
00000000
,
01000000
01000000
00010000
00000000
,
00001000
00001000
00000010
00000000
,
00000100
00000100
00000001
00000000
,
00000010
00000010
00000100
00000000
,
00000010
00000010
00001000
00000000
,
00100000
00100000
01000000
00000000
,
00100000
00100000
00010000
00000000
,
00002000
00000000
00000000
00000000
,
00020000
00000000
00000000
00033000
,
00001000
00001000
00001000
00000000
,
00010000
00010000
00011000
00000000
,
00000100
00000010
00000100
00000000
,
00000001
00001000
00000001
00000000
,
00000100
00001000
00010000
00001000
,
00010000
00000000
00000000
00000000
,
10000000
00000000
10000000
10000000
,
01000000
00010000
00010000
00000000
,
00001000
00000000
00001000
00001000
,
00000100
00000001
00000001
00000000
,
00000010
00000000
00000010
00000010
,
00000001
00001000
00001000
00000000
,
00010000
00000000
01000000
00000000
,
00100000
00000000
00000000
00000000
,
10010000
00000000
10010000
00000000
,
00100000
00100000
00100000
00000000
,
00011000
00000000
00011000
00000000
,
00000100
00000100
00000100
00000000
,
00001001
00000000
00001001
00000000
,
00000010
00000010
00000010
00000000
,
00000001
00001000
00000100
00010000
,
00002000
00000000
00000000
00000000
,
00013000
00010000
00010000
00010000
,
00011000
00000000
00000000
00000000
;

//---------------dance-double - ----------------
#NOTES:
     dance-double:
     :
     Hard:
     11:
     0.541,0.535,0.344,0.199,0.009:
00000000
00000000
00000000
00000000
,
00000000
00000000
00000000
00000000
,
00000000
00000000
00000000
00000000
,
00100000
10000000
00010000
10000000
00010000
01000000
00001000
01000000
,
00001000
00010000
00000010
00010000
00000010
00001000
00000001
00000000
,
00000010
00000001
00001000
00000001
00001000
00000100
00010000
00000100
,
00010000
00001000
00100000
00001000
00100000
00010000
10000000
00000000
,
01000000
10000000
00010000
10000000
00010000
00100000
00001000
00100000
,
00001000
00010000
00000100
00010000
00000100
00001000
00000001
00000000
,
00000100
00000001
00001000
00000001
00001000
00000010
00010000
00000010
,
00010000
00001000
01000000
00010000
01000000
00000000
00000000
00000000
,
20000000
00000000
31000000
00010000
,
00000020
00000000
00000130
00001000
,
00200000
00000000
01300000
10000000
,
00020000
00030000
00002000
00003000
,
00000002
00000000
00000013
00001000
,
00020000
00000000
00130000
01000000
,
20000000
00000000
31000000
00001000
,
00022000
00000000
00000000
00033000
,
00010000
00001000
00000100
00001000
00010000
00000000
00010010
00000000
,
00001000
00010000
00100000
00010000
00001000
00000000
01001000
00000000
,
00100000
00100000
01000000
00000000
,
00000010
00000010
00000100
00000000
,
00001001
00000110
00011000
00000000
,
10010000
01100000
00011000
00000000
,
10000000
01000000
00010000
00001000
,
00000020
00000000
00000001
00000031
,
00001001
00000000
00000001
00000100
00001000
00000000
00010000
01000000
,
10000000
00100000
10000000
01000000
00010000
00000000
00100000
00010000
,
01000000
00000000
00001000
00010000
00001000
00000000
00000010
00000001
,
00000100
00001000
00010000
00100000
,
10010000
00000000
10000000
01000000
00010000
00000000
00001000
00000100
,
00000001
00000010
00000001
00000100
00001000
00000000
00000010
00001000
,
00000100
00000000
00010000
00001000
00010000
00000000
00100000
01000000
,
00020000
00000000
00100000
00100000
,
00032000
00000100
00000001
00003001
,
00001001
00000000
00000000
00000000
00000010
00000000
00000000
00011000
00000000
00000000
00000000
00000000
00000000
00000000
00000000
00000000
,
10010000
00000000
00000000
00000000
00100000
00000000
00000000
00011000
00000000
00000000
00000000
00000000
00000000
00000000
00000000
00000000
,
00000001
00001000
00000010
00010000
,
01000000
00100000
00001000
20000000
,
00000000
00000000
00000000
30000000
,
00100000
10000000
00010000
10000000
00010000
01000000
00001000
01000000
,
00001000
00010000
00000010
00010000
00000010
00001000
00000001
00000000
,
00000010
00000001
00001000
00000001
00001000
00000100
00010000
00000100
,
00010000
00001000
00100000
00010000
00100000
00000000
10010000
00000000
,
01000000
10000000
00010000
10000000
00010000
00100000
00001000
00100000
,
00001000
00010000
00000100
00010000
00000100
00001000
00000001
00000000
,
00000100
00000001
00001000
00000001
00001000
00000010
00010000
00000010
,
00010000
00001000
01000000
00010000
01000000
00000000
00000000
00000000
,
00200000
00000000
00002000
00300000
,
00000020
00003000
00000002
00000033
,
00000110
00010010
00011000
00101000
,
01100000
10100000
10010000
00000000
,
10000000
01000000
00010000
00000000
00011000
00000000
00000000
00000000
,
00000001
00000100
00001000
00000000
00011000
00000000
00000000
00000000
,
00010000
01000000
00001000
00000010
,
00020000
00000000
00001000
00031000
,
00011000
00000000
00010000
01000000
10000000
01000000
00010000
00000010
,
00001000
00000100
00001000
00000010
00000100
00000000
00000010
00000000
,
00001000
00000100
00000001
00000100
00001000
00000010
00010000
00001000
,
00100000
00001000
00010000
01000000
10000000
00000000
00100000
00000000
,
11000000
00000000
00100000
00010000
01000000
00100000
10000000
01000000
,
00010000
00001000
00000100
00000010
00000001
00000000
00000100
00000000
,
00000010
00000001
00001000
00000010
00000100
00000001
00001000
00010000
,
02000000
00000000
00100000
03100000
,
11000000
00110000
11000000
00101000
,
00010000
00001000
00000100
00000010
00000001
00000000
00000110
00000000
,
00000101
00001010
00000101
00010010
,
00001000
00010000
00100000
01000000
10000000
00000000
01100000
00000000
,
10010000
00000000
10000000
01000000
00010000
00001000
00100000
00001000
,
00000100
00000001
00000010
00000100
00001000
00000000
00000001
00000010
,
00001000
00010000
00000100
00010000
00100000
10000000
01000000
00100000
,
00020000
01000000
01000000
01030000
,
00002000
00000000
00010000
00000000
00010000
00000000
00013000
00000010
,
00000001
00000000
00000000
00000000
;

//---------------dance-single - Copied from----------------
#NOTES:
     dance-single:
     Copied from:
     Challenge:
     14:
     0.811,0.870,0.506,0.452,0.213: // measure 1
1000
0001
0100
0010
1000
0100
0010
0001
,  // measure 2
0010
0100
1000
0001
0100
0100
0100
0000
,  // measure 3
0000
0000
0001
1000
0010
0000
0100
0000
0000
0000
0001
0010
0100
1000
0100
0010
,  // measure 4
0001
0010
0100
1000
0001
0010
0100
1000
,  // measure 5
0010
0100
0001
1000
0010
1000
1100
0000
,  // measure 6
0010
0001
0100
1000
0100
0001
1000
0010
,  // measure 7
1000
0000
0100
0010
0001
0000
1000
0000
0010
0000
1000
0000
1001
0000
0000
0000
,  // measure 8
0001
0010
0100
0010
0001
0100
0001
1000
,  // measure 9
0010
1000
0100
0010
0001
1000
1010
0000
,  // measure 10
0010
0100
0010
1000
0001
0100
0010
1000
,  // measure 11
0100
0000
0010
0001
0010
0000
0100
0000
1100
0000
0000
0000
1000
0000
0001
0000
,  // measure 12
0200
0000
0310
1000
0200
0000
0310
0001
,  // measure 13
2000
0000
0100
0000
3020
0000
1030
0001
,  // measure 14
0200
0000
0310
1000
0002
0000
0103
0001
,  // measure 15
1000
0100
0010
0001
0010
0100
1000
0100
,  // measure 16
0020
0000
0031
0010
0100
1000
0100
0010
,  // measure 17
0011
0110
1002
0000
,  // measure 18
2003
0000
3010
0100
0002
0000
1003
0000
,  // measure 19
2002
0000
0000
0000
0000
0000
3003
0000
1000
0000
0010
0100
0001
0000
0010
0000
,  // measure 20
0100
0000
1000
0001
0100
0000
0010
0000
1000
0000
0000
0000
1001
0000
0000
0000
,  // measure 21
0001
0000
1000
0010
0100
0000
0001
0000
1000
0000
0000
0000
1200
0000
0000
0000
,  // measure 22
0320
0000
0032
0000
2003
0000
3100
0010
,  // measure 23
0002
1003
2002
3003
,  // measure 24
0110
1001
0110
0000
,  // measure 25
1001
0110
2001
0000
,  // measure 26
0010
0000
3002
0000
0013
0100
1000
0100
,  // measure 27
0010
0001
0010
0001
0010
0001
0010
0001
2000
0000
0000
0000
3001
0000
0000
0000
,  // measure 28
1001
0000
1000
0100
0001
0000
1000
0010
,  // measure 29
0001
0010
0100
1000
0020
0000
0130
0001
,  // measure 30
2000
0000
3001
0100
1000
0100
0001
0010
,  // measure 31
0200
0000
1300
0001
0020
0000
0130
1000
,  // measure 32
0200
0000
0310
0001
2000
0000
3001
1000
,  // measure 33
0100
1000
0010
1000
0002
0000
1003
0001
,  // measure 34
0200
0000
1300
0100
0002
0000
1003
0010
,  // measure 35
0200
1000
0010
0301
,  // measure 36
0002
0000
0100
0000
1000
0000
0013
0100
,  // measure 37
1001
0000
0000
0000
0001
0000
0000
1000
0000
0000
0001
0010
0100
1000
0100
0010
,  // measure 38
0001
0000
0000
0000
0100
0000
0000
0001
0000
0000
1000
0010
0100
0000
0001
0000
,  // measure 39
2001
0000
0000
0000
3020
0000
0000
0000
1030
0000
0010
1000
0100
0000
0010
0000
,  // measure 40
0001
0000
0000
0000
0011
0000
0000
0000
0010
0000
0100
0000
1000
0000
0001
0100
,  // measure 41
0001
0000
1000
0010
1000
0000
0001
0010
0100
1000
0010
0100
0001
0010
0100
0000
,  // measure 42
1000
0100
0010
0001
1000
0100
0010
0001
,  // measure 43
0100
0010
1000
0001
0100
0001
0011
0000
,  // measure 44
0100
1000
0010
0001
0010
1000
0001
0100
,  // measure 45
0001
0000
0010
0100
1000
0000
0001
0000
0100
0000
0000
0000
1001
0000
0000
0000
,  // measure 46
1000
0100
0010
0100
1000
0010
1000
0001
,  // measure 47
0100
0001
0010
0100
1000
0001
0101
0000
,  // measure 48
0100
0010
0100
0001
1000
0010
0100
0001
,  // measure 49
0010
0000
0001
1000
0010
0000
2000
0000
0002
0000
0000
0000
0000
0000
3000
0000
,  // measure 50
0203
0000
0310
0100
0002
0000
0000
0000
,  // measure 51
0013
0000
0100
1000
0100
0000
0010
0000
0002
0000
0000
0100
0013
0000
0100
0000
,  // measure 52
1001
0000
1100
0000
1001
0000
0101
0001
,  // measure 53
1001
0000
0000
0000
0101
0000
0000
0000
2010
0000
0000
3100
0010
0000
0001
0000
,  // measure 54
0010
0000
0100
0000
1000
0000
0001
0000
1001
0000
0000
1000
0001
0000
0100
0000
,  // measure 55
0010
0000
1000
0000
0001
0000
1000
0000
1010
0000
0000
1000
0010
0000
0100
0000
,  // measure 56
0101
0000
1020
0000
0130
0001
1000
0001
,  // measure 57
0010
0100
1000
0100
0010
0100
1000
0100
0020
0000
0000
0000
0032
0000
0000
0003
,  // measure 58
1001
1000
0010
0100
0001
1000
0010
0001
,  // measure 59
1000
0100
0001
1000
1010
0000
0010
1000
,  // measure 60
0001
1000
0010
1000
0001
0010
0100
1000
,  // measure 61
0100
1000
0001
0100
0110
0000
0010
1000
,  // measure 62
0001
0100
1000
0100
0001
0010
0100
0001
,  // measure 63
1000
0010
0001
0100
0101
0000
0001
1000
,  // measure 64
1010
0000
0010
0100
0101
0000
0001
1000
,  // measure 65
0100
0010
0001
0010
0100
0010
0001
0010
0200
0000
0000
0000
2300
0000
0000
3000
,  // measure 66
1001
0000
1001
0010
1100
0000
0101
0100
,  // measure 67
0001
0010
0100
1000
1001
0000
0110
0100
,  // measure 68
1010
0000
1010
0100
0101
0000
0011
0001
,  // measure 69
1001
1000
1010
0010
0110
0000
0010
0100
,  // measure 70
1001
0000
0010
1000
0100
0010
0001
0100
,  // measure 71
0010
1000
0001
0100
0010
1000
0001
0010
,  // measure 72
0100
1000
0001
0000
0100
0000
0010
0000
0100
0001
1000
0000
0001
0000
0100
0000
,  // measure 73
0001
1000
0020
0000
0100
0030
0100
0000
0001
1000
0200
0000
0010
0300
0010
0000
,  // measure 74
0001
0010
2000
0000
0010
3000
0010
0000
0001
0100
2000
0000
0100
3000
0100
0000
,  // measure 75
1001
0000
0000
0000
;
