#TITLE:Red Roses;
#SUBTITLE:;
#ARTIST:Mutsuhiko Izumi;
#TITLETRANSLIT:;
#SUBTITLETRANSLIT:;
#ARTISTTRANSLIT:;
#CREDIT:;
#BANNER:Red Roses-bn.png;
#BACKGROUND:Red Roses.bg.png;
#LYRICSPATH:;
#CDTITLE:;
#MUSIC:Red Roses.mp3;
#OFFSET:0.020;
#SAMPLESTART:54.540;
#SAMPLELENGTH:12.000;
#SELECTABLE:YES;
#BPMS:0.000=136.000,93.000=155.000,168.000=170.000;
#STOPS:;
#BGCHANGES:;

//---------------dance-single - ----------------
#NOTES:
     dance-single:
     :
     Challenge:
     17:
     0.806,1.000,0.217,0.348,0.682: // measure 1
0000
0000
1010
0000
1001
0001
1000
0001
,  // measure 2
0020
0000
0031
2000
0000
3010
0100
0001
,  // measure 3
0200
0000
0301
0000
1001
1000
0001
0100
,  // measure 4
2000
0000
3100
0001
0000
0001
1000
0001
,  // measure 5
0100
0010
1010
0000
0101
0001
1000
0001
,  // measure 6
0020
0000
0130
2000
0000
3001
0100
1000
,  // measure 7
0100
0001
1000
0001
0010
0100
1000
0100
,  // measure 8
0010
0001
0020
0000
0130
2000
0000
0000
,  // measure 9
0000
0000
3100
1000
0001
0000
0001
0000
0010
0000
0010
0000
0100
0000
0100
0000
,  // measure 10
1000
0000
0010
1000
0001
0000
0100
0000
0001
0000
2000
0000
0000
0000
0000
0000
,  // measure 11
0000
0000
3001
0100
0010
0000
1000
0000
0100
0000
0020
0000
0000
0000
0000
0000
,  // measure 12
0000
0000
0031
0010
0100
0000
1000
0000
0002
0000
0000
0000
0000
0000
0000
0000
,  // measure 13
0000
0000
1003
0010
0200
0000
0000
0000
0000
0000
0302
0000
0000
0000
0000
0000
,  // measure 14
0000
0000
1003
0001
0200
0000
0010
0000
0000
0000
0320
0000
0000
0000
0000
0000
,  // measure 15
0000
0000
1030
0001
0010
0000
0200
0000
0000
0000
0320
0000
0000
0000
0031
0000
,  // measure 16
0010
0000
0110
0000
0100
2000
0000
3001
,  // measure 17
0100
0010
1010
1000
0001
0100
0010
1010
,  // measure 18
0000
0000
1000
0001
0100
0000
0001
0000
0100
0000
0110
0000
0010
0000
1000
0000
,  // measure 19
0010
0100
0001
0000
0001
1000
0000
1000
,  // measure 20
0010
0000
0110
0000
0100
0010
0000
0010
,  // measure 21
1000
0001
0010
0000
0011
0000
0001
2000
,  // measure 22
0000
0000
3001
0010
0200
0000
0000
0000
1300
0000
0100
0000
0000
0000
0010
0000
,  // measure 23
0001
0010
0100
1000
0001
0000
0000
0000
1001
0000
0000
0000
0110
0000
0000
0000
,  // measure 24
0000
0000
0010
1000
0002
0000
0000
0000
0000
0000
0000
0000
0000
0000
0000
0000
,  // measure 25
0000
0000
0003
0000
1000
0001
1000
0010
0100
0010
1000
0001
0010
0100
1000
0100
,  // measure 26
0010
0001
1000
0010
1000
0001
0100
0001
1000
0010
0100
0001
0010
0100
1000
0100
,  // measure 27
0010
0001
1000
0001
0100
0001
1000
0010
0100
0010
1000
0001
0010
0100
1000
0100
,  // measure 28
0010
0001
1000
0010
1000
0001
0100
0001
1000
0010
0100
0001
0010
0100
1000
0100
,  // measure 29
0010
0001
0100
0000
0001
0000
0100
0000
0001
0000
1000
0000
0010
0000
0100
0000
,  // measure 30
0001
0000
1000
0010
1000
0000
0010
0000
0001
0000
1000
0000
0100
0010
1000
0001
,  // measure 31
0100
0001
0010
0100
0010
0000
0100
0000
1000
0000
0001
0000
0010
0000
0100
0000
,  // measure 32
0001
0000
0100
1000
0001
0000
1000
0000
0001
0000
0100
0000
0010
1000
0001
0010
,  // measure 33
0100
1000
0001
0010
0001
0100
0000
0001
1000
0000
0100
1000
0000
0001
0010
0000
,  // measure 34
0100
1000
0100
0010
0001
1000
0000
0001
0100
0000
0010
1000
0000
0001
1000
0000
,  // measure 35
0100
1000
0100
0010
0001
0010
0100
0010
0001
1000
0001
0100
0010
0100
0001
1000
,  // measure 36
0010
0001
0010
1000
0100
0010
0100
1000
0001
0100
0001
1000
0100
0010
0001
0010
,  // measure 37
0100
1000
0010
1000
0001
0010
0000
0100
1000
0000
0001
0010
0000
0100
1000
0000
,  // measure 38
0001
1000
0010
0100
0001
0010
0000
0001
1000
0000
0010
0100
0000
0001
1000
0000
,  // measure 39
0010
1000
0001
0100
0001
1000
0100
1000
0000
0001
1000
0100
1000
0001
0100
0001
,  // measure 40
0000
1000
0001
0100
0001
0010
0100
1000
0000
0100
0010
0001
0010
0100
1000
0001
,  // measure 41
0100
0010
1000
0001
0010
0100
0010
0001
0000
1000
0010
1000
0001
0100
0001
1000
,  // measure 42
0000
0010
1000
0001
0200
0000
0000
0000
0320
0000
0000
0000
1030
0001
0100
0010
,  // measure 43
2000
0000
0000
0000
0000
0000
0000
3000
,  // measure 44
1010
0000
0101
0000
0000
0001
1000
0010
,  // measure 45
0100
0020
0000
0130
0001
0010
0001
1000
,  // measure 46
1001
0000
0110
0000
0000
0001
0010
0100
,  // measure 47
1000
0200
0000
1300
0001
0100
0010
0100
,  // measure 48
0101
0000
1010
0010
1000
0001
0100
0010
,  // measure 49
0100
0001
0000
1002
0000
1003
0001
0010
,  // measure 50
0100
2000
0000
3100
0010
0001
0010
0100
,  // measure 51
1001
0000
0000
0000
0010
0000
0200
0000
0000
0000
0000
0000
0000
0000
0301
1000
,  // measure 52
0001
0000
0100
0000
0010
0000
1000
0000
0001
0000
0010
0000
0100
0000
1000
0100
,  // measure 53
1000
0000
0001
0000
0100
0000
0010
0000
1000
0000
0001
0000
0100
0000
0010
0100
,  // measure 54
0010
0000
1000
0000
0010
0000
0001
0000
1000
0000
0100
0000
0001
0000
0010
0100
,  // measure 55
1000
0000
0001
0000
0100
0000
0010
0000
1000
0000
0001
0000
0010
0000
0100
0010
,  // measure 56
0001
0000
1000
0000
0010
0000
1000
0000
0100
0000
0010
0000
0001
0000
0010
0100
,  // measure 57
1000
0000
0001
0000
0100
0000
1000
0000
0100
0000
0001
0000
1000
0000
0010
1000
,  // measure 58
0001
0200
0000
0320
0000
1030
0001
0000
,  // measure 59
1001
0000
0000
0000
0001
0000
0020
0000
0000
0000
0000
0000
0130
1000
0001
0100
,  // measure 60
0002
0000
0000
0000
0103
0001
1000
0010
0100
0001
0010
0100
1000
0010
0100
0001
,  // measure 61
1000
0010
1000
0001
0200
0000
0000
0000
0000
0000
0000
0000
0301
1000
0001
0100
,  // measure 62
0020
0000
0000
0000
0000
0000
2030
0000
0000
0000
0000
0000
0000
0000
3010
1000
,  // measure 63
0010
0000
0100
0000
0010
0000
1000
0000
0001
0000
0010
0000
0100
0000
1000
0001
,  // measure 64
1000
0000
0010
0000
0100
0000
0001
0000
0010
0000
0100
0000
1000
0000
0100
0010
,  // measure 65
0001
1000
0010
0001
0010
1000
0001
0010
,  // measure 66
0001
0100
0001
1000
0010
0100
0001
0010
0001
0100
0010
1000
0010
0100
0001
0010
,  // measure 67
0100
0000
1000
2002
0000
0000
0000
3000
,  // measure 68
1003
0000
0000
0010
0000
0000
0100
0000
0000
0001
0000
0000
0010
0000
0000
0100
0000
0000
0010
0000
0000
0001
0000
0000
1000
0000
0000
0010
0000
0000
1000
0000
0000
0001
0000
0000
0100
0000
0000
0000
0010
0000
0000
0000
1000
0000
0000
0000
,  // measure 69
0002
2000
0000
0000
,  // measure 70
0000
0000
0000
0000
0000
3003
0110
0000
,  // measure 71
1001
0000
0000
0000
;

//---------------dance-single - Copied from----------------
#NOTES:
     dance-single:
     Copied from:
     Hard:
     14:
     0.672,0.882,0.182,0.495,0.339:
0000
0000
1001
0000
1000
0010
0100
0001
,
2000
0000
3001
0200
0000
0310
0100
0010
,
2000
0000
3010
0000
1010
1000
0001
0100
,
0020
0000
1030
0200
0000
0310
0001
0010
,
0100
1000
1001
0000
1001
0001
0100
0001
,
2000
0000
3010
0200
0000
0301
0010
0100
,
1000
0100
0010
0001
0000
0001
0010
0100
,
0010
0001
2000
0000
3010
0200
0000
0000
,
0000
0000
0310
1000
0001
0000
0100
0000
0010
0000
0001
0000
0010
0000
1000
0000
,
0001
0000
0010
0100
1000
0000
0100
0000
1000
0000
0002
0000
0000
0000
0000
0000
,
0000
0000
1003
0010
2000
0000
0000
0000
3100
0000
0020
0000
0000
0000
0000
0000
,
0000
0000
0031
0010
0002
0000
0000
0000
0203
0000
0000
0000
0000
0000
0000
0000
,
0000
0000
0310
1000
0020
0000
0000
0000
0000
0000
0230
0000
0000
0000
0000
0000
,
0000
0000
0301
1000
0020
0000
0000
0000
0000
0000
0230
0000
0000
0000
0000
0000
,
0000
0000
0301
1000
0020
0000
0230
0000
0000
0000
0320
0000
0000
0000
1030
0000
,
0001
0000
0101
0000
0100
0020
0000
1030
,
0010
0100
0002
0000
0000
0000
1003
0020
,
0000
0000
0130
0010
0200
0000
0000
0000
0300
0000
1001
0000
0000
0000
1000
0000
,
0010
0100
0001
0000
0001
0010
0000
0010
,
0100
0000
1100
0000
1000
0010
0000
0010
,
0100
0001
0020
0000
0000
0000
0031
2000
,
0000
0000
3001
0010
0200
0000
0000
0000
1300
0000
0100
0000
0000
0000
0010
0000
,
0001
1000
0001
1000
0001
0000
0000
0000
1010
0000
0000
0000
0101
0000
0000
0000
,
0000
0000
0001
0100
0002
0000
0000
0000
0000
0000
0000
0000
0000
0000
0000
0000
,
0000
0000
0003
0000
1000
0010
1000
0010
1000
0010
1000
0010
0100
0001
0100
0001
,
0100
0001
0100
0001
0010
0100
0010
0100
0010
0100
0010
0100
1000
0001
1000
0001
,
1000
0001
1000
0001
0100
0000
0100
0000
0010
0000
0010
0000
1000
0000
1000
0000
,
0001
0001
0010
0010
0100
0100
1000
1000
,
0001
0010
0100
1000
0100
0010
0001
1000
,
0010
0000
0100
0010
0100
0000
0001
0000
1000
0000
0001
0000
0100
0000
1000
0000
,
0100
0001
0010
0100
0010
0001
1000
0100
,
0001
0000
0100
1000
0100
0000
0010
0000
0001
0000
0100
0000
0010
0000
1000
0000
,
0001
0000
1000
0000
0001
0010
0000
0100
1000
0000
0010
1000
0000
0001
0100
0000
,
0010
1000
0010
0000
0100
0001
0000
1000
0010
0000
0100
0010
0000
0100
0001
0000
,
1000
0001
1000
0000
0010
0000
0100
0000
0010
0000
1000
0000
0100
0000
0010
0000
,
0001
0010
0100
1000
0100
0010
0001
1000
,
0010
0100
0010
0000
1000
0001
0000
0100
0010
0000
0100
0001
0000
1000
0010
0000
,
0100
0001
0100
0000
0001
0010
0000
0100
1000
0000
0010
0100
0000
0001
1000
0000
,
0001
1000
0001
0000
0100
0010
0100
0010
0000
1000
0001
1000
0001
1000
0001
1000
,
0000
0001
0100
0010
1000
0001
0100
0001
,
0010
0000
0100
0000
0010
0001
0010
0000
0100
0000
1000
0000
0001
0000
0100
0000
,
0010
0000
0100
0000
0002
0000
0000
0000
2003
0000
0000
0000
3010
0100
0010
0100
,
0020
0000
0000
0000
0000
0000
0000
0030
,
1001
0000
1001
0000
0000
1000
0010
1000
,
0001
0200
0000
0301
0000
1000
0010
0000
,
0110
0000
0101
0000
0000
0001
1000
0010
,
0100
0002
0000
1003
0000
0000
0000
0000
,
0110
0000
1010
0000
0000
0000
0000
0010
,
0100
0010
0000
0110
0000
0000
0000
0100
,
0001
0020
0000
0130
1000
0100
0010
0001
,
0020
0000
0000
0000
0130
0000
2000
0000
0000
0000
0000
0000
0000
0000
3010
1000
,
0010
0000
0001
0000
0010
0000
1000
0000
0001
0000
0010
0000
0000
0000
0100
1000
,
0200
0000
0000
0000
0310
0000
0002
0000
0000
0000
0000
0000
0000
0000
0013
0100
,
2000
0000
0000
0000
3001
0000
0200
0000
0000
0000
0000
0000
0000
0000
0310
0100
,
0001
0000
0000
0000
2002
0000
0000
0000
0000
0000
3003
0000
0000
0000
0100
0010
,
0200
0000
0000
0000
0310
0000
2000
0000
0000
0000
0000
0000
0000
0000
3001
0100
,
0001
0000
0000
0000
0000
0000
0202
0000
0000
0000
0303
0000
0000
0000
0100
0010
,
0100
0002
0000
2003
0000
3010
0100
0000
,
0101
0000
0001
2000
0000
0000
3100
0010
,
0002
0000
0013
1000
0010
0001
0100
1000
,
0100
0001
2000
0000
0000
0000
3010
0100
,
0002
0000
0000
0000
0000
0000
0023
0000
0000
0000
0000
0000
0000
0000
0130
1000
,
0100
0000
0010
0000
0001
0000
1000
0000
0010
0000
1000
0000
0001
0000
0100
0010
,
0100
0000
0010
0000
1000
0000
0001
0000
0010
0000
0001
0000
1000
0000
0100
0010
,
0100
1000
0010
0001
0010
1000
0001
0100
,
0001
0100
0001
0100
0001
0100
0001
1000
0010
1000
0010
1000
0010
1000
0010
1000
,
0001
0000
1000
0020
0000
0000
0000
0000
,
0130
0001
0010
0100
1000
0100
0010
0001
,
2000
0002
0000
0000
,
0000
0000
0000
0000
0000
3003
0110
0000
,
1001
0000
0000
0000
;

//---------------dance-single - Copied from Copied f----------------
#NOTES:
     dance-single:
     Copied from Copied f:
     Medium:
     11:
     0.536,0.517,0.104,0.591,0.048:
0000
0000
0002
0000
0103
0010
0100
0001
,
0020
0000
0130
0200
0000
1300
0100
1000
,
0002
0000
0203
0000
0310
0100
0010
1000
,
0200
0000
0310
0020
0000
0031
1000
0001
,
0010
0100
2000
0000
3100
0010
0001
0010
,
0200
0000
1300
2000
0000
3001
1000
0010
,
0100
0001
1000
0020
0000
0130
0001
1000
,
0001
0010
0200
0000
0301
0002
0000
0000
,
0000
0103
0100
1000
0001
0100
0010
0100
,
0001
1000
1000
0010
0100
0002
0000
0000
,
0000
0103
0200
0000
0310
0020
0000
0000
,
0000
1030
2000
0000
3002
0000
0000
0000
,
0000
0103
0200
0000
0000
0320
0000
0000
,
0000
1030
2000
0000
0000
3002
0000
0000
,
0000
0013
0100
2000
0000
3002
0000
0103
,
0200
0000
0320
0000
1030
2000
0000
3001
,
0100
0010
0200
0000
0000
0000
0301
0002
,
0000
0013
0020
0000
0000
0230
0000
1300
,
0100
1000
0001
0000
1000
0001
0000
0100
,
0010
0000
1001
0000
0100
0010
0000
0100
,
0010
1000
0002
0000
0000
0000
1003
2000
,
0000
3001
0002
0000
0013
0020
0000
0130
,
1000
0100
0100
0000
0110
0000
0011
0000
,
0000
0000
0001
1000
0200
0000
0000
0000
0000
0000
0000
0000
0000
0000
0000
0000
,
0300
0000
0010
0001
0010
0000
0100
1000
,
0100
0000
0010
0001
0010
0000
0100
1000
,
0001
0100
0010
1000
0010
0000
0100
0001
,
0100
0000
0010
1000
0010
0000
0100
0001
,
0010
0100
1000
0001
0100
0001
1000
0010
,
0100
0000
0010
0000
1000
0000
0000
0001
0000
0000
0100
0000
0001
0000
0010
0000
,
0100
1000
0100
0010
0001
1000
0010
1000
,
0001
0000
0100
0000
0001
0000
0000
1000
0000
0000
0001
0000
0010
0000
0100
0000
,
1000
0000
0000
0000
0001
0000
0000
0001
0000
0000
1000
0000
0000
1000
0000
0000
,
0010
0000
0100
0000
0010
0000
0000
0010
0000
0000
0100
0000
0000
0100
0000
0000
,
0001
1000
0001
0100
0010
1000
0100
0010
,
0001
0010
0100
1000
0100
0010
0001
1000
,
0010
0000
0100
0000
0001
0000
0000
0001
0000
0000
1000
0000
0000
1000
0000
0000
,
0010
0000
0100
0000
0010
0000
0000
0010
0000
0000
0100
0000
0000
0100
0000
0000
,
0001
1000
0001
0100
0000
0010
1000
0010
,
0000
0100
0001
0020
0000
0230
0000
2300
,
0000
3100
0010
0002
0000
1003
0001
1000
,
0001
0010
0200
0000
2300
0000
3001
1000
,
0002
0000
0000
0000
0000
0000
0000
0003
,
1001
0000
1001
0000
0000
1000
0010
0100
,
0000
0002
0000
1003
0000
0100
0100
0000
,
0010
0000
1001
0000
0000
1000
0001
0010
,
0000
0200
0000
1300
0000
0000
0000
0000
,
0100
0000
0110
0000
0000
0000
0000
0010
,
0001
0010
0000
0200
0000
0300
0000
1000
,
0001
1000
0000
0001
0000
1000
0001
1000
,
0200
0000
0310
0020
0000
0000
0000
0031
,
0001
0010
0100
1000
0001
0010
0000
0100
,
0200
0000
0300
2000
0000
0000
0000
3010
,
0020
0000
0030
2000
0000
0000
0000
3001
,
0001
0000
0200
0000
0000
0300
0000
0010
,
0020
0000
0130
0002
0000
0000
0000
1003
,
1000
0000
0000
0002
0000
0003
0000
0100
,
0100
0002
0000
0023
0000
0130
0100
0000
,
1100
0000
1000
2000
0000
0000
3100
0010
,
0002
0000
0013
0100
0010
0000
0100
1000
,
0100
1000
0002
0000
0000
0003
1000
0001
,
2000
0000
0000
3002
0000
0000
0000
0013
,
0010
0000
0012
0000
0000
0003
0010
0100
,
0100
0000
0000
1100
0000
0000
0000
1000
,
1000
0000
0001
0020
0000
0000
0000
0030
,
0001
0010
0100
1000
0001
0010
0100
1000
,
0001
0000
0010
0200
0000
0000
0000
0300
,
1000
0001
1000
0000
0001
1000
0010
0100
,
0002
2000
0000
0000
,
0000
0000
0000
0000
0000
3003
0110
0000
,
1001
0000
0000
0000
;

//---------------dance-single - Copied from Copied f----------------
#NOTES:
     dance-single:
     Copied from Copied f:
     Easy:
     5:
     0.367,0.365,0.061,0.200,0.000:
0000
0000
1000
0000
0001
0000
1000
0001
,
0100
0000
0000
0010
0000
0000
1000
0001
,
1000
0000
0001
0000
1000
0000
0010
1000
,
0010
0000
0000
0100
0000
0000
0001
0100
,
0001
0000
1000
0000
0010
0000
0100
0001
,
0100
0000
0000
0010
0000
0000
1000
0000
,
0001
0010
0100
1000
0000
0000
0100
0000
,
0010
0000
0001
0000
1000
1000
0000
0000
,
0000
0001
0001
0000
0100
0000
0010
0000
,
0100
0010
1000
0000
0000
0001
0000
0000
,
0000
1000
1000
0000
0000
0010
0000
0000
,
0000
1000
1000
0000
0100
0000
0000
0000
,
0000
0010
0010
0000
0000
0001
0000
0000
,
0000
0010
0010
0000
0000
0100
0000
0000
,
0000
1000
0100
0100
0000
0010
0000
0001
,
0001
0000
0010
0000
0100
0100
0000
1000
,
0001
1000
0001
0000
0000
0000
0100
0100
,
0000
0010
0010
0000
0000
1000
0000
0001
,
0100
0001
0100
0000
0010
0010
0000
0100
,
0100
0000
1000
0000
0100
0100
0000
0010
,
0010
1000
0010
0000
0000
0000
0100
0100
,
0000
0001
0001
0000
0010
0010
0000
0100
,
1000
0001
0001
0000
1001
0000
1001
0000
,
0000
0010
0020
0000
0000
0000
0000
0000
,
0030
0100
0100
0010
,
0010
0000
1000
0000
1000
0000
0001
1000
,
0001
1000
0001
0000
0001
0000
1000
0000
,
1000
0000
0001
0000
0001
0000
0100
0010
,
0100
0010
0100
0001
1000
0000
0001
0000
,
1000
0010
1000
0001
,
0100
0000
0010
0000
1000
0001
1000
0000
,
0010
0000
0100
0000
0001
0000
1000
0010
,
1000
0001
0010
0100
,
0010
0100
0010
0000
0100
0000
1000
0000
,
0001
1000
0001
0000
0100
0000
0100
0000
,
0010
0010
1000
1000
,
0001
0001
0100
1000
,
0010
0100
0010
0000
0001
0000
0100
0000
,
1000
0010
1000
0000
0010
0000
1000
0000
,
0001
1000
0001
0100
,
1000
0100
0001
1000
,
0001
0000
2000
0000
3002
0000
1003
0010
,
0200
0000
0000
0000
0000
0000
0000
0300
,
1001
1001
0000
0100
,
0000
0001
0000
1000
0000
0010
0010
0000
,
0200
0310
0000
1000
,
0000
0001
0000
0100
0000
0000
0000
0000
,
0020
0130
0000
0000
,
0000
0001
0000
1000
0000
0000
0000
0000
,
0010
0000
0000
0100
0000
0000
0001
0000
,
2000
0000
3000
0002
0000
0000
0003
0000
,
2000
3001
0000
0000
,
1000
0001
0000
1000
0000
0000
0000
0000
,
0020
0130
0000
0000
,
0001
0000
2000
0000
0000
0000
3000
0100
,
0200
0000
0300
0020
0000
0000
0030
0001
,
0001
0000
0000
1000
0000
0000
0000
0000
,
0001
0002
0000
2003
0000
3010
0010
0000
,
0100
0000
0001
0001
0000
0000
1000
0010
,
1000
0000
0010
0100
0010
0000
0100
0001
,
0100
0001
0100
0000
0000
0000
0010
1000
,
0020
0000
0000
0230
0000
0000
0000
0300
,
0001
0000
0002
0000
0000
0003
0000
0000
,
0100
0000
0000
0110
0000
0000
0000
0000
,
0010
0000
0000
0100
0000
0000
0000
0000
,
0002
1000
0013
0200
,
0001
0000
0310
0020
0000
0000
0000
0030
,
1000
0000
1000
0000
0001
0000
1000
0001
,
0200
0020
0000
0000
,
0000
0000
0330
1001
,
1001
0000
0000
0000
;

//---------------dance-single - Copied from Copied f----------------
#NOTES:
     dance-single:
     Copied from Copied f:
     Beginner:
     2:
     0.254,0.335,0.009,0.087,0.000:
0000
1000
0001
1000
,
0010
0000
0000
0010
0000
0000
0100
0000
,
0100
0000
0000
0010
,
0010
0000
0000
0100
0000
0000
0001
0000
,
0001
0000
0000
0100
,
0100
0000
0000
0010
0000
0000
1000
0000
,
0001
0010
0000
0010
0000
0000
0100
0000
,
1000
0000
0000
0000
0001
0001
0000
0000
,
0000
1000
1000
0000
0010
0000
0010
0000
,
0000
0000
0100
0000
0000
0001
0000
0000
,
0000
0000
1000
0000
0000
0010
0000
0000
,
0000
0100
0001
0000
,
0000
0010
0010
0000
0000
0100
0000
0000
,
0000
1000
1000
0000
0000
0100
0000
0000
,
0000
1000
0000
1000
0000
0000
0000
0001
,
0001
0000
0000
0000
1000
1000
0000
0000
,
0000
0001
0001
0000
0000
0000
0100
0100
,
0000
0010
0010
0000
0000
1000
0000
0001
,
0000
0100
0000
0000
0010
0010
0000
0100
,
0100
0000
0001
0000
1000
1000
0000
0001
,
0001
0000
1000
0000
0000
0000
0100
0100
,
0000
0010
0010
0000
0001
0001
0000
0000
,
1000
0001
0100
0100
,
0000
0020
0000
0000
,
0030
0100
0000
0010
,
0000
0000
1000
0000
0000
0000
0001
0001
,
0001
1000
0000
0001
,
0000
0000
0100
0000
0000
0000
0010
0010
,
0010
0100
0000
0001
,
0010
0000
0100
0000
,
1000
0000
0000
0000
0100
0100
0100
0000
,
0000
0010
0000
0001
,
0000
0010
0000
0100
,
0000
1000
0000
0001
,
0000
1000
0010
1000
,
0001
0100
0001
0100
,
0000
0001
0000
1000
,
0000
0001
0000
0010
,
0000
0100
1000
0000
,
0001
1000
0001
1000
,
0001
1000
0010
0100
,
0010
0000
0200
0000
0310
0000
0100
0100
,
0200
0000
0000
0000
0000
0000
0000
0300
,
0002
1003
0000
0010
,
0000
0100
0000
0000
0000
0010
0010
0000
,
0200
0310
0000
1000
,
0000
0000
0000
0100
0000
0000
0000
0000
,
0020
0031
0000
0000
,
0000
1000
0000
1000
0000
0000
0000
0000
,
0010
0000
0000
0100
,
0100
0000
0000
0001
0000
0000
0000
0000
,
0100
0000
0000
0000
,
0000
0001
0000
1000
0000
0000
0000
0000
,
0020
0130
0000
0000
,
0001
0020
0000
0030
,
0100
0000
0000
0020
0000
0000
0030
0000
,
0001
0000
0000
0010
0000
0000
0000
0000
,
0100
0000
0000
1000
0000
0000
0100
0000
,
0010
0000
0000
0001
0000
0000
0010
0000
,
0100
0000
0000
1000
0000
0100
0000
0000
,
0010
0001
0010
0000
0000
0000
0100
0000
,
1000
0000
0000
0100
0000
0000
0000
0000
,
0010
0001
0000
0000
,
0001
0000
0000
1000
0000
0000
0000
0000
,
1000
0000
0000
0010
0000
0000
0000
0000
,
0100
0001
1000
0001
,
1000
0000
0010
0010
0000
0000
0000
0000
,
0100
0000
0100
0000
0010
0000
0010
0100
,
0010
0200
0000
0000
,
0000
0000
0300
0010
,
1001
0000
0000
0000
;
