#TITLE:Red Goose;
#SUBTITLE:;
#ARTIST:Mutsuhiko Izumi;
#TITLETRANSLIT:;
#SUBTITLETRANSLIT:;
#ARTISTTRANSLIT:;
#CREDIT:;
#BANNER:Red Goose-bn.png;
#BACKGROUND:Red Goose-bg.png;
#LYRICSPATH:;
#CDTITLE:;
#MUSIC:Red Goose.mp3;
#OFFSET:0.000;
#SAMPLESTART:100.000;
#SAMPLELENGTH:12.000;
#SELECTABLE:YES;
#BPMS:0.000=200.001;
#STOPS:;
#BGCHANGES:;

//---------------dance-single - ----------------
#NOTES:
     dance-single:
     :
     Hard:
     14:
     0.816,0.785,0.320,0.080,0.136:
0000
0000
0000
0001
1000
0010
0100
0000
,
0000
0010
1000
0010
0100
0000
0101
0000
,
0000
0000
0000
0001
0100
0001
0100
0001
0100
0001
0000
0000
,
0000
1000
0010
0100
0001
0010
0001
0000
,
0000
0000
0100
0001
1000
0100
1000
0000
,
0000
0010
0001
0010
1000
0001
0100
0000
,
0000
0001
1000
0001
0010
0100
1000
0000
,
1100
0101
1100
0020
,
0000
0000
0000
0000
0000
0130
0200
0000
,
0000
0000
0000
0000
0000
0000
0301
1000
,
0001
1000
0000
0010
1000
0010
0100
1000
,
0100
0001
0000
0010
0001
0010
1000
0010
,
0001
0100
0000
0001
0010
0100
1000
0001
,
0100
0010
0000
1000
0100
0010
0001
0010
,
0100
1000
0000
0001
1000
0010
0100
0001
,
0010
1000
0000
0010
0001
0100
1000
0100
,
0001
0010
0000
0100
1000
0010
0100
0001
,
0010
0100
0000
1000
0010
0100
0001
1000
,
0100
0010
0001
0010
0100
1000
0010
0100
,
0001
0010
0001
0100
0010
0100
0010
0010
,
0100
0100
0000
0010
1000
0010
0100
1000
,
0100
0001
0000
0010
0001
0010
1000
0010
,
0001
0100
0000
0001
0010
0100
1000
0001
,
0100
0010
0000
1000
0100
0010
0001
0010
,
0100
1000
0000
0001
1000
0010
0100
0001
,
0010
1000
0000
0010
0001
0100
1000
0100
,
0001
0010
0000
0100
1000
0010
0100
0001
,
0010
0100
0000
0010
0001
0010
0100
1000
,
0100
0010
0000
0010
0001
0010
1000
0010
,
0001
0100
0000
0001
0010
0100
1000
0001
,
0100
0010
0000
1000
0100
0010
0001
0010
,
0100
1000
0000
0001
1000
0010
0100
0001
,
0010
1000
0000
0010
0001
0100
1000
0100
,
0001
0010
0000
0100
1000
0010
0100
0001
,
0010
0100
0000
1000
0001
0100
0010
1000
,
0100
0010
0000
0001
0100
0001
0011
0000
,
1100
0000
0101
0000
0010
0001
0101
0000
,
1001
0000
0110
0000
0100
0001
1001
0000
,
0110
0000
1020
0000
0100
0000
1030
0001
,
0100
1000
0100
0001
0010
1000
0010
0000
,
0011
0000
1001
0000
1000
0010
1010
0000
,
0101
0000
0011
0000
0001
1000
1100
0000
,
0110
0000
0010
0001
0200
0000
0310
1000
,
0200
0000
0310
0001
0200
0000
0301
0001
,
1000
1000
0010
0010
0100
0100
0001
0001
,
1000
0000
1000
0000
0100
0000
0100
0000
0010
0000
0010
0000
0001
0100
0000
0000
,
0001
0000
1000
0000
0010
0000
1000
0000
0001
0000
0001
0000
0100
0010
0000
0000
,
0100
0000
0001
0000
0010
0000
0100
0000
1000
0000
1000
0000
0100
0010
0000
0000
,
0001
0000
0100
0000
1000
0000
0100
0000
0001
0000
0001
0000
0010
0100
0000
0100
,
1000
0000
0001
0000
1000
0000
0010
0000
0100
0000
0100
0000
0001
1000
0000
0000
,
0010
0000
0100
0000
0001
0000
0010
0000
0100
0000
0100
0000
1000
0100
0000
0000
,
0010
0000
0001
0000
0010
0000
0100
0000
1000
0000
1000
0000
0001
0010
0000
0000
,
0100
0000
1000
0000
0001
0000
0010
0000
0100
0000
0100
0000
0010
0001
0000
0000
,
0010
0000
0100
1000
0100
0000
0010
0001
0010
0000
0100
0000
1000
0010
0000
0000
,
1000
0000
0001
0000
0100
0000
0001
0000
1000
0000
1000
0000
0010
0100
0000
0000
,
0010
0000
1000
0000
0100
0000
0010
0000
0001
0000
0001
0000
0010
0100
0000
0000
,
1000
0000
0010
0000
0001
0000
0010
0000
1000
0000
1000
0000
0100
0010
0000
0010
,
0001
0000
1000
0000
0001
0000
0100
0000
0010
0000
0010
0000
1000
0001
0000
0000
,
0100
0000
0010
0000
1000
0000
0100
0000
0010
0000
0010
0000
0001
0010
0000
0000
,
0100
0000
1000
0000
0100
0000
0010
0000
0001
0000
0001
0000
1000
0100
0000
0000
,
0010
0000
0001
0000
1000
0000
0100
0000
0010
0000
0010
0000
0100
1000
0000
0000
,
0100
0000
0010
0001
0010
0000
0100
1000
0100
0000
1000
0000
1100
0000
0000
0000
,
0011
0000
1010
0000
0100
1000
1010
0000
,
1001
0000
0110
0000
0010
1000
1001
0000
,
0110
0000
0201
0000
0010
0000
0301
1000
,
0010
0001
0010
1000
0100
0001
0100
0000
,
1100
0000
1001
0000
0001
0100
0101
0000
,
1010
0000
1100
0000
1000
0001
0011
0000
,
0110
0000
0100
1000
0020
0000
0130
0001
,
0020
0000
0130
1000
0020
0000
1030
1000
,
0001
0001
0100
0100
0010
0010
1000
1000
,
0001
0001
0010
0010
0100
0100
0010
0010
,
0001
0100
0000
0010
1000
0010
0100
1000
,
0100
0001
0000
0010
0001
0010
0100
0100
,
1000
0001
0000
1000
0010
0100
1000
0100
,
0001
0010
0000
0100
1000
0001
1001
1000
,
0010
0100
0000
0010
0100
1000
0100
0001
,
0010
0100
0000
1000
0100
0010
0001
0001
,
0010
0100
0000
1000
0001
0100
0010
1000
,
0010
0100
0000
0010
0001
0010
1000
0010
,
0100
0001
0000
0010
0100
1000
0001
0010
,
1000
0010
0000
0100
0001
0100
0010
0001
,
0010
0100
0000
0100
1000
0100
0001
0100
,
1000
0010
0000
1000
0100
0010
0001
1000
,
0010
0100
0000
0001
0010
0100
1000
0100
,
0010
0001
0000
1000
0001
0100
0010
1000
,
0100
0001
0000
0100
1000
0010
0001
0010
,
1000
0100
0000
0010
0001
1000
0100
1000
,
0001
0010
0000
0100
1000
0001
0100
0010
,
1000
0001
0000
0010
1000
0010
0100
1000
,
0100
0010
0000
0001
0100
0001
1000
0010
,
0001
0010
0000
1000
0010
0100
0001
1000
,
0010
0001
0000
0010
1000
0010
0001
0010
,
1000
0001
0000
1000
0010
0100
0001
0010
,
0100
1000
0000
0001
0010
0100
1000
0100
,
0010
0000
0001
0000
0000
0000
0101
0000
0101
0000
0000
0000
0001
1000
0000
0000
,
1000
0100
0000
0000
0100
0010
0000
0000
0010
0001
0000
0000
0001
1000
0000
0000
,
0010
0100
0000
0000
0001
0010
0000
0000
0100
1000
0000
0000
0000
0000
0000
0000
,
0000
1001
0000
0000
;

//---------------dance-single - Copied from----------------
#NOTES:
     dance-single:
     Copied from:
     Challenge:
     18:
     0.988,1.000,0.376,0.232,0.627:
0000
0000
0000
1000
0001
1000
0010
0000
,
0000
0100
0010
1000
0001
0000
1001
0000
,
0000
0000
0000
0010
1000
0001
0010
0100
1000
0010
0000
0000
,
0000
0000
0000
0010
0000
0000
1000
0000
0000
0001
0000
0000
0100
0000
0010
0000
0100
0000
0001
0000
0000
0000
0000
0000
,
0000
0000
0000
1000
0100
0010
0001
0010
0100
1000
0000
0000
,
0000
0000
0000
0010
0000
0000
1000
0000
0000
0001
0000
0000
0100
0000
0010
0000
1000
0000
0001
0000
0000
0000
0000
0000
,
0000
1000
0010
1000
0100
0010
0001
0000
,
0011
0110
1100
1002
,
0000
0000
0000
0000
0000
0000
0003
1000
0010
2000
0000
0000
,
0000
0000
0000
0000
0000
0000
3010
1000
,
0010
0110
0000
0010
0100
0001
0010
0100
,
1000
1100
0000
0010
0001
0010
0100
1000
,
0001
0101
0000
0010
1000
0001
0010
0100
,
1000
0110
0000
0010
0001
0010
1000
0010
,
0001
1001
0000
1000
0010
2000
0100
3200
,
0010
0310
0000
0100
1000
0200
0010
0320
,
0001
0031
0000
0100
0010
0002
0010
0013
,
1000
0000
0000
0010
0000
0000
0000
0000
0000
0100
0000
0000
0001
0000
0000
1000
0000
0000
0010
0000
1000
0000
0001
0000
,
0010
0100
1000
0010
0100
0001
0010
1000
0010
0001
0100
1000
,
0100
0000
0001
0000
0010
0000
0100
0000
1000
0000
0100
0000
0010
0000
0001
0000
0000
0000
1001
0000
0000
0110
0000
0000
,
1001
0110
0000
0010
0010
1000
1000
0001
,
0001
1010
0000
0100
0100
0010
0010
1000
,
1000
0101
0000
0001
0001
0010
0010
1000
,
1000
1010
0000
0010
0010
0001
0001
0100
,
0100
1001
0000
1001
1000
1010
0010
0110
,
0100
0002
0000
1003
0010
0001
0010
1000
,
0100
0010
0000
0011
0010
0110
0100
1100
,
1000
0200
0000
0310
1000
0010
0001
0100
,
1000
0100
0000
0010
1000
0001
1000
0002
,
0100
0203
0000
0310
0100
1000
0100
0020
,
1000
2030
0000
3001
0010
0100
0010
0002
,
0100
0203
0000
0301
1000
0010
0100
0001
,
0010
0100
0000
1000
0001
0100
0010
0001
,
1000
0100
0000
0001
1000
0001
0010
1000
,
0010
0001
0000
1000
0001
0100
0010
1000
,
0100
0000
0010
0000
0000
0000
0001
0000
1000
0000
0010
0100
0001
0000
0010
0000
,
0100
0000
1000
0000
0001
0000
0100
0000
1000
0000
0001
0010
0100
0000
0001
0000
,
1000
0001
0100
1000
0100
0001
1000
0010
,
0001
0000
0010
0000
1000
0000
0001
0000
0100
0000
0010
0000
1000
0010
1000
0010
,
1000
0000
0000
0010
0000
0000
1000
0000
0000
0010
0000
0000
1000
0000
0000
0000
0010
0000
0000
0000
0100
0000
0000
0000
0001
0000
0000
0000
1000
0000
0000
0000
0010
0000
0000
0000
0100
0000
0000
0000
0000
0000
0001
0000
0000
0000
0000
0000
,
1000
0010
0001
1000
0100
0001
0010
0100
,
0010
1000
0010
0001
0100
1000
0100
0001
,
0010
0100
0010
0001
1000
0010
1000
0001
,
0010
0000
1000
0000
0010
0000
0001
0000
1000
0000
0100
0000
0010
0001
0010
0000
,
0100
1000
0100
0000
0010
0001
1000
0000
0010
0100
0001
0000
1000
0010
0100
0000
,
0001
0010
0100
0000
0010
0100
1000
0000
0010
0100
0001
0000
1000
0010
0000
0100
,
0000
0010
0100
0000
0001
0000
0010
0000
0100
1000
0100
0000
0010
0001
0000
1000
,
0000
0001
0100
0000
1000
0000
0100
0000
0001
1000
0001
0000
0100
0010
0000
1000
,
0000
0001
0100
0000
0001
0000
0010
0000
0100
1000
0100
0000
0010
0001
0000
1000
,
0000
0010
0000
0100
0000
1000
0100
0000
0010
0100
0010
0000
1000
0001
0000
0010
,
0000
0100
1000
0000
0100
0000
0001
0000
0100
1000
0100
0000
0010
0001
0000
1000
,
0000
0010
0100
0000
0001
0000
1000
0000
0100
0001
0100
0000
1000
0010
0000
0100
,
0000
0001
0000
1000
0000
0001
0010
0000
0100
1000
0100
0000
0010
0001
0000
1000
,
0000
0001
0100
0010
1000
0010
1000
0010
1000
0001
0100
0000
0001
0010
0000
0100
,
0000
1000
0001
0000
0010
0000
0100
0000
0010
0001
0010
0000
0100
1000
0000
0001
,
0000
0100
0010
0000
1000
0000
0001
0000
0010
0001
0010
0000
0100
1000
0000
0100
,
0000
0010
0001
0000
0010
0000
1000
0000
0010
0100
0010
0000
0001
1000
0000
0010
,
0000
0100
0000
0001
0000
1000
0010
0000
0001
0010
0001
0000
0010
1000
0000
0001
,
0000
0100
0010
0000
1000
0000
0100
0000
0010
0001
0010
0000
0100
1000
0000
0100
,
0000
0010
0001
0000
0010
0000
0100
0000
1000
0100
1000
0000
0001
0100
0000
0010
,
0000
1000
0000
0001
0000
0010
0100
0000
1000
0001
1000
0000
0100
0010
0000
0001
,
0000
1000
0100
0010
0100
0010
0100
0010
0100
1000
0001
0000
1000
0000
0100
0000
,
0010
0001
1000
0010
0001
1000
0100
0001
,
1000
0001
0100
1000
0100
0001
0001
0100
,
1000
0000
0100
0000
0001
0000
1000
0000
0100
0000
1000
0000
0010
0100
0010
0100
,
0010
0000
0000
0100
0000
0000
0010
0000
0000
0100
0000
0000
0010
0000
0000
0000
1000
0000
0000
0000
0001
0000
0000
0000
0010
0000
0000
0000
0100
0000
0000
0000
1000
0000
0000
0000
0010
0000
0000
0000
0000
0000
0100
0000
0000
0000
0000
0000
,
0001
0100
1000
0001
0010
1000
0100
0010
,
0100
0001
0100
1000
0010
0001
0010
1000
,
0100
0010
0100
1000
0001
0100
0001
1000
,
0100
0000
0001
0000
0100
0000
1000
0000
0001
0000
0010
0000
0100
1000
0100
0000
,
0010
0001
0010
0000
0100
1000
0001
0000
0100
0010
1000
0000
0001
0100
0010
0000
,
1000
0100
0010
0000
0100
0010
0001
0000
0100
0010
1000
0000
0001
0000
0100
0000
,
0010
1000
0000
0010
0100
0001
0010
0100
,
1000
0100
0000
0010
0001
0010
1001
1001
,
0100
0010
0000
0010
1000
0001
0010
0100
,
1000
0100
0000
0010
0001
0010
1001
0100
,
0001
0100
0000
0010
0100
0001
0010
0100
,
1000
0100
0000
0010
0001
0010
1001
1001
,
0100
0010
0000
0010
1000
0001
0010
0100
,
1000
0100
0000
0010
0001
0010
1000
0010
,
0001
1000
0000
0010
0100
1000
0001
0010
,
0100
0020
0000
1030
0010
0001
1000
0100
,
0001
0020
0000
0130
1000
0001
0010
0001
,
1000
0200
0000
0310
0001
1000
0010
0001
,
0010
2000
0000
3001
0100
0010
0100
1000
,
0100
0020
0000
1030
0001
0010
0001
0100
,
0001
0020
0000
0130
1000
0100
0010
0001
,
0010
0200
0000
1300
0001
0010
0001
0100
,
1000
0200
0000
0310
1000
0001
0010
0001
,
0100
0120
0000
1030
0001
0100
0101
0101
,
1010
2010
0000
3100
0001
0100
0010
0001
,
1000
1020
0000
1030
0001
0010
0110
0110
,
1100
1200
0000
0310
0100
0010
1000
0010
,
0001
1002
0000
1003
0001
1000
1010
1010
,
0101
0201
0000
0301
0010
0100
0010
0001
,
1000
0000
0000
0010
0000
0000
0000
0000
0000
1001
0000
0000
1001
0000
0000
0000
0000
0000
0001
0000
0010
0000
0100
0000
,
1000
0010
0001
0010
1000
0100
0001
0100
1000
0010
0100
0001
,
0010
0001
1000
0100
1000
0010
0100
0001
1000
0000
0000
0000
,
0000
1001
0000
0000
;

//---------------dance-single - Copied from----------------
#NOTES:
     dance-single:
     Copied from:
     Medium:
     12:
     0.594,0.668,0.168,0.184,0.000:
0000
0000
0000
0000
,
0000
0000
0000
0000
,
0000
0000
0000
0000
,
0000
0000
0000
0000
,
0000
0000
0000
0000
,
0000
0000
0000
0000
,
0000
0000
0000
1001
,
0110
1010
0101
0002
,
0000
0000
0000
0000
0000
1003
2000
0000
,
0000
0000
0000
0000
0000
0000
3010
0100
,
0001
1000
0000
0010
0010
0000
1000
0001
,
1000
0010
0000
0100
0100
0000
0001
0010
,
0100
1000
0000
0001
0001
0000
1000
0100
,
1000
0001
0000
0100
0100
0000
0010
0100
,
0001
0010
0000
0100
0100
0000
1000
0100
,
0010
0001
0000
1000
0001
0000
0010
0100
,
1000
0100
0000
0010
0001
0000
1000
0001
,
1000
0010
0000
0100
0010
0000
1010
0000
,
1001
0101
0110
1001
,
0110
0000
1001
0000
0110
0000
0010
0100
,
0010
0010
0000
0100
0010
1000
0001
0000
,
0100
0100
0000
0001
1000
0001
0100
0000
,
0010
0010
0000
1000
0100
0010
0001
0000
,
1000
1000
0000
0001
0010
0001
1000
0000
,
0010
0010
0000
0100
0010
1000
0100
0000
,
0010
0010
0000
0001
0010
0100
1000
0000
,
0001
1000
0000
0100
0010
0001
0010
0000
,
0100
1000
0000
0001
1000
0001
0100
0000
,
0010
0100
0000
0010
0100
0001
1000
0000
,
0010
0010
0000
1000
0001
1000
0010
0000
,
0100
0100
0000
0001
0010
0100
1000
0000
,
0001
0001
0000
1000
0100
1000
0001
0000
,
0100
0100
0000
0010
0100
0001
0010
0000
,
0100
0100
0000
1000
0100
0010
0001
0000
,
1000
0001
0000
0010
0100
1000
0100
0000
,
0010
0001
0000
1000
0001
1000
0020
0000
,
1000
0001
1000
0230
,
0001
0000
0010
0000
0301
1000
0001
0000
,
0110
0000
1010
0000
0101
0000
1000
0001
,
1000
0001
1000
0001
1000
0001
2000
0000
,
0100
0001
0100
3020
,
0100
0000
1000
0000
0130
0001
0200
0000
,
0010
1000
0001
0320
,
0100
0000
1000
0000
0100
0000
1030
0010
,
0100
0001
1000
0010
0100
0001
1000
0010
,
0100
0001
1000
0010
0100
0001
1000
0000
,
0001
0000
0100
0010
0100
0000
0001
0000
,
0010
0000
0100
1000
0100
0000
0010
0000
,
0001
0000
1000
0100
0001
0000
0100
0000
,
0100
0000
1000
0000
1000
0000
0001
0100
,
0001
0000
0100
0000
0010
0000
1000
0010
,
1000
0000
0001
0000
0100
0000
0001
0010
,
0001
0000
1000
0100
1000
0000
0001
0000
,
1000
0000
0100
0010
0001
0010
0100
0000
,
1000
0000
0010
0100
0010
0000
1000
0000
,
0100
0000
0010
0001
0010
0000
0100
0000
,
1000
0000
0001
0010
1000
0000
0010
0000
,
0010
0000
0001
0000
0001
0000
1000
0010
,
1000
0000
0010
0000
0100
0000
0001
0100
,
0001
0000
1000
0000
0010
0000
1000
0100
,
1000
0000
0001
0010
0001
0000
1000
0000
,
0001
0000
0010
0100
1000
0100
0010
0001
,
0200
1000
0001
0320
,
1000
0000
0100
0000
1030
0001
1000
0000
,
0110
0000
0101
0000
1010
0000
0001
1000
,
0001
1000
0001
1000
0001
1000
0002
0000
,
0010
1000
0010
0203
,
0010
0000
0001
0000
0310
1000
0020
0000
,
0100
0001
1000
0230
,
0010
0000
0001
0000
0010
0000
0301
0100
,
0010
1000
0001
0100
0010
1000
0001
0100
,
0010
1000
0001
0100
0010
1000
0001
0010
,
0100
1000
0000
0001
1000
0000
0010
0000
,
1000
0001
0000
0010
0100
0000
0010
0000
,
0001
0100
0000
0010
1000
0000
0001
0000
,
0100
0010
0000
1000
0001
0000
1001
0000
,
1000
0010
0000
0100
0001
0000
1000
0000
,
0100
0010
0000
0001
0010
0000
0110
0000
,
0100
1000
0000
0001
0010
0000
0100
0000
,
1000
0100
0000
0010
0001
0000
1000
0010
,
0100
0001
0000
0010
0100
0000
1000
0000
,
0010
0100
0001
0010
,
0100
1000
0100
0010
,
0001
0100
1000
0100
,
0001
0010
0100
1000
,
0010
1000
0001
0010
,
0100
0001
0100
1000
,
0010
0000
0001
0000
0010
0000
0100
0010
,
0100
0001
0000
1000
0001
0000
0100
0000
,
0001
1000
0000
0100
0010
0000
0100
0000
,
1000
0010
0000
0100
0001
0000
1000
0000
,
0010
0100
0000
0001
1000
0000
1000
0000
,
0001
0100
0000
0010
1000
0000
0001
0000
,
0010
0100
0000
1000
0100
0000
0100
0000
,
0010
0001
0000
1000
0100
0000
0010
0000
,
0001
0010
0000
0100
2000
0000
3002
0000
,
0023
0230
2300
3020
,
0230
0302
0023
0000
,
0030
1001
0000
0000
;

//---------------dance-single - Copied from Copied f----------------
#NOTES:
     dance-single:
     Copied from Copied f:
     Easy:
     6:
     0.451,0.432,0.048,0.264,0.000:
0000
0000
0000
0000
,
1000
0000
0001
0000
,
1000
0000
0001
0000
,
1000
0000
0001
0000
,
1000
0000
0001
0000
,
1000
0000
0001
0000
,
1000
0000
0001
2000
,
3020
0230
0320
0230
,
0000
0000
0000
0320
,
0000
0000
0000
0000
0000
0030
0100
0100
,
0010
0010
0000
0000
0100
0000
0001
0000
,
0100
0010
0000
0000
0010
0000
1000
0000
,
0010
0100
0000
0000
0100
0000
0001
0000
,
1000
0100
0000
0000
0100
0000
0010
0000
,
0001
0010
0000
0000
0010
0000
0100
0000
,
1000
0100
0000
0000
0100
0000
0010
0000
,
0001
1000
0000
0000
1000
0000
0001
0000
,
0100
0010
0000
0000
0010
0000
0200
0000
,
0000
0000
0000
0302
,
0000
0000
0000
0000
0003
0000
1000
0001
,
1000
0010
0000
0000
0010
0000
0100
0000
,
0001
0010
0000
0000
0010
0000
0100
0000
,
1000
0100
0000
0000
0100
0000
0010
0000
,
0001
1000
0000
0000
1000
0000
0001
0000
,
0010
0100
0000
0000
0100
0000
1000
0000
,
0001
0100
0000
0000
0100
0000
0010
0000
,
1000
0001
0000
0000
0001
0000
0100
0000
,
0010
1000
0000
0000
1000
0000
0001
0000
,
1000
0001
0000
0000
0001
0000
1000
0000
,
0001
1000
0000
0000
1000
0000
0010
0000
,
1000
0100
0000
0000
0100
0000
0010
0000
,
0100
0010
0000
0000
0010
0000
0001
0000
,
0010
0100
0000
0000
0100
0000
1000
0000
,
0001
0010
0000
0000
0010
0000
0100
0000
,
1000
0100
0000
0000
0100
0000
0010
0000
,
0001
1000
0000
1000
0001
0000
0002
0000
,
0100
0100
0100
2003
,
0010
0000
0010
0000
3010
0100
0010
0000
,
0010
0010
1010
1000
,
1000
1000
1000
2000
,
0100
0100
0100
3002
,
1000
0000
1000
0000
1003
0010
0200
0000
,
0010
0010
0010
0320
,
1000
0000
1000
0000
1000
0000
1030
0001
,
1000
0000
0010
0000
0100
0000
0010
1000
,
0010
1000
0100
1000
,
1000
0002
0003
1000
,
0010
0200
0300
0010
,
0100
0002
0003
1000
,
0010
1000
0010
0100
,
0100
0002
0003
0010
,
0100
2000
3000
0100
,
0010
0002
0003
1000
,
0010
0100
0001
1000
,
1000
0002
0003
1000
,
0010
0200
0300
0010
,
0100
0002
0003
1000
,
0010
1000
0010
0100
,
0100
0002
0003
0010
,
0100
2000
3000
0100
,
0010
0002
0003
1000
,
1000
0010
0010
2000
,
0010
0010
0010
3002
,
0100
0000
0100
0000
0103
0010
0100
0000
,
0100
0100
0101
0001
,
0001
0001
0001
0002
,
0010
0010
0010
2003
,
0001
0000
0001
0000
3001
0100
0020
0000
,
0100
0100
0100
0230
,
0001
0000
0001
0000
0001
0000
0301
1000
,
0001
0000
0100
0000
0010
0000
0100
0001
,
0100
0001
1000
0010
,
0100
0000
1000
0010
,
1000
0000
0001
0100
,
0001
0000
1000
0010
,
0100
0000
0100
0110
,
0010
0000
0100
0001
,
0100
0000
0010
1010
,
1000
0000
0001
0010
,
1000
0000
0001
0100
,
1000
0010
0000
0000
0100
0000
0010
0000
,
0100
0010
1000
0100
,
0010
0001
0010
0100
,
1000
0010
0001
0010
,
1000
0100
0010
0001
,
0100
0001
1000
0100
,
0010
1000
0010
0001
,
0100
1000
0100
0010
,
0010
0100
0000
0000
0100
0000
0001
0000
,
0100
0010
0000
0000
0010
0000
1000
0000
,
0010
0100
0000
0000
0100
0000
0001
0000
,
1000
0100
0000
0000
0100
0000
0010
0000
,
0001
0010
0000
0000
0010
0000
0100
0000
,
1000
0100
0000
0000
0100
0000
0010
0000
,
0001
1000
0000
0000
1000
0000
0001
0000
,
0100
0010
0000
0000
2001
0000
0001
0000
,
0001
0001
0001
0001
,
0001
0001
3001
0000
,
0000
1001
0000
0000
;

//---------------dance-single - Copied from Copied f----------------
#NOTES:
     dance-single:
     Copied from Copied f:
     Beginner:
     3:
     0.273,0.353,0.008,0.256,0.000: // measure 1
0000
0000
0000
0000
,  // measure 2
0000
0000
0000
0000
,  // measure 3
0000
0000
0000
0000
,  // measure 4
0000
0000
0000
0000
,  // measure 5
0000
0000
0000
0000
,  // measure 6
0000
0000
0000
0000
,  // measure 7
0000
0000
0000
2000
,  // measure 8
0000
3002
0000
2003
,  // measure 9
0000
0000
0000
3002
,  // measure 10
0000
0000
0000
1003
,  // measure 11
1000
0000
0001
0000
,  // measure 12
0010
0000
0100
0000
,  // measure 13
1000
0000
0100
0000
,  // measure 14
0001
0000
0010
0000
,  // measure 15
0100
0000
1000
0000
,  // measure 16
0001
0000
0010
0000
,  // measure 17
0100
0000
1000
0000
,  // measure 18
0100
0000
0100
0020
,  // measure 19
0000
0000
0000
0032
,  // measure 20
0000
0000
0003
1000
,  // measure 21
0001
0000
0010
0000
,  // measure 22
0001
0000
0010
0000
,  // measure 23
1000
0000
0010
0000
,  // measure 24
0001
0000
1000
0000
,  // measure 25
0010
0000
0100
0000
,  // measure 26
0001
0000
0100
0000
,  // measure 27
1000
0000
0100
0000
,  // measure 28
0001
0000
1000
0000
,  // measure 29
0100
0000
0010
0000
,  // measure 30
0001
0000
0010
0000
,  // measure 31
0100
0000
1000
0000
,  // measure 32
0100
0000
0010
0000
,  // measure 33
0001
0000
1000
0000
,  // measure 34
0010
0000
0100
0000
,  // measure 35
0001
0000
0010
0000
,  // measure 36
0100
0000
0000
1000
1000
0000
0020
0000
,  // measure 37
0000
0000
0000
2030
,  // measure 38
0000
0000
0000
0000
3001
0100
0002
0000
,  // measure 39
0000
0000
0000
0103
,  // measure 40
0100
0100
0100
0020
,  // measure 41
0000
0000
0000
2030
,  // measure 42
0000
0000
0000
0000
3010
1000
0020
0000
,  // measure 43
0000
0000
0000
0230
,  // measure 44
0000
0000
0000
0301
,  // measure 45
1000
0001
0100
0001
,  // measure 46
0010
0100
1000
1000
,  // measure 47
0000
0010
0000
2000
,  // measure 48
3000
0100
0000
0020
,  // measure 49
0030
0001
0000
1000
,  // measure 50
1000
0001
0001
0200
,  // measure 51
0300
0001
0000
0020
,  // measure 52
0030
0100
0000
2000
,  // measure 53
3000
0100
0000
0010
,  // measure 54
0010
0001
0001
2000
,  // measure 55
3000
0001
0000
0200
,  // measure 56
0300
0010
0000
2000
,  // measure 57
3000
0001
0000
1000
,  // measure 58
1000
0010
0010
0200
,  // measure 59
0300
0001
0000
0020
,  // measure 60
0030
1000
0000
0020
,  // measure 61
0030
0001
0000
1000
,  // measure 62
1000
0010
0010
2000
,  // measure 63
0000
0000
0000
3002
,  // measure 64
0000
0000
0000
0000
0103
0010
0200
0000
,  // measure 65
0000
0000
0000
0310
,  // measure 66
0010
0010
0010
0200
,  // measure 67
0000
0000
0000
0302
,  // measure 68
0000
0000
0000
0000
1003
0010
2000
0000
,  // measure 69
0000
0000
0000
3020
,  // measure 70
0000
0000
0000
0130
,  // measure 71
0001
0100
0010
1000
,  // measure 72
0010
0001
1000
0010
,  // measure 73
1000
0000
0001
0000
,  // measure 74
0010
0000
0100
0000
,  // measure 75
1000
0000
0100
0000
,  // measure 76
0001
0000
0010
0000
,  // measure 77
0100
0000
1000
0000
,  // measure 78
0001
0000
0010
0000
,  // measure 79
0100
0000
1000
0000
,  // measure 80
0100
0000
0100
0000
,  // measure 81
0010
0000
0001
0000
,  // measure 82
1000
0000
1000
0000
,  // measure 83
0010
0010
0010
1000
,  // measure 84
1000
1000
0100
0100
,  // measure 85
0100
0010
0010
0010
,  // measure 86
0001
0001
0001
1000
,  // measure 87
1000
1000
0001
0001
,  // measure 88
0001
0010
0010
0001
,  // measure 89
0001
0000
1000
0000
,  // measure 90
0100
0000
0010
0000
,  // measure 91
0001
0000
0010
0000
,  // measure 92
1000
0000
0100
0000
,  // measure 93
0010
0000
0001
0000
,  // measure 94
1000
0000
0100
0000
,  // measure 95
0010
0000
0001
0000
,  // measure 96
0010
0000
0000
0100
0200
0000
0000
0000
,  // measure 97
0000
0000
0000
0000
,  // measure 98
0000
0000
0300
0000
,  // measure 99
0000
1001
0000
0000
;
