#TITLE:Rebellion;
#SUBTITLE:;
#ARTIST:NAOKI underground;
#TITLETRANSLIT:;
#SUBTITLETRANSLIT:;
#ARTISTTRANSLIT:;
#GENRE:;
#CREDIT:;
#BANNER:;
#BACKGROUND:;
#LYRICSPATH:;
#CDTITLE:;
#MUSIC:Rebellion.mp3;
#OFFSET:-0.080000;
#SAMPLESTART:76.879936;
#SAMPLELENGTH:12.000000;
#SELECTABLE:YES;
#BPMS:0.000000=150.000000
;
#STOPS:
;
#BGCHANGES:;
#KEYSOUNDS:;
#ATTACKS:;

//---------------dance-single - ----------------
#NOTES:
     dance-single:
     :
     Hard:
     15:
     0.715551,0.741643,0.304406,0.166039,0.650321,492.000000,33.000000,18.000000,0.000000,0.000000,0.000000,0.715551,0.741643,0.304406,0.166039,0.650321,492.000000,33.000000,18.000000,0.000000,0.000000,0.000000:
0000
0000
0000
0000
,
0000
0000
0000
0000
,
0000
0000
0000
0000
,
0000
0000
0000
0000
,
1000
0010
0001
0010
1000
0000
0001
0010
,
1000
0010
0001
0000
0000
0000
0000
0000
,
1000
0010
0100
1000
0001
0000
0010
1000
,
0100
0010
1000
0000
0000
0000
0000
0000
,
0010
0001
1000
0010
0100
0000
0010
0100
,
1000
0000
0100
0000
0001
0000
0000
0000
0000
0000
0100
0000
0000
0100
0000
0000
,
0100
0001
1000
0001
0010
0000
0100
1000
,
0100
0000
0010
0000
0001
0000
0000
0000
0000
0000
0100
0010
0000
0010
1000
0000
,
0001
0100
0010
1000
1000
0000
0010
0100
,
0001
0000
0010
0000
0010
0000
0000
0000
0000
0000
0100
0000
0000
0100
0000
0000
,
0100
1000
0100
0001
0001
0000
0100
1000
,
0010
0000
0000
0001
0000
0000
0001
0000
0000
0010
1000
0010
0000
0000
0000
0000
0000
0000
0000
0000
0000
0000
0000
0000
,
0001
1000
0001
0000
0100
0010
0000
0000
0100
0010
0100
0000
0001
1000
0001
1000
,
0100
0000
0000
0010
0100
0010
0100
0000
1000
0001
1000
0000
0001
0010
0100
1000
,
0100
0000
0000
1000
0010
1000
0100
0000
0010
0001
0010
0000
0100
1000
0100
0000
,
0010
0100
1000
0010
0100
1000
0100
0010
,
1000
0001
1000
0000
0010
0100
0000
0000
0010
0100
0010
0000
1000
0001
1000
0001
,
0010
0000
0000
0100
0010
0100
0010
0000
0001
1000
0001
0000
0100
0010
0100
0010
,
1000
0000
0000
0001
0100
0001
0010
0000
0100
1000
0100
0000
0010
0001
0010
0000
,
0100
0010
0001
0100
0010
0001
0010
0100
,
0001
1000
0010
0100
1000
0100
0001
0010
,
0000
0011
0000
1001
0000
1100
0100
0010
,
0000
0001
0010
0100
1000
0010
0001
0010
,
0000
1010
0000
0101
0000
1010
1000
0010
,
0100
0001
0100
0010
0001
0010
1000
0100
,
0000
1100
0000
1001
0000
0011
0010
0100
,
0000
1000
0100
0010
0001
0100
1000
0100
,
0000
0000
0101
0000
0000
0000
1010
0000
0000
0000
0101
0000
0100
0010
0100
0010
,
1000
0000
0010
0100
0000
0000
0001
1000
0001
0000
1000
0100
0000
0000
0010
0100
,
0010
0000
0001
0100
0000
0000
0010
1000
0010
0000
0100
0001
0000
0000
1000
0100
,
0010
0000
0010
0001
0000
0000
0001
1000
0010
0000
0010
0100
0000
0000
0010
0100
,
1000
0000
1000
0100
0000
0000
0001
0010
0100
0000
0100
0010
0000
0000
0001
0010
,
0100
0000
0100
1000
0000
0000
1000
0001
1000
0000
0001
0010
0000
0000
0100
0010
,
0100
0000
1000
0010
0000
0000
0100
0001
0100
0000
0010
1000
0000
0000
0001
0010
,
0100
0000
0100
1000
0000
0000
1000
0001
0100
0000
0100
0010
0000
0000
0100
0010
,
0001
0000
0001
0010
0000
0000
1000
0100
0010
0000
0010
0100
0000
0000
1000
0100
,
0020
0000
0000
0001
0000
0031
0000
1000
0010
2000
0000
0100
0000
3100
0000
0010
,
0001
0020
0000
0100
0000
0130
0000
1000
0001
2000
0000
0100
0000
3100
0000
0010
,
0001
0200
0000
0010
0000
1300
0000
0100
0001
0020
0000
0001
0000
0130
0000
1000
,
0001
0200
0000
0010
0000
0301
0000
0010
0100
2000
0000
0001
0000
3100
0000
0001
,
0100
0002
0000
0010
0000
0013
0000
0100
1000
0200
0000
0010
0000
0310
0000
0001
,
1000
0002
0000
0010
0000
0013
0000
0100
1000
0020
0000
0100
0000
0031
0000
0010
,
1000
0200
0000
1000
0000
0310
0000
0001
1000
0020
0000
0100
0000
1030
0000
0100
,
0010
0002
0000
1000
0000
1003
0000
0010
0100
0010
0000
1001
0000
1001
0000
0000
,
0110
0010
1000
0010
0100
0000
0110
0100
,
0010
1000
0001
0000
0100
0000
0001
0000
,
1100
0100
0010
0001
0100
0000
1100
0100
,
0001
0010
0100
0000
1000
0000
0100
0000
,
0101
0100
1000
0010
0001
0000
0110
0010
,
1000
0000
0100
0000
1000
0000
0000
0000
0010
1000
0010
0000
0100
0001
0100
0000
,
1010
1000
0010
0100
0101
0000
0001
0001
,
1000
0000
0010
0000
0100
0000
0010
0100
0010
0000
1000
0001
0100
0000
0100
0000
,
0001
0100
1000
0100
0001
0000
1000
0100
,
0001
0100
1000
0000
0010
0000
0100
0000
,
0001
0100
0010
0001
1000
0000
0100
0001
,
0010
0100
0001
0000
0100
0000
1000
0000
,
0100
1000
0001
0100
0010
0000
0100
0010
,
0001
0010
1000
0000
0010
0000
0100
0000
,
0101
0010
0100
0100
1010
0000
0010
1000
,
0001
0010
0100
1000
0100
0010
0001
0010
0100
1000
0100
0010
0001
1000
0001
0000
,
1001
1010
0110
0101
1020
0000
0130
0110
,
0101
1100
0022
0000
0000
0000
0000
0000
,
0000
0000
0000
0000
,
0033
0000
0000
0000
;

//---------------dance-single - ----------------
#NOTES:
     dance-single:
     :
     Medium:
     11:
     0.495483,0.556232,0.184488,0.147591,0.230610,340.000000,20.000000,16.000000,0.000000,0.000000,0.000000,0.495483,0.556232,0.184488,0.147591,0.230610,340.000000,20.000000,16.000000,0.000000,0.000000,0.000000:
0000
0000
0000
0000
,
0000
0000
0000
0000
,
0000
0000
0000
0000
,
0000
0000
0000
0000
,
0000
0000
0000
0000
,
0000
0000
0000
0000
,
0000
0000
0000
0000
,
0000
0000
0000
0000
,
1000
0001
1000
0001
0100
0000
0010
0100
,
0010
0100
0001
0000
0000
0000
0000
0000
,
0100
0001
0100
0001
0010
0000
0100
1000
,
0100
1000
0010
0000
0000
0000
0000
0000
,
0010
0100
0010
0100
0001
0000
1000
0001
,
1000
0001
0100
0000
0000
0000
0000
0000
,
0100
0010
0100
0010
0010
0000
1000
0001
,
1000
0100
0100
0000
0000
0000
0000
0000
,
0001
1000
0100
0000
0010
0000
1001
0000
,
0100
0010
0100
0000
0001
0000
1010
0000
,
0100
0001
0010
0000
0100
0000
1100
0000
,
0010
0001
1000
0001
0010
0001
1000
0000
,
1000
0010
0100
0000
0010
0000
1001
0000
,
0100
0010
0100
0000
0001
0000
0101
0000
,
0010
1000
0010
0000
0100
0000
0101
0000
,
1000
0010
1000
0001
1000
0010
1000
0000
,
0001
0100
0001
0100
0001
0100
0010
0200
,
0000
0320
0000
1030
0000
0100
0100
0010
,
0000
0001
0100
0001
0100
0001
0100
0020
,
0000
2030
0000
3001
0000
0100
0100
0010
,
0000
0010
1000
0010
1000
0010
0100
0020
,
0000
0230
0000
0301
0000
0010
0010
0100
,
0000
1000
0010
1000
0010
1000
0010
0200
,
0000
0000
0302
0000
0000
0000
1003
0000
0000
0000
0100
0000
0010
0001
0010
0001
,
0010
0000
0000
0100
0000
0000
1000
0000
0001
0000
0000
0100
0000
0000
0010
0000
,
1000
0000
0000
0001
0000
0000
0100
0000
0010
0000
0000
1000
0000
0000
0001
0000
,
0100
0000
0000
0001
0000
0000
1000
0000
0010
0000
0000
0100
0000
0000
0001
0000
,
1000
0000
0000
0100
0000
0000
0010
0000
0001
0000
0000
1000
0000
0000
0001
0000
,
0010
0000
0000
0010
0000
0000
0001
0000
1000
0000
0000
0010
0000
0000
0100
0000
,
0001
0000
0000
1000
0000
0000
0010
0000
0100
0000
0000
0001
0000
0000
1000
0000
,
0010
0000
0000
1000
0000
0000
0001
0000
0100
0000
0000
0010
0000
0000
1000
0000
,
0001
0000
0000
0010
0000
0000
0100
0000
1000
0000
0000
0001
0000
0000
1000
0000
,
0010
0000
0000
1000
0000
0010
0000
0000
0100
0000
0000
0001
0000
1000
0000
0000
,
0001
0000
0000
0010
0000
0100
0000
0000
1000
0000
0000
0100
0000
0010
0000
0000
,
0001
0000
0000
1000
0000
0010
0000
0000
0100
0000
0000
0001
0000
0010
0000
0000
,
0100
0000
0000
1000
0000
0010
0000
0000
0100
0000
0000
0001
0000
1000
0000
0000
,
1000
0000
0000
0001
0000
0100
0000
0000
0010
0000
0000
1000
0000
0001
0000
0000
,
1000
0000
0000
0100
0000
0010
0000
0000
0001
0000
0000
0010
0000
0100
0000
0000
,
1000
0000
0000
0001
0000
0100
0000
0000
0010
0000
0000
1000
0000
0100
0000
0000
,
0010
0000
0000
0001
0000
0100
0000
0000
0010
0000
0000
1000
0000
0001
0000
0000
,
0100
0010
0100
0010
1000
0000
0001
0100
,
0001
0100
0010
0000
0110
0000
1001
0000
,
0001
1000
0001
1000
0100
0000
0010
0001
,
0010
0001
0100
0000
1010
0000
0101
0000
,
0001
1000
0010
1000
0001
0000
0100
0001
,
0100
0010
0100
0000
1010
0000
0101
0000
,
0010
1000
0010
0100
0010
0000
0100
0010
,
0100
0001
0200
0000
0320
0000
2030
0000
,
3001
0010
0100
1000
0001
0000
1000
0010
,
0100
0001
1000
0000
0101
0000
1010
0000
,
0001
0100
0010
0100
0001
0000
1000
0010
,
0100
0010
1000
0000
0101
0000
1010
0000
,
0100
1000
0001
0010
0001
0000
1000
0100
,
1000
0001
0100
0000
0110
0000
1010
0000
,
0010
0010
0100
0100
2002
3003
0010
0100
,
0001
0001
0100
0100
0010
0010
1000
1000
,
0001
0100
0010
1000
0020
0000
0130
0001
,
1000
0100
2002
0000
0000
0000
0000
0000
,
0000
0000
0000
0000
,
3003
0000
0000
0000
;

//---------------dance-single - ----------------
#NOTES:
     dance-single:
     :
     Easy:
     6:
     0.355799,0.494428,0.119917,0.322854,0.073795,222.000000,13.000000,35.000000,0.000000,0.000000,0.000000,0.355799,0.494428,0.119917,0.322854,0.073795,222.000000,13.000000,35.000000,0.000000,0.000000,0.000000:
0000
0000
0000
0000
,
0000
0000
0000
0000
,
0000
0000
0000
0000
,
0000
0000
0000
0000
,
0000
0000
0000
0000
,
0000
0000
0000
0000
,
0000
0000
0000
0000
,
0000
0000
0000
0000
,
0100
0000
0000
0001
1000
0000
0010
0000
,
0000
1000
0001
0000
0000
0000
0000
0000
,
0010
0000
0000
1000
0001
0000
0100
0000
,
0000
0010
0100
0000
0000
0000
0000
0000
,
0010
0000
0000
0100
0010
0000
1000
0000
,
0000
0001
0100
0000
0000
0000
0000
0000
,
0010
0000
0100
0010
0010
0000
0100
0000
,
0001
1000
1000
0000
0000
0000
0000
0000
,
0001
0100
0010
0110
,
0100
0010
1000
1001
,
0100
0001
0100
0110
,
0002
2003
3020
0230
,
0310
0100
0010
0110
,
0010
1000
0001
1001
,
1000
0010
0100
0110
,
0020
2030
3020
0230
,
0302
0000
2003
0000
,
3020
0000
2030
0000
,
3002
0000
0203
0000
,
0302
0000
0023
0000
,
0130
0100
0100
0010
,
0010
0000
0010
0000
0000
0001
0001
0001
,
0000
1000
1000
1000
,
0010
0010
0010
0002
,
1003
0000
0000
1000
0001
0000
0000
0001
,
1000
0000
0000
1000
0010
0000
0000
0010
,
0100
0000
0000
0100
0010
0000
0000
0010
,
1000
0000
0000
1000
0100
0000
0000
0100
,
0010
0000
0000
0010
0001
0000
0000
0001
,
0100
0000
0000
0100
0010
0000
0000
0010
,
1000
0000
0000
1000
0100
0000
0000
0100
,
0010
0000
0000
0010
0001
0000
0000
0001
,
1000
0000
0000
1000
0000
0000
0000
0000
0010
0000
0000
0010
0000
0000
0000
0000
,
0100
0000
0000
0100
0000
0000
0000
0000
0001
0000
0000
0001
0000
0000
0000
0000
,
1000
0000
0000
1000
0000
0000
0000
0000
0100
0000
0000
0100
0000
0000
0000
0000
,
0010
0000
0000
0010
0000
0000
0000
0000
0001
0000
0000
0001
0000
0000
0000
0000
,
1000
0000
0000
1000
0000
0000
0000
0000
0010
0000
0000
0010
0000
0000
0000
0000
,
0100
0000
0000
0100
0000
0000
0000
0000
0001
0000
0000
0001
0000
0000
0000
0000
,
1000
0000
0000
1000
0000
0000
0000
0000
0100
0000
0000
0100
0000
0000
0000
0000
,
0010
0000
0000
0010
0000
0000
0000
0000
0001
0000
0000
0001
0000
0000
0000
0000
,
0100
0100
0100
0010
,
0010
0010
1001
1001
,
0100
0100
0100
0010
,
0010
0010
0110
0110
,
1000
1000
1000
0001
,
0001
0001
1010
1010
,
0010
0010
0010
0100
,
0100
0200
0302
2003
,
3001
0000
0000
0001
1000
0000
0010
0000
,
0000
0010
1000
0000
0020
0000
2030
0000
,
3001
0000
0000
0001
1000
0000
0010
0000
,
0000
0010
1000
0000
0002
0000
2003
0000
,
3010
0000
0000
0010
0100
0000
0001
0000
,
0000
0001
1000
0000
0020
0000
2030
0000
,
3001
0001
0001
0001
0002
0000
0203
0000
,
0320
2030
3020
0230
,
0310
0010
0010
0010
0020
0000
0130
0100
,
0100
0100
2002
0000
0000
0000
0000
0000
,
0000
0000
0000
0000
,
3003
0000
0000
0000
;

//---------------dance-single - ----------------
#NOTES:
     dance-single:
     :
     Beginner:
     3:
     0.221386,0.278116,0.064571,0.285957,0.000000,130.000000,7.000000,31.000000,0.000000,0.000000,0.000000,0.221386,0.278116,0.064571,0.285957,0.000000,130.000000,7.000000,31.000000,0.000000,0.000000,0.000000:
// measure 0
0000
0000
0000
0000
,  // measure 1
0000
0000
0000
0000
,  // measure 2
0000
0000
0000
0000
,  // measure 3
0000
0000
0000
0000
,  // measure 4
0000
0000
0000
0000
,  // measure 5
0000
0000
0000
0000
,  // measure 6
0000
0000
0000
0000
,  // measure 7
0000
0000
0000
0000
,  // measure 8
0010
0000
0001
0100
,  // measure 9
0000
1000
0000
0000
,  // measure 10
0100
0000
1000
0010
,  // measure 11
0000
0010
0000
0000
,  // measure 12
0100
0000
0100
0001
,  // measure 13
0000
0010
0000
0000
,  // measure 14
0100
0010
0100
0010
,  // measure 15
1000
0001
0000
0000
,  // measure 16
1000
0000
0100
0010
,  // measure 17
0100
0100
0000
0100
,  // measure 18
0010
0100
0000
0010
,  // measure 19
2000
0000
3020
0000
,  // measure 20
0130
0000
0100
0010
,  // measure 21
0100
0000
1000
0001
,  // measure 22
1000
0010
0000
0100
,  // measure 23
0020
0000
0230
0000
,  // measure 24
2300
0000
3002
0000
,  // measure 25
0203
0000
0302
0000
,  // measure 26
2003
0000
3020
0000
,  // measure 27
2030
0000
3200
0000
,  // measure 28
0320
0000
0230
0000
,  // measure 29
2300
0000
3002
0000
,  // measure 30
0203
0000
0302
0000
,  // measure 31
2003
0000
3020
0000
,  // measure 32
0030
0000
1000
0000
,  // measure 33
0001
0000
0100
0000
,  // measure 34
0010
0000
0100
0000
,  // measure 35
0001
0000
0010
0000
,  // measure 36
0100
0000
1000
0000
,  // measure 37
0010
0000
0100
0000
,  // measure 38
0001
0000
0010
0000
,  // measure 39
0100
0000
1000
0000
,  // measure 40
0001
0000
0100
0000
,  // measure 41
0010
0000
1000
0000
,  // measure 42
0001
0000
0010
0000
,  // measure 43
0100
0000
1000
0000
,  // measure 44
0001
0000
0100
0000
,  // measure 45
0010
0000
1000
0000
,  // measure 46
0001
0000
0010
0000
,  // measure 47
0100
0000
1000
0000
,  // measure 48
0010
0000
0010
0000
,  // measure 49
0100
0000
2000
3001
,  // measure 50
0010
0000
0010
0000
,  // measure 51
0100
0000
0020
0130
,  // measure 52
0001
0000
0001
0000
,  // measure 53
1000
0000
0002
1003
,  // measure 54
0100
0000
0100
0000
,  // measure 55
0010
0020
0000
0230
,  // measure 56
0310
0000
0110
0000
,  // measure 57
0000
1001
0000
0002
,  // measure 58
1003
0000
1001
0000
,  // measure 59
0000
0110
0000
0020
,  // measure 60
0130
0000
0010
0100
,  // measure 61
0000
0010
0010
0000
,  // measure 62
1001
0000
1001
0000
,  // measure 63
0020
0130
0100
0100
,  // measure 64
0010
0000
0020
0030
,  // measure 65
0100
2002
0000
0000
,  // measure 66
0000
0000
0000
0000
,  // measure 67
3003
0000
0000
0000
;
