#VERSION:0.83;
#TITLE:Rampage☆Rag;
#SUBTITLE:;
#ARTIST:かめりあ;
#TITLETRANSLIT:Rampage Rag;
#SUBTITLETRANSLIT:;
#ARTISTTRANSLIT:Kameri a;
#GENRE:;
#ORIGIN:;
#CREDIT:;
#BANNER:;
#BACKGROUND:Rampage Rag.png;
#PREVIEWVID:;
#JACKET:Rampage Rag-jacket.png;
#CDIMAGE:;
#DISCIMAGE:;
#LYRICSPATH:;
#CDTITLE:;
#MUSIC:Rampage Rag.mp3;
#OFFSET:0.420000;
#SAMPLESTART:5.360014;
#SAMPLELENGTH:12.000000;
#SELECTABLE:YES;
#BPMS:0.000=334.050,
219.000=83.512,
223.750=167.025,
255.750=334.050,
400.500=167.025,
426.500=334.050,
537.000=167.025,
545.000=334.050;
#STOPS:78.000=0.200,
205.000=0.200,
301.500=0.180,
346.500=0.200,
347.500=0.200,
504.500=0.180;
#DELAYS:;
#WARPS:;
#TIMESIGNATURES:0.000=4=4;
#TICKCOUNTS:0.000=4;
#COMBOS:0.000=1;
#SPEEDS:0.000=1.000=0.000=0;
#SCROLLS:0.000=1.000;
#FAKES:;
#LABELS:0.000=Song Start;
#BGCHANGES:;
#KEYSOUNDS:;
#ATTACKS:
;

//---------------dance-single - ----------------
#NOTEDATA:;
#CHARTNAME:;
#STEPSTYPE:dance-single;
#DESCRIPTION:;
#CHARTSTYLE:;
#DIFFICULTY:Hard;
#METER:16;
#RADARVALUES:0.847793,1.159406,0.321221,0.321221,0.184702,739.000000,699.000000,40.000000,40.000000,0.000000,0.000000,0.000000,0.000000,0.000000,0.847793,1.159406,0.321221,0.321221,0.184702,739.000000,699.000000,40.000000,40.000000,0.000000,0.000000,0.000000,0.000000,0.000000;
#CREDIT:;
#NOTES:
0000
0000
0000
0000
,
0000
0000
0000
0000
,
0000
0000
0000
0000
,
0000
0000
0000
0000
,
1001
0000
1000
0000
0010
0100
0000
0001
,
0000
0100
0001
1000
0010
0100
0001
0000
,
0021
0000
0230
0000
,
1300
0000
0100
1000
0001
0000
0000
0000
,
0100
0000
0001
0000
1000
0010
0000
1000
,
0000
0001
0100
0001
0010
0000
0100
0000
,
1000
0000
0100
1000
0100
0000
0010
0001
,
0010
0000
0000
0001
1000
0001
0000
0000
0000
0100
0010
0100
,
0000
0000
0001
0000
1000
0010
0000
1000
,
0000
0100
0010
0001
0010
0000
0100
0000
,
1000
0000
0001
1000
0001
0100
0010
1000
,
0010
0100
0001
0010
0001
0000
1000
0000
,
0001
0000
1000
0010
0100
0010
1000
0001
,
0000
1000
0001
1000
0100
0000
0010
0000
,
0110
0000
0000
1100
0000
0000
1001
0000
,
0220
0000
0000
0330
1010
0000
0010
0000
,
0100
0000
0001
1000
0000
0001
0000
1000
,
0010
1000
0100
0000
0010
0000
0012
0000
,
0023
0000
0230
0000
2300
0000
3001
0100
,
0010
0100
0000
0000
0000
0000
0000
0000
0000
0010
0000
0000
,
2000
0000
0000
0000
3002
0000
0000
0000
0203
0000
0000
0000
,
0000
0000
0320
0000
0000
0000
0000
0000
0000
0000
2030
0000
0000
0000
0000
0000
0000
0000
3100
0000
0000
0010
0000
0000
,
0001
0010
0100
1000
0010
0000
1000
0001
,
1000
0010
0100
0001
,
1000
0010
1000
0010
0100
0001
0100
0001
,
1000
0100
1000
0100
0010
0001
0010
0100
,
1000
0001
0010
0100
1000
0010
0100
0001
,
1000
0010
0100
0001
1000
0010
1000
0000
,
0001
1000
0020
0000
,
0130
0000
0001
1000
0100
0000
0010
0001
,
1000
0000
0010
0100
0001
0000
1000
0010
,
0100
0000
0001
1000
0001
0000
1000
0100
,
0010
0001
0010
0100
1000
0100
0010
0001
,
0010
0100
1000
0100
0010
0001
1000
0000
,
0000
0000
0000
0000
,
0002
2000
3003
0110
,
1000
0000
0010
1000
0000
0100
0000
0010
,
0001
1000
0001
0000
0100
0000
0010
0000
,
1000
0001
1000
0010
0100
0010
0100
0000
,
1010
0000
0101
0001
,
1000
0000
0001
1000
0000
0010
0000
0100
,
0010
0100
0001
0000
1000
0000
0010
0000
,
1000
0100
1000
0100
0010
0000
0000
0000
,
0000
0011
0000
0000
0110
0000
1100
0000
,
0010
0000
1000
0001
0100
0000
0001
0000
,
1000
0010
0100
1010
,
0000
1001
0000
0000
0101
0000
0220
0000
,
0000
0330
1001
0000
0010
0000
1000
0000
,
0001
0010
0000
0100
0000
1000
0010
1000
,
0010
0000
0100
0000
0001
1000
0001
1000
,
0010
0100
0010
0100
0001
1000
0002
0000
,
0000
0000
0000
0000
0000
0000
0000
0000
0000
0000
0000
0000
0003
0000
0000
1001
,
0000
0000
0000
0000
0000
0000
0000
0000
0000
0000
0000
0000
0000
0000
0000
1000
0000
0000
0001
0000
0000
0000
0011
0000
,
0000
0000
0000
0000
0000
0000
0100
0110
,
0000
0000
0000
0000
0000
0000
0000
0001
,
1000
0000
0000
0001
0000
0000
1000
0000
0000
0000
0000
0000
0000
0110
0000
0000
0000
0000
1010
0000
0000
0000
1001
0000
,
0000
0000
0000
0000
0000
0000
0000
0000
0000
0000
0000
1001
,
0000
0000
0000
0000
0000
0000
0000
0000
0000
0000
0000
0000
0000
0000
0000
0000
0000
0000
0100
0000
0000
0000
0000
0000
0000
0000
0000
0001
0000
0000
0000
0000
0000
0000
0000
0000
1000
0000
0000
0000
0000
0000
0000
0000
1100
0000
0000
0000
,
1000
0100
0010
0001
0000
0001
0010
0100
1000
0000
0000
0010
1000
0001
1000
0200
,
0000
0000
0000
0320
0000
0000
0000
0032
0000
0000
0000
2000
0000
0000
3003
1001
,
0000
1000
0010
0100
0001
1000
0010
0100
,
0001
0010
0001
0010
0000
0001
0000
1001
,
0000
1000
0100
1000
0100
0010
0100
0010
,
0001
0010
0001
1000
0000
1000
0000
1010
,
0000
0010
0100
0010
0100
0001
1000
0001
,
1000
0100
0010
0001
0010
0100
1000
0002
,
0000
1003
0010
1000
0010
0100
0001
0100
,
0001
1000
0000
0000
0001
0000
0000
1001
,
0000
0001
1000
0100
0000
1000
0000
0010
,
0000
0100
0001
0010
0000
0001
0000
1000
,
0000
0100
0000
0000
0010
0000
0000
0012
,
0000
0000
0000
0103
0000
0010
0000
1000
,
0000
0100
1000
0001
0000
0010
0000
0100
,
0000
1000
0001
0010
0000
0100
0000
1000
,
0000
0010
0100
0001
0000
1000
0000
0010
,
0000
1000
0001
0100
0000
0001
0000
1000
,
0010
0000
1000
0000
0010
0000
0100
0001
,
0000
0100
0001
0000
1000
0010
0000
1000
,
0010
0000
1000
0000
0100
0000
0010
0001
,
0000
0010
0001
0000
0010
0100
0000
1000
,
0000
0010
0000
1000
0000
0010
0100
0000
,
0002
0000
0000
0103
0000
0200
0000
0000
,
0000
0000
0000
0320
0030
0010
0000
1001
,
0000
1000
0000
0001
0100
0000
0001
0000
,
0100
0000
0010
1000
0000
0010
1000
0000
,
0001
0100
0000
0001
0100
0000
0001
0000
,
0010
0000
0100
1000
0000
0100
1000
0000
,
0100
0010
0000
0001
0000
0010
0000
0100
,
0000
1000
0100
0000
1000
0000
0001
0100
,
0000
0002
0000
0000
0000
0000
0000
0103
,
0010
0200
0000
0000
0000
0000
0000
0310
,
1000
0001
0000
0100
0000
0010
0000
1000
,
0000
0100
0000
0010
0000
0001
0000
0010
,
0100
2000
0000
0000
0000
0000
0000
3010
,
0100
0002
0000
0000
0000
0000
0000
1003
,
0010
0100
0000
0010
0000
1000
0000
0001
,
0000
0000
0200
0000
0000
0000
0000
0000
0000
0000
0300
0000
0001
0000
0000
0100
,
0000
0000
1000
0000
0000
0100
0000
0000
0001
0000
0000
0010
0000
0000
1000
0000
,
0000
0020
0000
0000
0000
0000
0000
0000
0000
0000
0000
0000
0031
0000
0000
0010
,
0000
0000
1000
0000
0000
0010
0000
0000
0001
0000
0000
0100
0000
0000
1000
0000
,
0000
0200
0000
0000
0000
0000
0000
0000
0000
0301
1000
0000
0000
0000
0100
0000
,
0010
0001
0010
0100
,
1000
0000
0001
0000
0100
0010
0100
0000
0001
0000
1000
0000
0001
0000
1000
0000
,
0001
0100
0010
0100
0010
1000
0001
1000
,
0001
0100
0010
0100
0010
1000
0100
1000
,
0100
0010
0001
0010
0001
0010
0100
0010
,
0100
1000
0001
1000
0001
0100
0001
0010
,
0001
1000
0010
1000
0001
0100
0010
1000
,
0100
0010
0001
0100
0010
1000
0000
0001
,
0000
0001
0000
1000
0010
0100
0000
0010
,
0000
0200
0000
0000
0000
0310
0000
1000
,
0000
0001
0010
0001
0010
0000
0100
1000
,
0100
0010
0000
0001
0000
1000
0010
0100
,
0001
1000
0001
0010
0100
1000
0000
0010
,
0000
0010
0000
1000
0000
0010
0100
0001
,
0100
0010
1000
0010
0100
0000
0001
0010
,
0100
1000
0000
0001
0000
1000
0000
0100
,
0010
0001
1000
0100
0010
0001
1000
0001
,
0000
0100
0000
0010
0000
0100
0001
0100
,
0010
1000
0000
0100
0000
1000
0001
0100
,
0001
0010
0000
0100
0000
1100
0000
0000
,
1001
0000
0000
0101
0000
0220
0000
0000
,
0330
0101
0000
0010
0000
1000
0010
0100
,
0001
0010
0100
0000
1000
0001
1000
0010
,
0000
1000
0000
1000
0000
0010
0000
0010
,
0000
0000
0100
0000
0100
0000
0001
0010
,
0000
0010
0000
0100
1000
0100
0010
0001
,
0010
0100
1000
0000
0001
1000
0100
0010
,
0000
0001
0000
1000
0000
0010
0000
0100
,
0001
0000
1000
0010
0000
0100
0001
0000
,
1000
0000
0000
0000
0001
0000
0000
0000
0000
0100
0000
0000
0000
0001
0000
0000
,
0000
0010
0000
0000
0000
0100
0000
0000
0000
1000
0000
0000
0000
0001
1000
0001
,
1000
0010
0100
0010
0100
0000
0001
0000
0010
0000
0001
0000
1000
0000
0100
0000
,
1000
0010
0100
0001
0010
0001
1000
0100
,
0000
0010
0000
0001
1000
0010
0100
0001
,
0010
0100
0010
0001
0100
0010
2002
0000
,
0000
0000
0000
0000
,
0000
0000
0000
0000
,
0000
0000
0000
0000
,
0000
0000
0000
0000
,
0000
0000
3003
1001
0000
0000
0000
0000
;

//---------------dance-single - ----------------
#NOTEDATA:;
#CHARTNAME:;
#STEPSTYPE:dance-single;
#DESCRIPTION:;
#CHARTSTYLE:;
#DIFFICULTY:Challenge;
#METER:18;
#RADARVALUES:1.025612,1.623168,0.586228,0.481831,0.485846,894.000000,821.000000,73.000000,60.000000,0.000000,0.000000,0.000000,0.000000,0.000000,1.025612,1.623168,0.586228,0.481831,0.485846,894.000000,821.000000,73.000000,60.000000,0.000000,0.000000,0.000000,0.000000,0.000000;
#CREDIT:;
#NOTES:
0000
0000
0000
0000
,
0000
0000
0000
0000
,
0000
0000
0000
0000
,
0000
0000
0000
0000
,
1001
0000
0100
0000
0001
1000
0000
0010
,
0000
0100
0001
0010
0100
1000
0010
0000
,
2010
0000
3002
0000
,
0013
0000
0100
1000
0001
0000
0000
0000
,
0100
0000
0010
0000
1000
0010
0000
0100
,
0000
0001
0010
0100
1000
0000
0010
0000
,
1000
0000
0010
1000
0001
0000
1000
0010
,
0100
0000
0000
0001
0100
0001
0000
0000
0000
1000
0010
1000
,
0000
0000
0001
0000
0100
0010
0000
0100
,
0000
0010
1000
0001
1000
0000
0010
0000
,
0100
0000
0010
1000
0100
1000
0001
0010
,
1000
0010
0001
0100
0001
0000
1000
0000
,
0010
0000
0100
0010
0001
0010
1000
0001
,
0000
1000
0001
1000
0100
0000
0010
0000
,
0011
0000
0000
0110
0000
0000
1100
0000
,
2002
0000
0000
3003
0110
0000
0010
0000
,
1000
0000
0001
1000
0000
0010
0000
0100
,
0010
1000
0100
0000
0010
0000
0011
0000
,
0101
0000
0011
0000
1001
0000
1000
0001
,
0100
0010
0000
0000
0000
0000
0000
0000
0000
0010
0000
0000
,
1000
0001
0000
0000
0001
0100
0000
0000
0100
0010
0000
0000
,
0010
0000
1000
0000
0000
0000
0000
0000
1000
0000
0010
0000
0000
0000
0000
0000
0010
0000
0100
0000
0000
0001
0000
0000
,
0100
0010
1000
0001
1000
0001
0010
0100
,
0010
0001
0010
0000
0000
0000
0001
1000
0001
0000
0000
0000
,
0100
0010
1000
0001
0010
0001
1000
0100
,
1000
0010
0100
0001
0010
0100
1000
0001
,
0100
0000
0001
0000
0100
0000
0010
0000
0000
1000
0000
0000
0010
0000
1000
0000
0010
0000
0100
0000
0000
0001
0000
0000
,
0100
0000
0001
0000
0100
0000
0010
0000
0000
1000
0000
0000
0100
0000
0000
0010
0000
0000
0001
0000
0000
0000
0000
0000
,
0001
0000
0002
0000
2000
0000
0000
3003
,
1001
0000
1000
0001
0010
0000
0100
1000
,
0001
0000
0100
0010
1000
0000
0001
0100
,
0010
0000
0000
0000
0000
0000
1000
0000
0000
0001
0000
0000
1000
0000
0010
0000
0100
0000
0001
0000
0000
1000
0000
0000
,
0010
1000
0010
0100
0001
0100
0001
0010
,
0100
0010
0100
1000
0001
1000
0001
0000
,
0000
1000
0010
0000
,
0200
0000
0020
0000
0000
0330
0110
0000
,
1000
0000
0001
0100
0000
0001
0000
1000
,
0100
0010
0001
0000
0100
0000
0010
0000
,
1000
0001
0010
0100
1000
0100
0010
0000
,
0001
0100
0000
0000
0000
0000
0010
1000
0000
0001
0000
0000
,
1000
0000
0001
0010
0000
0100
0000
1000
,
0001
0010
0001
0000
0100
0000
0010
0000
,
0100
0000
0000
0001
0000
0000
1000
0000
0000
0001
0000
0000
0100
0000
0010
0000
0100
0000
0010
0000
0000
0000
0000
0000
,
0000
1010
0000
0000
0101
0000
0110
0000
,
0010
0000
0000
0000
0000
0000
1000
0000
0000
0001
0000
0000
1000
0000
0010
0000
0100
0000
0001
0000
0000
0010
0000
0000
,
0001
1000
0100
0000
0010
0000
1001
0000
,
0000
0101
0000
0000
1100
0000
0022
0000
,
0000
0033
0110
0000
0010
0000
0001
0000
,
0010
0100
0000
1000
0000
0001
0100
1000
,
0100
0000
0010
0000
1000
0100
0010
0001
,
0010
0100
0010
0001
1000
0020
0200
0000
,
0000
0000
0000
0000
0000
0000
0000
0000
0000
0000
0000
0000
0330
0000
0000
1001
,
0000
0010
0000
1000
0000
0001
0000
0100
0000
0010
0000
0000
0000
1000
0001
1000
0100
0000
0010
0000
0000
0000
0011
0000
,
0001
0000
0000
1000
0100
0010
0001
0000
0000
1000
0000
0010
0100
0001
0000
0000
0000
0100
0010
0000
0000
0110
0000
0000
,
0010
0000
0000
0000
0000
0000
1000
0000
0000
0000
0001
0000
0000
0000
0000
0000
1000
0000
0010
0000
0000
0000
0100
0000
0001
0000
0000
0000
0000
0000
1000
0000
0000
0000
0100
0000
0000
0000
0010
0000
0000
0000
0001
0000
0000
1000
0000
0000
,
0010
0000
0000
1000
0000
0000
0001
0000
0000
0010
0000
0000
0100
0000
0000
1000
0000
0000
0000
0000
0000
0000
0000
0000
0000
0000
0110
0000
0000
0000
0000
0000
0000
0000
0000
0000
1010
0000
0000
0000
0000
0000
0000
0000
1001
0000
0000
0000
,
0000
0000
0000
0100
0000
0000
0001
0000
0000
1000
0000
0000
0010
0000
0000
0000
0000
0000
0100
0000
0000
0000
0000
0000
0010
0000
0000
0100
0000
0000
0001
0000
0000
1000
0000
0000
0001
0000
0010
0000
0100
0000
1000
0000
0001
0000
0000
0000
,
0100
0000
0000
0010
0000
0000
1000
0000
0000
0001
0000
0000
0100
0000
0000
0001
0000
0000
0010
0000
0000
0000
0000
0000
0000
0000
0000
0100
0000
0000
0000
0000
0000
0000
0000
0000
1000
0000
0000
0000
0000
0000
0000
0000
1100
0000
0000
0000
,
0100
0010
0001
1000
0000
0100
0010
0001
1000
0000
0000
0010
0100
0001
1000
0020
,
0000
0000
0000
2000
0000
0000
0030
0002
0000
0000
3000
0200
0000
0000
0303
1001
,
0000
0100
0010
0100
0001
1000
0100
1000
,
0010
0100
0010
1000
0000
0001
0000
1001
,
0000
0100
0010
1000
0001
0100
0010
1000
,
0100
0010
0001
1000
0000
0101
0000
1010
,
0000
1000
0010
0100
0001
0010
0100
1000
,
0010
0100
0001
1000
0100
0010
0001
1100
,
0000
0001
0010
0100
1000
0010
0100
0010
,
1000
0101
0000
0000
0110
0000
0000
1010
,
0000
0010
1000
0001
0000
0100
0000
1010
,
0000
0100
0001
1000
0000
0100
0000
1000
,
0000
1100
0000
0000
0110
0000
0000
0012
,
0000
0000
0003
1001
0000
0010
0000
0100
,
0000
0001
1000
0001
0000
0100
0000
0001
,
0000
1000
0010
0100
0000
0001
0000
1000
,
0000
0010
0100
0001
1000
0100
0010
0100
,
1000
0010
0100
0010
1000
0002
0000
0203
,
0010
0000
0310
0000
1010
0000
2000
0010
,
0000
3020
0100
0000
0230
0001
0000
0302
,
1000
0000
1003
0000
1100
0000
0200
0010
,
0000
0320
0001
0000
0032
0100
0000
0103
,
0000
0110
0000
1001
0000
0001
0100
0000
,
0020
0000
0000
2030
0000
0002
0000
0000
,
0000
0000
3000
0203
0000
0020
0330
0110
,
0000
2000
0000
3020
0100
0000
0130
0000
,
0101
0000
0002
0100
0000
0203
0010
0000
,
0320
1000
0000
2030
0001
0000
3001
0000
,
0011
0000
0020
0100
0000
0230
1000
0000
,
2300
0000
0000
0010
0000
0000
0000
0000
0000
3010
0000
0000
0000
0000
0000
0110
0000
0000
0000
0000
0000
0001
0000
0010
,
0000
0100
0000
1000
0000
0000
0010
0000
0000
0100
0000
0000
0001
0000
0000
0000
0000
0000
0001
0000
0000
1000
0000
0000
,
0000
0020
0000
0000
0000
0000
0000
1030
,
0001
2000
0000
0000
0000
0000
0000
3010
,
0100
0001
0000
0101
0000
0110
0000
1010
,
0000
1100
0000
0110
0000
0011
0000
0001
,
1000
0200
0000
0000
0000
0000
0000
1300
,
0001
0020
0000
0000
0000
0000
0000
0130
,
1000
0100
0000
0110
0000
1001
0000
1100
,
0000
0000
0022
0000
0000
0000
0000
0000
0000
0000
0033
0000
1000
0000
0010
0100
,
0000
0100
0001
0000
0001
0010
0000
0010
1000
0000
1000
0001
0000
0001
0100
0000
,
0100
2000
0000
0000
0000
0000
0000
0000
0000
0000
0000
0000
3001
0000
1000
0100
,
0000
0100
0010
0000
0010
0001
0000
0001
1000
0000
1000
0010
0000
0010
0100
0000
,
0100
0002
0000
0000
0000
0000
0000
0000
0000
1003
0001
0000
0000
0000
1000
0000
,
0020
0230
0302
0023
,
0130
0000
1000
0000
0010
0100
0010
0000
1000
0000
0001
0000
0010
0000
0100
0000
,
1000
0001
0010
0100
1000
0001
0010
0100
,
1000
0001
0010
0100
1000
1001
0001
0100
,
0010
1000
0001
0100
0010
1000
0001
0100
,
0010
1000
0001
0100
0010
1010
1000
0001
,
0100
0001
1000
0010
0100
0101
0001
0010
,
0001
1000
0100
1000
0010
0110
0000
0100
,
0000
0001
0000
1000
0001
0100
0000
0001
,
0000
2002
0000
0000
3003
0010
0000
1000
,
0001
1000
0010
0100
0001
0010
0100
1000
,
0010
0000
0000
0100
0000
0000
0010
0000
0000
1000
0000
0010
0000
0100
0000
0001
0000
0000
0010
0000
0000
0100
0000
0000
,
0010
0000
0000
0001
0000
0000
1000
0000
0000
0010
0000
0000
1000
0000
0000
0001
0000
0100
0000
0000
0000
0001
0000
0100
,
0000
0010
0000
1000
0000
0001
0010
0001
,
1000
0100
1000
0010
0100
0000
0010
0100
,
0001
0000
0000
1000
0000
0010
0000
1000
0000
0010
0000
0000
0000
0000
0000
0100
0000
0000
0000
0000
0000
0010
0000
0000
,
1000
0000
0000
0001
0000
0000
0010
0000
0000
0100
0000
0000
1000
0000
0000
0010
0000
0000
0100
0000
0000
0010
0000
1000
,
0000
0001
0000
0100
0000
0000
0000
0000
0000
0001
0000
0000
0000
0000
0000
0010
0000
0000
0100
0000
0000
1000
0000
0000
,
0001
0000
0000
0100
0000
0000
1000
0000
0000
0100
0000
0010
0000
0100
0000
0010
0000
0000
1000
0000
0000
0001
0000
0000
,
0100
0001
0000
0010
0000
0011
0000
0000
,
1100
0000
0000
1010
0000
0202
0000
0000
,
0303
1001
0000
0010
0000
0100
0001
1000
,
0100
0010
0100
0000
0010
0001
0010
0100
,
0000
1000
0000
0200
0000
0010
0000
0310
,
0000
0000
0002
0000
1000
0000
1003
0001
,
0000
0010
0000
0100
1000
0100
0010
0001
,
1000
0010
1000
0000
0010
0100
0001
1000
,
0000
1001
0000
0001
0000
1000
0000
0010
,
1000
0000
1000
0100
0000
0100
0010
0000
,
0001
0000
0000
0000
1000
0000
0000
0010
0000
1000
0000
0010
0100
0001
0000
0100
,
0000
0010
0000
1000
0000
0001
0100
0001
0010
0100
1000
0010
0100
0001
0010
0100
,
1000
0010
0100
0001
0100
0000
0010
0000
1000
0000
0001
0000
1000
0000
0100
0000
,
0010
0100
1000
0010
0100
0001
1000
0010
,
0000
1010
0000
1000
0100
0010
0001
0010
,
1000
0001
0100
1000
0010
0100
2002
0000
,
0000
0000
0000
0000
,
0000
0000
0000
0000
,
0000
0000
0000
0000
,
0000
0000
0000
0000
,
0000
0000
3003
0110
0000
0000
0000
0000
;

//---------------dance-single - ----------------
#NOTEDATA:;
#CHARTNAME:;
#STEPSTYPE:dance-single;
#DESCRIPTION:;
#CHARTSTYLE:;
#DIFFICULTY:Medium;
#METER:13;
#RADARVALUES:0.589669,0.637673,0.289099,0.321221,0.128488,514.000000,478.000000,36.000000,40.000000,0.000000,0.000000,0.000000,0.000000,0.000000,0.589669,0.637673,0.289099,0.321221,0.128488,514.000000,478.000000,36.000000,40.000000,0.000000,0.000000,0.000000,0.000000,0.000000;
#CREDIT:;
#NOTES:
0000
0000
0000
0000
,
0000
0000
0000
0000
,
0000
0000
0000
0000
,
0000
0000
0000
0000
,
0001
0000
1000
0000
0100
1000
0000
0001
,
0000
0100
0001
0010
,
0200
0000
2300
0000
,
3010
0000
0100
0001
0100
0000
0000
0000
,
0010
0000
1000
0000
0100
0010
0000
0001
,
0000
0010
0100
1000
,
0001
1000
0010
0100
,
0001
0200
0000
0320
,
0000
0000
1030
0000
0001
0100
0000
0001
,
0000
1000
0100
0010
,
0100
1000
0010
0100
,
0010
1000
0001
1000
,
0010
0000
0100
0000
0001
0010
0000
0001
,
0000
0010
0100
1000
,
1100
0000
0000
0110
0000
0000
0011
0000
,
1002
0000
0103
0010
,
1000
0000
0100
1000
0000
0010
0000
0000
,
0100
0001
1000
0020
,
2030
3002
0203
0320
,
1030
0000
0000
0001
,
0200
0000
0000
0300
0002
0000
0000
0000
2003
0000
0000
0000
,
3000
0020
0000
0000
0000
2030
0000
0000
0000
3100
0000
0000
,
0010
0001
0010
0100
,
0010
0001
1000
0010
,
0100
0001
1000
0010
,
0100
0001
0010
0100
,
1000
0010
0100
0001
,
0010
0001
1000
1000
,
0001
0001
0200
0000
,
0310
0000
2000
3000
,
0002
0003
0200
0300
,
0020
0030
1000
0010
,
0100
0001
0010
0100
,
1000
0010
0100
0010
,
0000
0000
0000
0000
,
2000
0002
3003
0100
,
0001
0000
0010
0001
0000
0010
0000
0000
,
0100
1000
0100
1000
,
0010
0100
0010
0100
,
0101
0000
0110
0010
,
1000
0000
0010
0100
0000
0001
0000
0000
,
0010
0100
0010
0001
,
1000
0010
0100
0000
,
0000
0110
0000
0000
1001
0000
0101
0000
,
0001
1000
0100
0001
,
0100
1000
0010
1010
,
0000
0101
0000
0000
0110
0000
0020
0000
,
0000
1030
0001
1000
,
0001
0010
0000
0001
0000
0000
0010
0000
,
0100
1000
0100
0100
,
0010
0010
0001
0002
,
0000
0000
0000
0000
0000
0000
0000
0000
0000
0000
0000
0000
0003
0000
0000
0110
,
0000
0000
0000
0000
0000
0000
0000
0000
0000
0000
0000
1010
,
0000
0000
0000
0000
0000
0000
0100
0101
,
0000
0000
0000
0000
0000
0000
0000
0000
0000
0000
0000
1010
,
0000
0000
0000
0000
0000
0000
0000
0000
0000
0000
0000
0000
0000
0110
0000
0000
0000
0000
0101
0000
0000
0000
1100
0000
,
0000
0000
0000
0000
0000
0000
0000
0000
0000
0000
0000
0110
,
0000
0000
0000
0000
0000
0000
0000
0000
0000
0000
0000
0000
0000
0000
0000
0000
0000
0000
0000
0001
0000
0000
1001
0000
,
0000
0000
0000
0000
0000
0000
0000
0000
0000
0000
0000
0000
0000
0000
0000
0001
,
0000
0000
0000
1000
0000
0000
0000
0020
0000
0000
0000
0200
0000
0000
0330
1001
,
0000
0000
0000
0001
0000
1000
0000
0001
,
0000
1000
0000
0010
0000
0100
0000
0101
,
0000
0010
0000
1000
0000
0010
0000
1000
,
0000
0010
0000
1000
0000
0001
0000
1001
,
0000
0100
0000
1000
0000
0100
0000
0010
,
0000
0100
0000
0010
0000
0001
0000
1001
,
0000
1000
0000
0010
0000
0100
0000
0001
,
0000
1000
0000
0000
0010
0000
0000
1010
,
0000
1000
0000
0100
0000
1000
0000
1001
,
0000
0001
0000
0100
0000
0001
0000
1000
,
0000
0100
0000
0000
0010
0000
0000
1002
,
0000
0000
0000
0013
0000
0100
0000
1000
,
0000
0010
0000
1000
0000
0010
0000
0100
,
0000
0010
0000
1000
0000
0001
0000
1000
,
0000
0010
0000
0100
0000
0010
0000
1000
,
0000
0100
0000
1000
0000
0010
0000
0100
,
0000
0001
0000
0010
0000
0001
0000
0100
,
0000
0010
0000
0100
0000
0001
0000
1000
,
0000
0001
0000
1000
0000
0100
0000
1000
,
0000
0010
0000
0100
0000
0001
0000
1000
,
0000
0001
0000
0010
0000
0001
0000
0000
,
2000
0000
0000
3100
0000
0020
0000
0000
,
0000
0000
0000
0032
0000
1003
0000
1001
,
0000
0100
0000
0001
0000
0100
0000
0001
,
0000
1000
0000
0100
0000
1000
0000
0001
,
0000
0100
0000
0001
0000
1000
0000
0010
,
0000
1000
0000
0001
0000
0010
0000
0100
,
0000
1000
0000
0010
0000
0100
0000
0001
,
0000
0100
0000
0010
0000
1000
0000
0001
,
0100
0002
0000
0000
0000
0000
0000
1003
,
0010
2000
0000
0000
0000
0000
0000
3010
,
0100
0010
0000
1000
0000
0100
0000
0010
,
0000
0001
0000
1000
0000
0010
0000
0100
,
0010
0200
0000
0000
0000
0000
0000
0301
,
1000
0002
0000
0000
0000
0000
0000
1003
,
0100
1000
0000
0001
0000
0010
0000
0001
,
0000
0000
2000
0000
0000
0000
0000
0000
0000
0000
0000
0000
3001
0000
0000
0001
,
0000
0000
0100
0000
0000
0100
0000
0000
0010
0000
0000
0010
0000
0000
1000
0000
,
0000
2000
0000
0000
0000
0000
0000
0000
0000
0000
0000
0000
3100
0000
0000
0100
,
0000
0000
0010
0000
0000
0010
0000
0000
0001
0000
0000
0001
0000
0000
0100
0000
,
0000
0200
0000
0000
0000
0000
0000
0000
0000
0000
0310
0000
0000
0000
1000
0000
,
0001
1000
0010
0100
,
0010
0000
1000
0000
0001
1001
0000
1000
,
0000
0001
0000
1000
0000
0001
0000
1000
,
0000
0001
0000
1000
0000
1010
0000
0010
,
0000
0100
0000
0010
0000
0100
0000
0010
,
0000
0100
0000
0010
0000
0110
0000
0100
,
0000
0001
0000
0100
0000
0101
0000
0001
,
0000
0010
0000
0001
0000
0010
0000
0100
,
0000
0100
0000
1000
0000
0001
0000
1000
,
0000
0200
0000
0000
0000
0310
0000
0001
,
0000
1000
0000
0001
0000
1000
0000
0010
,
0000
1000
0000
0001
0000
0100
0000
0001
,
0000
0100
0000
0010
0000
0100
0000
0001
,
0000
1000
0000
0100
0000
0010
0000
0001
,
0000
0010
0000
0100
0000
1000
0000
0010
,
0000
0100
0000
0010
0000
1000
0000
0001
,
0000
1000
0000
0010
0000
0100
0000
0001
,
0000
0010
0000
0001
0000
1000
0000
0100
,
0000
1000
0000
0010
0000
0100
0000
0010
,
0000
0100
0000
0001
0000
1001
0000
0000
,
1010
0000
0000
0101
0000
0200
0000
0000
,
0000
0301
0000
1000
0000
0001
0000
0100
,
0000
0010
0000
0100
0000
0001
0000
0010
,
0000
0001
0000
1000
0000
0010
0000
1000
,
0000
0000
0000
0000
,
0000
0000
0000
0100
0000
1000
0000
0001
,
0000
0100
0000
0001
0000
1000
0000
0010
,
0000
0100
0000
0001
0000
0010
0000
0010
,
0000
0000
0000
0100
0000
0000
0000
1000
,
0000
0000
0000
0000
0000
0001
0000
0000
0000
0000
0000
0000
0000
0010
0000
0000
,
0000
0000
0000
0000
0000
0100
0000
0000
0000
0000
0000
0000
0000
1000
0000
0010
,
0000
0100
0000
0001
0000
0000
0010
0000
0000
0000
0001
0000
0000
0000
1000
0000
,
0000
0100
0000
1000
0000
0010
0000
0100
,
0000
0001
0000
0100
0000
0010
0000
1000
,
0000
0100
0000
1000
0000
0001
0200
0000
,
0000
0000
0000
0000
,
0000
0000
0000
0000
,
0000
0000
0000
0000
,
0000
0000
0000
0000
,
0000
0000
0000
0310
0000
0000
0000
0000
;

//---------------dance-single - ----------------
#NOTEDATA:;
#CHARTNAME:;
#STEPSTYPE:dance-single;
#DESCRIPTION:;
#CHARTSTYLE:;
#DIFFICULTY:Easy;
#METER:6;
#RADARVALUES:0.297129,0.405792,0.048183,0.224854,0.056214,259.000000,253.000000,6.000000,28.000000,0.000000,0.000000,0.000000,0.000000,0.000000,0.297129,0.405792,0.048183,0.224854,0.056214,259.000000,253.000000,6.000000,28.000000,0.000000,0.000000,0.000000,0.000000,0.000000;
#CREDIT:;
#NOTES:
0000
0000
0000
0000
,
0000
0000
0000
0000
,
0000
0000
0000
0000
,
0000
0000
0000
0000
,
0001
0000
0100
0000
,
0010
0000
1000
0000
,
0002
0000
2003
0000
,
3100
0000
0010
0000
,
0001
0000
0000
0000
1000
0000
0000
0001
,
0000
0100
0000
0010
,
0000
1000
0000
0001
,
0000
0200
0000
0320
,
0000
0000
1030
0000
0001
0000
0000
0001
,
0000
1000
0000
0100
,
0000
0010
0000
0100
,
0000
1000
0000
0010
,
0000
0000
0100
0000
0000
0000
0000
0001
,
0000
0010
0000
1000
,
0000
0000
0000
0010
0000
0000
1000
0000
,
0002
0000
0103
0100
,
0000
0000
0000
0010
0000
0000
0000
0000
,
1000
0000
0001
0000
,
1000
0000
0001
0000
,
0000
0000
0000
0001
,
0000
0100
0000
0010
,
0000
1000
0000
0100
,
0000
0001
0000
0100
,
0000
0001
0000
0010
,
0000
1000
0000
0010
,
0000
0001
0000
0100
,
0000
0010
0000
1000
,
0000
0001
0000
0100
,
0000
0010
2000
0000
,
3001
0000
0002
0003
,
2000
3000
0200
0300
,
0020
0030
0001
0100
,
0000
0010
0000
1000
,
0000
0001
0000
0100
,
0000
0000
0000
0000
,
0001
2000
3000
0100
,
0000
0000
0000
0001
0000
0000
0000
0000
,
0100
0000
0010
0000
,
1000
0000
0010
0000
,
0200
0300
0001
1000
,
0000
0000
0000
0100
0000
0000
0000
0000
,
0010
0000
0100
0000
,
1000
0000
0001
0000
,
0000
0100
0000
0000
0001
0000
1000
0000
,
0010
0000
0100
0000
,
0001
0000
0010
0100
,
0000
1000
0000
0000
0010
0000
0200
0000
,
0000
0301
1000
0000
,
0000
0010
0000
0000
0000
0000
0100
0000
,
0000
0001
0000
0010
,
0000
0100
0000
1000
,
0000
0000
0000
0000
0000
0000
0000
0000
0000
0000
0000
0000
0000
0000
0000
0100
,
0000
0000
0000
0000
0000
0000
0000
0000
0000
0000
0000
0010
,
0000
0000
0000
0000
0000
0000
0001
0001
,
0000
0000
0000
0000
0000
0000
0000
0000
0000
0000
0000
1000
,
0000
0000
0000
0000
0000
0000
0000
0000
0000
0001
0000
1000
,
0000
0000
0000
0000
0000
0000
0000
0000
0000
0000
0000
0010
,
0000
0000
0000
0000
0000
0000
0000
0000
0000
0000
0000
0000
0000
0000
0000
0000
0000
0000
0000
0001
0000
0000
0001
0000
,
0000
0000
0000
0000
0000
0000
0000
0000
0000
0000
0000
0000
0000
0000
0000
0001
,
0000
0000
0000
0000
0000
0000
0000
0010
0000
0000
0000
0000
0000
0000
0000
0000
,
0000
0000
0000
0001
0000
0000
0000
1000
,
0000
0000
0000
0001
0000
0000
0000
0200
,
0000
0300
0000
0010
0000
0000
0000
1000
,
0000
0000
0000
0001
0000
0000
0000
2000
,
0000
3000
0000
0100
0000
0000
0000
0010
,
0000
0000
0000
0100
0000
0000
0000
0020
,
0000
0030
0000
0000
0000
0000
0000
1000
,
0000
0000
0000
0000
0000
0000
0000
1001
,
0000
0000
0000
0010
0000
0000
0000
1001
,
0000
0000
0000
0100
0000
0000
0000
0010
,
0000
0000
0000
0000
0000
0000
0000
0002
,
0000
0000
0000
0013
0000
0000
0000
0000
,
0000
0100
0000
0000
0000
0010
0000
0000
,
0000
0100
0000
0000
0000
0001
0000
0000
,
0000
0010
0000
0000
0000
0100
0000
0000
,
0000
1000
0000
0000
0000
0010
0000
0000
,
0000
0100
0000
0000
0000
0001
0000
0000
,
0000
1000
0000
0000
0000
0100
0000
0000
,
0000
1000
0000
0000
0000
0010
0000
0000
,
0000
0100
0000
0000
0000
0001
0000
0000
,
0000
0010
0000
0000
0000
0100
0000
0000
,
0000
1000
0000
0000
0000
0200
0000
0000
,
0000
0000
0000
0310
0000
0010
0000
0010
,
0000
0000
0000
0000
0000
0001
0000
0000
,
0000
1000
0000
0000
0000
0010
0000
0000
,
0000
0100
0000
0000
0000
0001
0000
0000
,
0000
0010
0000
0000
0000
0100
0000
0000
,
0000
1000
0000
0000
0000
0100
0000
0000
,
0000
1000
0000
0000
0000
0010
0000
0000
,
0000
0200
0000
0000
0000
0000
0000
0300
,
0000
0002
0000
0000
0000
0000
0000
0003
,
0000
0010
0000
0000
0000
0100
0000
0000
,
0000
1000
0000
0000
0000
0010
0000
0000
,
0000
0200
0000
0000
0000
0000
0000
0300
,
0000
0002
0000
0000
0000
0000
0000
0003
,
0000
1000
0000
0000
0000
0010
0000
0000
,
0000
0200
0000
0000
0000
0000
0301
0000
,
0000
1000
0000
0000
0010
0000
0000
0100
,
0000
0020
0000
0000
0000
0000
0000
0000
0000
0000
0000
0000
0130
0000
0000
0000
,
0000
0010
0000
0000
1000
0000
0000
0001
,
0000
2000
0000
0000
0000
0000
0000
0000
0000
0000
3010
0000
0000
0000
0000
0000
,
0100
0000
0001
0000
,
1000
0000
0000
0000
0000
1001
0000
0000
,
0000
0000
0000
0000
,
0000
0000
0000
0000
0000
0110
0000
0000
,
0000
0000
0000
0000
,
0000
0000
0000
0000
0000
0101
0000
0000
,
0000
0000
0000
0000
0000
1010
0000
0000
,
0000
0000
0000
0000
0000
0100
0000
0100
,
0000
0100
0000
0000
0000
0000
0000
0000
,
0000
0020
0000
0000
0000
0030
0000
0000
,
0000
1000
0000
0000
0000
0001
0000
0000
,
0000
1000
0000
0000
0000
0100
0000
0000
,
0000
0010
0000
0000
0000
0100
0000
0000
,
0000
1000
0000
0000
0000
0010
0000
0000
,
0000
0100
0000
0000
0000
0001
0000
0000
,
0000
0010
0000
0000
0000
0100
0000
0000
,
0000
1000
0000
0000
0000
0100
0000
0000
,
0000
0010
0000
0000
0000
0001
0000
0000
,
0000
1000
0000
0000
0000
0100
0000
0000
,
0000
1000
0000
0000
0000
0010
0000
0000
,
0100
0000
0000
0001
0000
2000
0000
0000
,
0000
3001
0000
0000
0000
0000
0000
0100
,
0000
0000
0000
0010
0000
0000
0000
1000
,
0000
0000
0000
0001
0000
0000
0000
0100
,
0000
0000
0000
0000
,
0000
0000
0000
0100
0000
0000
0000
0001
,
0000
0000
0000
1000
0000
0000
0000
0010
,
0000
0000
0000
1000
0000
0000
0000
0001
,
0000
0000
0000
0100
0000
0000
0000
0010
,
0000
0000
0000
0000
0000
0001
0000
0000
0000
0000
0000
0000
0000
0010
0000
0000
,
0000
0000
0000
0000
0000
0100
0000
0000
0000
0000
0000
0000
0000
0000
0000
0000
,
0000
0000
0000
0010
0000
0000
0000
1000
,
0000
0000
0000
0001
0000
0000
0000
0100
,
0000
0000
0000
0010
0000
0000
0000
1000
,
0000
0000
0000
0010
0000
1000
0002
0000
,
0000
0000
0000
0000
,
0000
0000
0000
0000
,
0000
0000
0000
0000
,
0000
0000
0000
0000
,
0000
0000
0000
0003
0000
0000
0000
0000
;

//---------------dance-single - ----------------
#NOTEDATA:;
#CHARTNAME:;
#STEPSTYPE:dance-single;
#DESCRIPTION:;
#CHARTSTYLE:;
#DIFFICULTY:Beginner;
#METER:3;
#RADARVALUES:0.158316,0.231881,0.000000,0.192732,0.048183,138.000000,138.000000,0.000000,24.000000,0.000000,0.000000,0.000000,0.000000,0.000000,0.158316,0.231881,0.000000,0.192732,0.048183,138.000000,138.000000,0.000000,24.000000,0.000000,0.000000,0.000000,0.000000,0.000000;
#CREDIT:;
#NOTES:
// measure 0
0000
0000
0000
0000
,  // measure 1
0000
0000
0000
0000
,  // measure 2
0000
0000
0000
0000
,  // measure 3
0000
0000
0000
0000
,  // measure 4
1000
0000
0000
0000
,  // measure 5
0100
0000
0000
0000
,  // measure 6
2000
0000
3000
0000
,  // measure 7
0010
0000
0000
0000
,  // measure 8
1000
0000
0000
0000
,  // measure 9
0000
0010
0000
0000
,  // measure 10
0000
0001
0000
0000
,  // measure 11
0000
0020
0000
0030
,  // measure 12
0000
0001
0000
0000
,  // measure 13
0000
0001
0000
0000
,  // measure 14
0000
0100
0000
0000
,  // measure 15
0000
0001
0000
0000
,  // measure 16
0000
0010
0000
0000
,  // measure 17
0000
0100
0000
0000
,  // measure 18
0010
0000
0000
0001
,  // measure 19
2000
0000
3000
0010
,  // measure 20
0000
0000
0000
0100
0000
0000
0000
0000
,  // measure 21
0001
0000
0000
0000
,  // measure 22
0001
0000
0000
0000
,  // measure 23
0000
0000
0000
1000
,  // measure 24
0000
0000
0000
0100
,  // measure 25
0000
0000
0000
0010
,  // measure 26
0000
0000
0000
0010
,  // measure 27
0000
0000
0000
0100
,  // measure 28
0000
0000
0000
0100
,  // measure 29
0000
0000
0000
0010
,  // measure 30
0000
0000
0000
0001
,  // measure 31
0000
0000
0000
0010
,  // measure 32
0000
0000
0002
0000
,  // measure 33
0003
0000
2000
3000
,  // measure 34
0000
0000
0020
0030
,  // measure 35
0000
0000
1000
0000
,  // measure 36
0000
0100
0000
0000
,  // measure 37
0000
1000
0000
0000
,  // measure 38
0000
0000
0000
0000
,  // measure 39
1000
0000
0000
0010
,  // measure 40
0000
0000
0000
0000
,  // measure 41
0010
0000
0000
0000
,  // measure 42
0001
0000
0000
0000
,  // measure 43
0020
0030
0000
0001
,  // measure 44
0000
0000
0000
0000
,  // measure 45
0100
0000
0000
0000
,  // measure 46
0001
0000
0000
0000
,  // measure 47
0000
0000
1000
0000
,  // measure 48
0000
0000
0010
0000
,  // measure 49
0000
0000
0100
0000
,  // measure 50
0000
0000
0100
0000
,  // measure 51
0000
0000
0001
0000
,  // measure 52
0000
0000
0000
0010
,  // measure 53
0000
0000
0000
0100
,  // measure 54
0000
0000
0000
0001
,  // measure 55
0000
0000
0000
0000
0000
0000
0000
0000
0000
0000
0000
0000
0000
0000
0000
0010
,  // measure 56
0000
0000
0000
0000
0000
0000
0000
0000
0000
0000
0000
0100
,  // measure 57
0000
0000
0000
0000
0000
0000
0000
1000
,  // measure 58
0000
0000
0000
0000
0000
0000
0000
0000
0000
0000
0000
0001
,  // measure 59
0000
0000
0000
0000
0000
0000
0000
0000
0000
0000
0000
0001
,  // measure 60
0000
0000
0000
0000
0000
0000
0000
0000
0000
0000
0000
0100
,  // measure 61
0000
0000
0000
0000
0000
0000
0000
0000
0000
0000
0000
1000
,  // measure 62
0000
0000
0000
0000
0000
0000
0000
0000
0000
0000
0000
0000
0000
0000
0000
1000
,  // measure 63
0000
0000
0000
0000
0000
0000
0000
0100
0000
0000
0000
0000
0000
0000
0000
0000
,  // measure 64
0000
0000
0000
1000
0000
0000
0000
0000
,  // measure 65
0000
0000
0000
1000
0000
0000
0000
0000
,  // measure 66
0000
0000
0000
0100
0000
0000
0000
0000
,  // measure 67
0000
0000
0000
1000
0000
0000
0000
0000
,  // measure 68
0000
0000
0000
0010
0000
0000
0000
0000
,  // measure 69
0000
0000
0000
0010
0000
0000
0000
0000
,  // measure 70
0000
0000
0000
0000
0000
0000
0000
0001
,  // measure 71
0000
0000
0000
0000
0000
0000
0000
1000
,  // measure 72
0000
0000
0000
0000
0000
0000
0000
0001
,  // measure 73
0000
0000
0000
0000
0000
0000
0000
0100
,  // measure 74
0000
0000
0000
0000
0000
0000
0000
2000
,  // measure 75
0000
0000
0000
3000
0000
0000
0000
0000
,  // measure 76
0000
0010
0000
0000
0000
0000
0000
0000
,  // measure 77
0000
0010
0000
0000
0000
0000
0000
0000
,  // measure 78
0000
0100
0000
0000
0000
0000
0000
0000
,  // measure 79
0000
0001
0000
0000
0000
0000
0000
0000
,  // measure 80
0000
0010
0000
0000
0000
0000
0000
0000
,  // measure 81
0000
0001
0000
0000
0000
0000
0000
0000
,  // measure 82
0000
0001
0000
0000
0000
0000
0000
0000
,  // measure 83
0000
0010
0000
0000
0000
0000
0000
0000
,  // measure 84
0000
0100
0000
0000
0000
0000
0000
0000
,  // measure 85
0000
0001
0000
0000
0000
0020
0000
0000
,  // measure 86
0000
0000
0000
0230
0000
0000
0000
0300
,  // measure 87
0000
0000
0000
0000
0000
1000
0000
0000
,  // measure 88
0000
0000
0000
0000
0000
0100
0000
0000
,  // measure 89
0000
0000
0000
0000
0000
1000
0000
0000
,  // measure 90
0000
0000
0000
0000
0000
0010
0000
0000
,  // measure 91
0000
0000
0000
0000
0000
0010
0000
0000
,  // measure 92
0000
0000
0000
0000
0000
0100
0000
0000
,  // measure 93
0000
0020
0000
0000
0000
0000
0000
0030
,  // measure 94
0000
2000
0000
0000
0000
0000
0000
3000
,  // measure 95
0000
0100
0000
0000
0000
0000
0000
0000
,  // measure 96
0000
0001
0000
0000
0000
0000
0000
0000
,  // measure 97
0000
0020
0000
0000
0000
0000
0000
0030
,  // measure 98
0000
2000
0000
0000
0000
0000
0000
3000
,  // measure 99
0000
0001
0000
0000
0000
0000
0000
0000
,  // measure 100
0000
0020
0000
0000
0000
0000
1030
0000
,  // measure 101
0000
0000
0100
0000
,  // measure 102
0000
0200
0000
0000
0000
0000
0000
0000
0000
0000
0000
0000
0310
0000
0000
0000
,  // measure 103
0000
0000
0001
0000
,  // measure 104
0000
0002
0000
0000
0000
0000
0000
0000
0000
0000
0003
0000
0000
0000
0000
0000
,  // measure 105
0010
0000
0000
0000
,  // measure 106
0001
0000
0000
0000
0000
2000
3000
0000
,  // measure 107
0000
0000
0000
0000
,  // measure 108
0000
0000
0000
0000
0000
0020
0030
0000
,  // measure 109
0000
0000
0000
0000
,  // measure 110
0000
0000
0000
0000
0000
2000
3000
0000
,  // measure 111
0000
0000
0000
0000
0000
0002
0003
0000
,  // measure 112
0000
0000
0000
0000
,  // measure 113
0000
0010
0000
0000
0000
0000
0000
0000
,  // measure 114
0000
0200
0000
0000
0000
0300
0000
0000
,  // measure 115
0000
0001
0000
0000
0000
0000
0000
0000
,  // measure 116
0000
0001
0000
0000
0000
0000
0000
0000
,  // measure 117
0000
0100
0000
0000
0000
0000
0000
0000
,  // measure 118
0000
0001
0000
0000
0000
0000
0000
0000
,  // measure 119
0000
0010
0000
0000
0000
0000
0000
0000
,  // measure 120
0000
0100
0000
0000
0000
0000
0000
0000
,  // measure 121
0000
0001
0000
0000
0000
0000
0000
0000
,  // measure 122
0000
0100
0000
0000
0000
0000
0000
0000
,  // measure 123
0000
0001
0000
0000
0000
0000
0000
0000
,  // measure 124
0000
0001
0000
0000
0000
0000
0000
0000
,  // measure 125
0010
0000
0000
0000
0000
0002
0000
0000
,  // measure 126
0000
0003
0000
0000
0000
0000
0000
0010
,  // measure 127
0000
0000
0000
0000
0000
0000
0000
0001
,  // measure 128
0000
0000
0000
0000
0000
0000
0000
0010
,  // measure 129
0000
0000
0000
0000
,  // measure 130
0000
0000
0000
0010
0000
0000
0000
0000
,  // measure 131
0000
0000
0000
0001
0000
0000
0000
0000
,  // measure 132
0000
0000
0000
0001
0000
0000
0000
0000
,  // measure 133
0000
0000
0000
0010
0000
0000
0000
0000
,  // measure 134
0000
0000
0000
0000
0000
1000
0000
0000
0000
0000
0000
0000
0000
0000
0000
0000
,  // measure 135
0000
0000
0000
0000
0000
0010
0000
0000
0000
0000
0000
0000
0000
0000
0000
0000
,  // measure 136
0000
0000
0000
0100
0000
0000
0000
0000
,  // measure 137
0000
0000
0000
1000
0000
0000
0000
0000
,  // measure 138
0000
0000
0000
0100
0000
0000
0000
0000
,  // measure 139
0000
0000
0000
0100
0000
0000
2000
0000
,  // measure 140
0000
0000
0000
0000
,  // measure 141
0000
0000
0000
0000
,  // measure 142
0000
0000
0000
0000
,  // measure 143
0000
0000
0000
0000
,  // measure 144
0000
0000
0000
3000
0000
0000
0000
0000
;
